  0
SECTION
  2
HEADER
  9
$ACADVER
  1
AC1015
  9
$ACADMAINTVER
 70
    20
  9
$DWGCODEPAGE
  3
ANSI_932
  9
$INSBASE
 10
0.0
 20
0.0
 30
0.0
  9
$EXTMIN
 10
3.182904241076812
 20
2.713574434857036
 30
-0.0015258207003583
  9
$EXTMAX
 10
402.8232946001189
 20
294.1999146238118
 30
0.0000000349246037
  9
$LIMMIN
 10
0.0
 20
0.0
  9
$LIMMAX
 10
420.0
 20
297.0
  9
$ORTHOMODE
 70
     1
  9
$REGENMODE
 70
     1
  9
$FILLMODE
 70
     1
  9
$QTEXTMODE
 70
     0
  9
$MIRRTEXT
 70
     1
  9
$LTSCALE
 40
12.0
  9
$ATTMODE
 70
     1
  9
$TEXTSIZE
 40
10.0
  9
$TRACEWID
 40
0.3
  9
$TEXTSTYLE
  7
0
  9
$CLAYER
  8
SC
  9
$CELTYPE
  6
ByLayer
  9
$CECOLOR
 62
   256
  9
$CELTSCALE
 40
1.0
  9
$DISPSILH
 70
     0
  9
$DIMSCALE
 40
1.0
  9
$DIMASZ
 40
2.5
  9
$DIMEXO
 40
0.0625
  9
$DIMDLI
 40
8.0
  9
$DIMRND
 40
0.0
  9
$DIMDLE
 40
0.0
  9
$DIMEXE
 40
1.25
  9
$DIMTP
 40
0.0
  9
$DIMTM
 40
0.0
  9
$DIMTXT
 40
2.5
  9
$DIMCEN
 40
2.5
  9
$DIMTSZ
 40
0.0
  9
$DIMTOL
 70
     0
  9
$DIMLIM
 70
     0
  9
$DIMTIH
 70
     0
  9
$DIMTOH
 70
     0
  9
$DIMSE1
 70
     0
  9
$DIMSE2
 70
     0
  9
$DIMTAD
 70
     1
  9
$DIMZIN
 70
     8
  9
$DIMBLK
  1

  9
$DIMASO
 70
     1
  9
$DIMSHO
 70
     0
  9
$DIMPOST
  1

  9
$DIMAPOST
  1

  9
$DIMALT
 70
     0
  9
$DIMALTD
 70
     2
  9
$DIMALTF
 40
25.4
  9
$DIMLFAC
 40
1.0
  9
$DIMTOFL
 70
     1
  9
$DIMTVP
 40
0.0
  9
$DIMTIX
 70
     0
  9
$DIMSOXD
 70
     0
  9
$DIMSAH
 70
     0
  9
$DIMBLK1
  1

  9
$DIMBLK2
  1

  9
$DIMSTYLE
  2
nisimura
  9
$DIMCLRD
 70
     0
  9
$DIMCLRE
 70
     0
  9
$DIMCLRT
 70
     0
  9
$DIMTFAC
 40
1.0
  9
$DIMGAP
 40
0.625
  9
$DIMJUST
 70
     0
  9
$DIMSD1
 70
     0
  9
$DIMSD2
 70
     0
  9
$DIMTOLJ
 70
     1
  9
$DIMTZIN
 70
     0
  9
$DIMALTZ
 70
     0
  9
$DIMALTTZ
 70
     0
  9
$DIMUPT
 70
     0
  9
$DIMDEC
 70
     2
  9
$DIMTDEC
 70
     2
  9
$DIMALTU
 70
     2
  9
$DIMALTTD
 70
     2
  9
$DIMTXSTY
  7
0
  9
$DIMAUNIT
 70
     0
  9
$DIMADEC
 70
     2
  9
$DIMALTRND
 40
0.0
  9
$DIMAZIN
 70
     2
  9
$DIMDSEP
 70
    46
  9
$DIMATFIT
 70
     3
  9
$DIMFRAC
 70
     0
  9
$DIMLDRBLK
  1

  9
$DIMLUNIT
 70
     2
  9
$DIMLWD
 70
    -2
  9
$DIMLWE
 70
    -2
  9
$DIMTMOVE
 70
     0
  9
$LUNITS
 70
     2
  9
$LUPREC
 70
     4
  9
$SKETCHINC
 40
0.1
  9
$FILLETRAD
 40
2.0
  9
$AUNITS
 70
     0
  9
$AUPREC
 70
     1
  9
$MENU
  1
ACAD
  9
$ELEVATION
 40
0.0
  9
$PELEVATION
 40
0.0
  9
$THICKNESS
 40
0.0
  9
$LIMCHECK
 70
     0
  9
$CHAMFERA
 40
0.0
  9
$CHAMFERB
 40
0.0
  9
$CHAMFERC
 40
0.0
  9
$CHAMFERD
 40
0.0
  9
$SKPOLY
 70
     0
  9
$TDCREATE
 40
2450808.702418171
  9
$TDUCREATE
 40
2450808.327418172
  9
$TDUPDATE
 40
2458726.580744271
  9
$TDUUPDATE
 40
2458726.205744271
  9
$TDINDWG
 40
2.0034992824
  9
$TDUSRTIMER
 40
2.0034992130
  9
$USRTIMER
 70
     1
  9
$ANGBASE
 50
0.0
  9
$ANGDIR
 70
     0
  9
$PDMODE
 70
     0
  9
$PDSIZE
 40
0.0
  9
$PLINEWID
 40
1.0
  9
$SPLFRAME
 70
     0
  9
$SPLINETYPE
 70
     6
  9
$SPLINESEGS
 70
     8
  9
$HANDSEED
  5
324F
  9
$SURFTAB1
 70
     6
  9
$SURFTAB2
 70
     6
  9
$SURFTYPE
 70
     6
  9
$SURFU
 70
     6
  9
$SURFV
 70
     6
  9
$UCSBASE
  2

  9
$UCSNAME
  2

  9
$UCSORG
 10
0.0
 20
0.0
 30
0.0
  9
$UCSXDIR
 10
1.0
 20
0.0
 30
0.0
  9
$UCSYDIR
 10
0.0
 20
1.0
 30
0.0
  9
$UCSORTHOREF
  2

  9
$UCSORTHOVIEW
 70
     0
  9
$UCSORGTOP
 10
0.0
 20
0.0
 30
0.0
  9
$UCSORGBOTTOM
 10
0.0
 20
0.0
 30
0.0
  9
$UCSORGLEFT
 10
0.0
 20
0.0
 30
0.0
  9
$UCSORGRIGHT
 10
0.0
 20
0.0
 30
0.0
  9
$UCSORGFRONT
 10
0.0
 20
0.0
 30
0.0
  9
$UCSORGBACK
 10
0.0
 20
0.0
 30
0.0
  9
$PUCSBASE
  2

  9
$PUCSNAME
  2

  9
$PUCSORG
 10
0.0
 20
0.0
 30
0.0
  9
$PUCSXDIR
 10
1.0
 20
0.0
 30
0.0
  9
$PUCSYDIR
 10
0.0
 20
1.0
 30
0.0
  9
$PUCSORTHOREF
  2

  9
$PUCSORTHOVIEW
 70
     0
  9
$PUCSORGTOP
 10
0.0
 20
0.0
 30
0.0
  9
$PUCSORGBOTTOM
 10
0.0
 20
0.0
 30
0.0
  9
$PUCSORGLEFT
 10
0.0
 20
0.0
 30
0.0
  9
$PUCSORGRIGHT
 10
0.0
 20
0.0
 30
0.0
  9
$PUCSORGFRONT
 10
0.0
 20
0.0
 30
0.0
  9
$PUCSORGBACK
 10
0.0
 20
0.0
 30
0.0
  9
$USERI1
 70
     0
  9
$USERI2
 70
     0
  9
$USERI3
 70
     0
  9
$USERI4
 70
     0
  9
$USERI5
 70
     0
  9
$USERR1
 40
0.0
  9
$USERR2
 40
0.0
  9
$USERR3
 40
0.0
  9
$USERR4
 40
0.0
  9
$USERR5
 40
0.0
  9
$WORLDVIEW
 70
     1
  9
$SHADEDGE
 70
     3
  9
$SHADEDIF
 70
    70
  9
$TILEMODE
 70
     1
  9
$MAXACTVP
 70
    16
  9
$PINSBASE
 10
0.0
 20
0.0
 30
0.0
  9
$PLIMCHECK
 70
     0
  9
$PEXTMIN
 10
1.000000000000000E+20
 20
1.000000000000000E+20
 30
1.000000000000000E+20
  9
$PEXTMAX
 10
-1.000000000000000E+20
 20
-1.000000000000000E+20
 30
-1.000000000000000E+20
  9
$PLIMMIN
 10
0.0
 20
0.0
  9
$PLIMMAX
 10
12.0
 20
9.0
  9
$UNITMODE
 70
     0
  9
$VISRETAIN
 70
     0
  9
$PLINEGEN
 70
     0
  9
$PSLTSCALE
 70
     0
  9
$TREEDEPTH
 70
  3020
  9
$CMLSTYLE
  2
Standard
  9
$CMLJUST
 70
     0
  9
$CMLSCALE
 40
1.0
  9
$PROXYGRAPHICS
 70
     1
  9
$MEASUREMENT
 70
     0
  9
$CELWEIGHT
370
    -1
  9
$ENDCAPS
280
     0
  9
$JOINSTYLE
280
     0
  9
$LWDISPLAY
290
     0
  9
$INSUNITS
 70
     0
  9
$HYPERLINKBASE
  1

  9
$STYLESHEET
  1
monochrome.ctb
  9
$XEDIT
290
     1
  9
$CEPSNTYPE
380
     0
  9
$PSTYLEMODE
290
     1
  9
$FINGERPRINTGUID
  2
{51BC8342-4694-11D4-A1F9-0060672295C7}
  9
$VERSIONGUID
  2
{F27508DC-688C-430C-84F9-9E222ADDAFB4}
  9
$EXTNAMES
290
     1
  9
$PSVPSCALE
 40
0.0
  9
$OLESTARTUP
290
     0
  0
ENDSEC
  0
SECTION
  2
CLASSES
  0
CLASS
  1
ACDBDICTIONARYWDFLT
  2
AcDbDictionaryWithDefault
  3
ObjectDBX Classes
 90
        0
280
     0
281
     0
  0
CLASS
  1
ACDBPLACEHOLDER
  2
AcDbPlaceHolder
  3
ObjectDBX Classes
 90
        0
280
     0
281
     0
  0
CLASS
  1
LAYOUT
  2
AcDbLayout
  3
ObjectDBX Classes
 90
        0
280
     0
281
     0
  0
CLASS
  1
TABLESTYLE
  2
AcDbTableStyle
  3
ObjectDBX Classes
 90
     4095
280
     0
281
     0
  0
CLASS
  1
DICTIONARYVAR
  2
AcDbDictionaryVar
  3
ObjectDBX Classes
 90
        0
280
     0
281
     0
  0
CLASS
  1
MATERIAL
  2
AcDbMaterial
  3
ObjectDBX Classes
 90
     1153
280
     0
281
     0
  0
CLASS
  1
VISUALSTYLE
  2
AcDbVisualStyle
  3
ObjectDBX Classes
 90
     4095
280
     0
281
     0
  0
CLASS
  1
SCALE
  2
AcDbScale
  3
ObjectDBX Classes
 90
     1153
280
     0
281
     0
  0
CLASS
  1
MLEADERSTYLE
  2
AcDbMLeaderStyle
  3
ACDB_MLEADERSTYLE_CLASS
 90
     4095
280
     0
281
     0
  0
CLASS
  1
ACDBSECTIONVIEWSTYLE
  2
AcDbSectionViewStyle
  3
ObjectDBX Classes
 90
     1025
280
     0
281
     0
  0
CLASS
  1
ACDBDETAILVIEWSTYLE
  2
AcDbDetailViewStyle
  3
ObjectDBX Classes
 90
     1025
280
     0
281
     0
  0
CLASS
  1
SORTENTSTABLE
  2
AcDbSortentsTable
  3
ObjectDBX Classes
 90
        0
280
     0
281
     0
  0
CLASS
  1
ACDBASSOCACTION
  2
AcDbAssocAction
  3
ObjectDBX Classes
 90
    33793
280
     0
281
     0
  0
CLASS
  1
ACDBASSOCARRAYACTIONBODY
  2
AcDbAssocArrayActionBody
  3
ObjectDBX Classes
 90
    33793
280
     0
281
     0
  0
CLASS
  1
ACDBASSOCDEPENDENCY
  2
AcDbAssocDependency
  3
ObjectDBX Classes
 90
    33793
280
     0
281
     0
  0
CLASS
  1
ACDBASSOCVERTEXACTIONPARAM
  2
AcDbAssocVertexActionParam
  3
ObjectDBX Classes
 90
    33793
280
     0
281
     0
  0
CLASS
  1
ACDBASSOCARRAYPOLARPARAMETERS
  2
AcDbAssocArrayPolarParameters
  3
ObjectDBX Classes
 90
    33793
280
     0
281
     0
  0
CLASS
  1
ACDBASSOCNETWORK
  2
AcDbAssocNetwork
  3
ObjectDBX Classes
 90
    33793
280
     0
281
     0
  0
CLASS
  1
MULTILEADER
  2
AcDbMLeader
  3
ACDB_MLEADER_CLASS
 90
     1025
280
     0
281
     1
  0
CLASS
  1
CELLSTYLEMAP
  2
AcDbCellStyleMap
  3
ObjectDBX Classes
 90
     1152
280
     0
281
     0
  0
ENDSEC
  0
SECTION
  2
TABLES
  0
TABLE
  2
VPORT
  5
8
330
0
100
AcDbSymbolTable
 70
     1
  0
VPORT
  5
1FCB
330
8
100
AcDbSymbolTableRecord
100
AcDbViewportTableRecord
  2
*Active
 70
     0
 10
0.0
 20
0.0
 11
1.0
 21
1.0
 12
203.0030994205979
 22
148.4567445293344
 13
0.0
 23
0.0
 14
0.001
 24
0.001
 15
10.0
 25
10.0
 16
0.0
 26
0.0
 36
1.0
 17
0.0
 27
0.0
 37
0.0
 40
293.6890077470577
 41
2.090794451450189
 42
50.0
 43
0.0
 44
0.0
 50
0.0
 51
0.0
 71
     0
 72
  2000
 73
     1
 74
     0
 75
     1
 76
     1
 77
     0
 78
     2
281
     0
 65
     1
110
0.0
120
0.0
130
0.0
111
1.0
121
0.0
131
0.0
112
0.0
122
1.0
132
0.0
 79
     0
146
0.0
1001
ACAD_NAV_VCDISPLAY
1070
     3
  0
ENDTAB
  0
TABLE
  2
LTYPE
  5
5
330
0
100
AcDbSymbolTable
 70
     6
  0
LTYPE
  5
13
330
5
100
AcDbSymbolTableRecord
100
AcDbLinetypeTableRecord
  2
ByBlock
 70
     0
  3

 72
    65
 73
     0
 40
0.0
  0
LTYPE
  5
14
330
5
100
AcDbSymbolTableRecord
100
AcDbLinetypeTableRecord
  2
ByLayer
 70
     0
  3

 72
    65
 73
     0
 40
0.0
  0
LTYPE
  5
15
330
5
100
AcDbSymbolTableRecord
100
AcDbLinetypeTableRecord
  2
CONTINUOUS
 70
     0
  3
実線
 72
    65
 73
     0
 40
0.0
  0
LTYPE
  5
23
330
5
100
AcDbSymbolTableRecord
100
AcDbLinetypeTableRecord
  2
CENTER
 70
     0
  3
____ _ ____ _ ____ _ ____ _ ____ _ ____ _ ____
 72
    65
 73
     4
 40
2.0
 49
1.25
 74
     0
 49
-0.25
 74
     0
 49
0.25
 74
     0
 49
-0.25
 74
     0
  0
LTYPE
  5
24
330
5
100
AcDbSymbolTableRecord
100
AcDbLinetypeTableRecord
  2
HIDDEN
 70
     0
  3
_ _ _ _ _ _ _ _ _ _ _ _ _ _ _ _ _ _ _ _ _ _ _
 72
    65
 73
     2
 40
0.375
 49
0.25
 74
     0
 49
-0.125
 74
     0
  0
LTYPE
  5
1C0C
330
5
100
AcDbSymbolTableRecord
100
AcDbLinetypeTableRecord
  2
PHANTOM2
 70
     0
  3
Phantom (.5x) ___ _ _ ___ _ _ ___ _ _ ___ _ _
 72
    65
 73
     6
 40
1.25
 49
0.625
 74
     0
 49
-0.125
 74
     0
 49
0.125
 74
     0
 49
-0.125
 74
     0
 49
0.125
 74
     0
 49
-0.125
 74
     0
  0
ENDTAB
  0
TABLE
  2
LAYER
  5
2
102
{ACAD_XDICTIONARY
360
2081
102
}
330
0
100
AcDbSymbolTable
 70
    14
  0
LAYER
  5
10
102
{ACAD_XDICTIONARY
360
2058
102
}
330
2
100
AcDbSymbolTableRecord
100
AcDbLayerTableRecord
  2
0
 70
     0
 62
     7
  6
CONTINUOUS
370
    -3
390
F
  0
LAYER
  5
28
102
{ACAD_XDICTIONARY
360
205A
102
}
330
2
100
AcDbSymbolTableRecord
100
AcDbLayerTableRecord
  2
HO
 70
     0
 62
     2
  6
CENTER
370
    13
390
F
  0
LAYER
  5
29
102
{ACAD_XDICTIONARY
360
205C
102
}
330
2
100
AcDbSymbolTableRecord
100
AcDbLayerTableRecord
  2
HA
 70
     0
 62
     4
  6
HIDDEN
370
    13
390
F
  0
LAYER
  5
2A
102
{ACAD_XDICTIONARY
360
205E
102
}
330
2
100
AcDbSymbolTableRecord
100
AcDbLayerTableRecord
  2
SB
 70
     0
 62
     1
  6
CONTINUOUS
370
    20
390
F
  0
LAYER
  5
2B
102
{ACAD_XDICTIONARY
360
2060
102
}
330
2
100
AcDbSymbolTableRecord
100
AcDbLayerTableRecord
  2
SA
 70
     0
 62
     7
  6
CONTINUOUS
370
    30
390
F
  0
LAYER
  5
2C
102
{ACAD_XDICTIONARY
360
2062
102
}
330
2
100
AcDbSymbolTableRecord
100
AcDbLayerTableRecord
  2
MO
 70
     0
 62
     3
  6
CONTINUOUS
370
    20
390
F
  0
LAYER
  5
2D
102
{ACAD_XDICTIONARY
360
2064
102
}
330
2
100
AcDbSymbolTableRecord
100
AcDbLayerTableRecord
  2
SC
 70
     0
 62
     6
  6
CONTINUOUS
370
    13
390
F
  0
LAYER
  5
2E
330
2
100
AcDbSymbolTableRecord
100
AcDbLayerTableRecord
  2
DEFPOINTS
 70
     0
 62
     7
  6
CONTINUOUS
290
     0
370
    -3
390
F
  0
LAYER
  5
1397
102
{ACAD_XDICTIONARY
360
2066
102
}
330
2
100
AcDbSymbolTableRecord
100
AcDbLayerTableRecord
  2
sd
 70
     0
 62
     1
  6
CONTINUOUS
370
    20
390
F
  0
LAYER
  5
2C42
330
2
100
AcDbSymbolTableRecord
100
AcDbLayerTableRecord
  2
NN
 70
     0
 62
     3
  6
CONTINUOUS
370
    20
390
F
  0
ENDTAB
  0
TABLE
  2
STYLE
  5
3
330
0
100
AcDbSymbolTable
 70
     4
  0
STYLE
  5
11
330
3
100
AcDbSymbolTableRecord
100
AcDbTextStyleTableRecord
  2
STANDARD
 70
     0
 40
0.0
 41
1.0
 50
0.0
 71
     0
 42
0.2
  3
TXT
  4

  0
STYLE
  5
22
330
3
100
AcDbSymbolTableRecord
100
AcDbTextStyleTableRecord
  2
0
 70
     0
 40
0.0
 41
1.0
 50
0.0
 71
     0
 42
10.0
  3
SIMPLEX
  4
BIGFONT
  0
STYLE
  5
1C0B
330
3
100
AcDbSymbolTableRecord
100
AcDbTextStyleTableRecord
  2

 70
     1
 40
0.0
 41
1.0
 50
0.0
 71
     0
 42
10.0
  3
ltypeshp.shx
  4

  0
ENDTAB
  0
TABLE
  2
VIEW
  5
6
330
0
100
AcDbSymbolTable
 70
     1
  0
VIEW
  5
25
330
6
100
AcDbSymbolTableRecord
100
AcDbViewTableRecord
  2
HYOU
 70
     0
 40
162.519
 10
329.94
 20
84.5855
 41
158.206
 11
0.0
 21
0.0
 31
1.0
 12
0.0
 22
0.0
 32
0.0
 42
50.0
 43
0.0
 44
0.0
 50
0.0
 71
     0
281
     0
 72
     0
  0
ENDTAB
  0
TABLE
  2
UCS
  5
7
330
0
100
AcDbSymbolTable
 70
     0
  0
ENDTAB
  0
TABLE
  2
APPID
  5
9
330
0
100
AcDbSymbolTable
 70
     8
  0
APPID
  5
12
330
9
100
AcDbSymbolTableRecord
100
AcDbRegAppTableRecord
  2
ACAD
 70
     0
  0
APPID
  5
17B3
330
9
100
AcDbSymbolTableRecord
100
AcDbRegAppTableRecord
  2
ACAD_PSEXT
 70
     0
  0
APPID
  5
2023
330
9
100
AcDbSymbolTableRecord
100
AcDbRegAppTableRecord
  2
ACAD_EXEMPT_FROM_CAD_STANDARDS
 70
     0
  0
APPID
  5
2068
330
9
100
AcDbSymbolTableRecord
100
AcDbRegAppTableRecord
  2
ACAD_NAV_VCDISPLAY
 70
     0
  0
APPID
  5
24A4
330
9
100
AcDbSymbolTableRecord
100
AcDbRegAppTableRecord
  2
AcadAnnoMonitorAlertIconDisabled
 70
     0
  0
APPID
  5
26FA
330
9
100
AcDbSymbolTableRecord
100
AcDbRegAppTableRecord
  2
ACAD_DSTYLE_DIMJAG
 70
     0
  0
APPID
  5
26FB
330
9
100
AcDbSymbolTableRecord
100
AcDbRegAppTableRecord
  2
ACAD_DSTYLE_DIMTALN
 70
     0
  0
APPID
  5
324C
330
9
100
AcDbSymbolTableRecord
100
AcDbRegAppTableRecord
  2
ACAD_MLEADERVER
 70
     0
  0
ENDTAB
  0
TABLE
  2
DIMSTYLE
  5
A
330
0
100
AcDbSymbolTable
 70
     4
100
AcDbDimStyleTable
 71
     2
340
2C44
340
3C3
  0
DIMSTYLE
105
3C3
330
A
100
AcDbSymbolTableRecord
100
AcDbDimStyleTableRecord
  2
Standard
 70
     0
 41
2.0
140
2.0
340
11
1001
ACAD_DSTYLE_DIMJAG
1070
   388
1040
1.5
1001
ACAD_DSTYLE_DIMTALN
1070
   392
1070
     0
  0
DIMSTYLE
105
2C44
102
{ACAD_REACTORS
330
311D
330
314E
330
3188
102
}
330
A
100
AcDbSymbolTableRecord
100
AcDbDimStyleTableRecord
  2
nisimura
 70
     0
 41
2.5
 43
8.0
 44
1.25
 73
     0
 74
     0
 77
     1
 78
     8
 79
     2
140
2.5
141
2.5
147
0.625
172
     1
179
     2
271
     2
272
     2
340
22
  0
ENDTAB
  0
TABLE
  2
BLOCK_RECORD
  5
1
330
0
100
AcDbSymbolTable
 70
    30
  0
BLOCK_RECORD
  5
1E
102
{ACAD_XDICTIONARY
360
2BBB
102
}
330
1
100
AcDbSymbolTableRecord
100
AcDbBlockTableRecord
  2
*Model_Space
340
21
  0
BLOCK_RECORD
  5
1A
330
1
100
AcDbSymbolTableRecord
100
AcDbBlockTableRecord
  2
*Paper_Space
340
1D
  0
BLOCK_RECORD
  5
1BF1
330
1
100
AcDbSymbolTableRecord
100
AcDbBlockTableRecord
  2
A$C168224A4
340
0
  0
BLOCK_RECORD
  5
2514
330
1
100
AcDbSymbolTableRecord
100
AcDbBlockTableRecord
  2
_ClosedBlank
340
0
  0
BLOCK_RECORD
  5
2525
330
1
100
AcDbSymbolTableRecord
100
AcDbBlockTableRecord
  2
_Closed
340
0
  0
BLOCK_RECORD
  5
2537
330
1
100
AcDbSymbolTableRecord
100
AcDbBlockTableRecord
  2
_Dot
340
0
  0
BLOCK_RECORD
  5
2547
330
1
100
AcDbSymbolTableRecord
100
AcDbBlockTableRecord
  2
_ArchTick
340
0
  0
BLOCK_RECORD
  5
2556
330
1
100
AcDbSymbolTableRecord
100
AcDbBlockTableRecord
  2
_Oblique
340
0
  0
BLOCK_RECORD
  5
2565
330
1
100
AcDbSymbolTableRecord
100
AcDbBlockTableRecord
  2
_Open
340
0
  0
BLOCK_RECORD
  5
2576
330
1
100
AcDbSymbolTableRecord
100
AcDbBlockTableRecord
  2
_Origin
340
0
  0
BLOCK_RECORD
  5
2586
330
1
100
AcDbSymbolTableRecord
100
AcDbBlockTableRecord
  2
_Origin2
340
0
  0
BLOCK_RECORD
  5
2597
330
1
100
AcDbSymbolTableRecord
100
AcDbBlockTableRecord
  2
_Open90
340
0
  0
BLOCK_RECORD
  5
25A8
330
1
100
AcDbSymbolTableRecord
100
AcDbBlockTableRecord
  2
_Open30
340
0
  0
BLOCK_RECORD
  5
25B9
330
1
100
AcDbSymbolTableRecord
100
AcDbBlockTableRecord
  2
_DotSmall
340
0
  0
BLOCK_RECORD
  5
25C8
330
1
100
AcDbSymbolTableRecord
100
AcDbBlockTableRecord
  2
_DotBlank
340
0
  0
BLOCK_RECORD
  5
25D8
330
1
100
AcDbSymbolTableRecord
100
AcDbBlockTableRecord
  2
_Small
340
0
  0
BLOCK_RECORD
  5
25E7
330
1
100
AcDbSymbolTableRecord
100
AcDbBlockTableRecord
  2
_BoxBlank
340
0
  0
BLOCK_RECORD
  5
25FA
330
1
100
AcDbSymbolTableRecord
100
AcDbBlockTableRecord
  2
_BoxFilled
340
0
  0
BLOCK_RECORD
  5
260A
330
1
100
AcDbSymbolTableRecord
100
AcDbBlockTableRecord
  2
_DatumBlank
340
0
  0
BLOCK_RECORD
  5
261B
330
1
100
AcDbSymbolTableRecord
100
AcDbBlockTableRecord
  2
_DatumFilled
340
0
  0
BLOCK_RECORD
  5
262A
330
1
100
AcDbSymbolTableRecord
100
AcDbBlockTableRecord
  2
_Integral
340
0
  0
BLOCK_RECORD
  5
263A
330
1
100
AcDbSymbolTableRecord
100
AcDbBlockTableRecord
  2
_None
340
0
  0
BLOCK_RECORD
  5
311E
330
1
100
AcDbSymbolTableRecord
100
AcDbBlockTableRecord
  2
*D27
340
0
  0
BLOCK_RECORD
  5
314F
330
1
100
AcDbSymbolTableRecord
100
AcDbBlockTableRecord
  2
*D28
340
0
  0
BLOCK_RECORD
  5
3189
330
1
100
AcDbSymbolTableRecord
100
AcDbBlockTableRecord
  2
*D29
340
0
  0
ENDTAB
  0
ENDSEC
  0
SECTION
  2
BLOCKS
  0
BLOCK
  5
31
330
1E
100
AcDbEntity
  8
0
100
AcDbBlockBegin
  2
*Model_Space
 70
     0
 10
0.0
 20
0.0
 30
0.0
  3
*Model_Space
  1

  0
ENDBLK
  5
32
330
1E
100
AcDbEntity
  8
0
100
AcDbBlockEnd
  0
BLOCK
  5
2F
330
1A
100
AcDbEntity
 67
     1
  8
0
100
AcDbBlockBegin
  2
*Paper_Space
 70
     0
 10
0.0
 20
0.0
 30
0.0
  3
*Paper_Space
  1

  0
ENDBLK
  5
30
330
1A
100
AcDbEntity
 67
     1
  8
0
100
AcDbBlockEnd
  0
BLOCK
  5
1BF7
330
1BF1
100
AcDbEntity
  8
0
100
AcDbBlockBegin
  2
A$C168224A4
 70
     0
 10
0.0
 20
0.0
 30
0.0
  3
A$C168224A4
  1

  0
TEXT
  5
1BF2
330
1BF1
100
AcDbEntity
  8
MO
100
AcDbText
 10
29.06392589340328
 20
15.78399955256054
 30
0.0
 40
3.599999999999998
  1
ヒーターバンド
  7
0
100
AcDbText
  0
TEXT
  5
1BF3
330
1BF1
100
AcDbEntity
  8
MO
100
AcDbText
 10
16.98844636234099
 20
21.7352072125702
 30
0.0
 40
3.599999999999998
  1
ヒーター（C）
  7
0
100
AcDbText
  0
LINE
  5
1BF4
330
1BF1
100
AcDbEntity
  8
SC
100
AcDbLine
 10
14.63431328166325
 20
20.85448773706838
 30
0.0
 11
59.28792531728698
 21
20.85448773706838
 31
0.0
  0
LINE
  5
1BF5
330
1BF1
100
AcDbEntity
  8
SC
100
AcDbLine
 10
0.3999994263709823
 20
0.3999998947063545
 30
0.0
 11
14.63431328166325
 21
20.85448773706838
 31
0.0
  0
CIRCLE
  5
1BF6
330
1BF1
100
AcDbEntity
  8
SC
100
AcDbCircle
 10
0.3999994263709823
 20
0.3999998947063545
 30
0.0
 40
0.4
  0
ENDBLK
  5
1BF8
330
1BF1
100
AcDbEntity
  8
0
100
AcDbBlockEnd
  0
BLOCK
  5
2518
330
2514
100
AcDbEntity
  8
0
100
AcDbBlockBegin
  2
_ClosedBlank
 70
     0
 10
0.0
 20
0.0
 30
0.0
  3
_ClosedBlank
  1

  0
LINE
  5
2515
330
2514
100
AcDbEntity
  8
0
  6
ByBlock
 62
     0
370
    -2
100
AcDbLine
 10
-1.0
 20
0.1666666666666666
 30
0.0
 11
0.0
 21
0.0
 31
0.0
  0
LINE
  5
2516
330
2514
100
AcDbEntity
  8
0
  6
ByBlock
 62
     0
370
    -2
100
AcDbLine
 10
0.0
 20
0.0
 30
0.0
 11
-1.0
 21
-0.1666666666666666
 31
0.0
  0
LINE
  5
2517
330
2514
100
AcDbEntity
  8
0
  6
ByBlock
 62
     0
370
    -2
100
AcDbLine
 10
-1.0
 20
0.1666666666666666
 30
0.0
 11
-1.0
 21
-0.1666666666666666
 31
0.0
  0
ENDBLK
  5
2519
330
2514
100
AcDbEntity
  8
0
100
AcDbBlockEnd
  0
BLOCK
  5
252A
330
2525
100
AcDbEntity
  8
0
100
AcDbBlockBegin
  2
_Closed
 70
     0
 10
0.0
 20
0.0
 30
0.0
  3
_Closed
  1

  0
LINE
  5
2526
330
2525
100
AcDbEntity
  8
0
  6
ByBlock
 62
     0
370
    -2
100
AcDbLine
 10
-1.0
 20
0.1666666666666666
 30
0.0
 11
0.0
 21
0.0
 31
0.0
  0
LINE
  5
2527
330
2525
100
AcDbEntity
  8
0
  6
ByBlock
 62
     0
370
    -2
100
AcDbLine
 10
0.0
 20
0.0
 30
0.0
 11
-1.0
 21
-0.1666666666666666
 31
0.0
  0
LINE
  5
2528
330
2525
100
AcDbEntity
  8
0
  6
ByBlock
 62
     0
370
    -2
100
AcDbLine
 10
-1.0
 20
0.1666666666666666
 30
0.0
 11
-1.0
 21
-0.1666666666666666
 31
0.0
  0
LINE
  5
2529
330
2525
100
AcDbEntity
  8
0
  6
ByBlock
 62
     0
370
    -2
100
AcDbLine
 10
0.0
 20
0.0
 30
0.0
 11
-1.0
 21
0.0
 31
0.0
  0
ENDBLK
  5
252B
330
2525
100
AcDbEntity
  8
0
100
AcDbBlockEnd
  0
BLOCK
  5
253A
330
2537
100
AcDbEntity
  8
0
100
AcDbBlockBegin
  2
_Dot
 70
     0
 10
0.0
 20
0.0
 30
0.0
  3
_Dot
  1

  0
LWPOLYLINE
  5
2538
330
2537
100
AcDbEntity
  8
0
  6
ByBlock
 62
     0
100
AcDbPolyline
 90
        2
 70
     1
 43
0.5
 10
-0.25
 20
0.0
 42
1.0
 10
0.25
 20
0.0
 42
1.0
  0
LINE
  5
2539
330
2537
100
AcDbEntity
  8
0
  6
ByBlock
 62
     0
370
    -2
100
AcDbLine
 10
-0.5
 20
0.0
 30
0.0
 11
-1.0
 21
0.0
 31
0.0
  0
ENDBLK
  5
253B
330
2537
100
AcDbEntity
  8
0
100
AcDbBlockEnd
  0
BLOCK
  5
2549
330
2547
100
AcDbEntity
  8
0
100
AcDbBlockBegin
  2
_ArchTick
 70
     0
 10
0.0
 20
0.0
 30
0.0
  3
_ArchTick
  1

  0
LWPOLYLINE
  5
2548
330
2547
100
AcDbEntity
  8
0
  6
ByBlock
 62
     0
100
AcDbPolyline
 90
        2
 70
     0
 43
0.15
 10
-0.5
 20
-0.5
 10
0.5
 20
0.5
  0
ENDBLK
  5
254A
330
2547
100
AcDbEntity
  8
0
100
AcDbBlockEnd
  0
BLOCK
  5
2558
330
2556
100
AcDbEntity
  8
0
100
AcDbBlockBegin
  2
_Oblique
 70
     0
 10
0.0
 20
0.0
 30
0.0
  3
_Oblique
  1

  0
LINE
  5
2557
330
2556
100
AcDbEntity
  8
0
  6
ByBlock
 62
     0
370
    -2
100
AcDbLine
 10
-0.5
 20
-0.5
 30
0.0
 11
0.5
 21
0.5
 31
0.0
  0
ENDBLK
  5
2559
330
2556
100
AcDbEntity
  8
0
100
AcDbBlockEnd
  0
BLOCK
  5
2569
330
2565
100
AcDbEntity
  8
0
100
AcDbBlockBegin
  2
_Open
 70
     0
 10
0.0
 20
0.0
 30
0.0
  3
_Open
  1

  0
LINE
  5
2566
330
2565
100
AcDbEntity
  8
0
  6
ByBlock
 62
     0
370
    -2
100
AcDbLine
 10
-1.0
 20
0.1666666666666666
 30
0.0
 11
0.0
 21
0.0
 31
0.0
  0
LINE
  5
2567
330
2565
100
AcDbEntity
  8
0
  6
ByBlock
 62
     0
370
    -2
100
AcDbLine
 10
-1.0
 20
-0.1666666666666666
 30
0.0
 11
0.0
 21
0.0
 31
0.0
  0
LINE
  5
2568
330
2565
100
AcDbEntity
  8
0
  6
ByBlock
 62
     0
370
    -2
100
AcDbLine
 10
0.0
 20
0.0
 30
0.0
 11
-1.0
 21
0.0
 31
0.0
  0
ENDBLK
  5
256A
330
2565
100
AcDbEntity
  8
0
100
AcDbBlockEnd
  0
BLOCK
  5
2579
330
2576
100
AcDbEntity
  8
0
100
AcDbBlockBegin
  2
_Origin
 70
     0
 10
0.0
 20
0.0
 30
0.0
  3
_Origin
  1

  0
CIRCLE
  5
2577
330
2576
100
AcDbEntity
  8
0
  6
ByBlock
 62
     0
370
    -2
100
AcDbCircle
 10
0.0
 20
0.0
 30
0.0
 40
0.5
  0
LINE
  5
2578
330
2576
100
AcDbEntity
  8
0
  6
ByBlock
 62
     0
370
    -2
100
AcDbLine
 10
0.0
 20
0.0
 30
0.0
 11
-1.0
 21
0.0
 31
0.0
  0
ENDBLK
  5
257A
330
2576
100
AcDbEntity
  8
0
100
AcDbBlockEnd
  0
BLOCK
  5
258A
330
2586
100
AcDbEntity
  8
0
100
AcDbBlockBegin
  2
_Origin2
 70
     0
 10
0.0
 20
0.0
 30
0.0
  3
_Origin2
  1

  0
CIRCLE
  5
2587
330
2586
100
AcDbEntity
  8
0
  6
ByBlock
 62
     0
370
    -2
100
AcDbCircle
 10
0.0
 20
0.0
 30
0.0
 40
0.5
  0
CIRCLE
  5
2588
330
2586
100
AcDbEntity
  8
0
  6
ByBlock
 62
     0
370
    -2
100
AcDbCircle
 10
0.0
 20
0.0
 30
0.0
 40
0.25
  0
LINE
  5
2589
330
2586
100
AcDbEntity
  8
0
  6
ByBlock
 62
     0
370
    -2
100
AcDbLine
 10
-0.5
 20
0.0
 30
0.0
 11
-1.0
 21
0.0
 31
0.0
  0
ENDBLK
  5
258B
330
2586
100
AcDbEntity
  8
0
100
AcDbBlockEnd
  0
BLOCK
  5
259B
330
2597
100
AcDbEntity
  8
0
100
AcDbBlockBegin
  2
_Open90
 70
     0
 10
0.0
 20
0.0
 30
0.0
  3
_Open90
  1

  0
LINE
  5
2598
330
2597
100
AcDbEntity
  8
0
  6
ByBlock
 62
     0
370
    -2
100
AcDbLine
 10
-0.5
 20
0.5
 30
0.0
 11
0.0
 21
0.0
 31
0.0
  0
LINE
  5
2599
330
2597
100
AcDbEntity
  8
0
  6
ByBlock
 62
     0
370
    -2
100
AcDbLine
 10
0.0
 20
0.0
 30
0.0
 11
-0.5
 21
-0.5
 31
0.0
  0
LINE
  5
259A
330
2597
100
AcDbEntity
  8
0
  6
ByBlock
 62
     0
370
    -2
100
AcDbLine
 10
0.0
 20
0.0
 30
0.0
 11
-1.0
 21
0.0
 31
0.0
  0
ENDBLK
  5
259C
330
2597
100
AcDbEntity
  8
0
100
AcDbBlockEnd
  0
BLOCK
  5
25AC
330
25A8
100
AcDbEntity
  8
0
100
AcDbBlockBegin
  2
_Open30
 70
     0
 10
0.0
 20
0.0
 30
0.0
  3
_Open30
  1

  0
LINE
  5
25A9
330
25A8
100
AcDbEntity
  8
0
  6
ByBlock
 62
     0
370
    -2
100
AcDbLine
 10
-1.0
 20
0.26794919
 30
0.0
 11
0.0
 21
0.0
 31
0.0
  0
LINE
  5
25AA
330
25A8
100
AcDbEntity
  8
0
  6
ByBlock
 62
     0
370
    -2
100
AcDbLine
 10
0.0
 20
0.0
 30
0.0
 11
-1.0
 21
-0.26794919
 31
0.0
  0
LINE
  5
25AB
330
25A8
100
AcDbEntity
  8
0
  6
ByBlock
 62
     0
370
    -2
100
AcDbLine
 10
0.0
 20
0.0
 30
0.0
 11
-1.0
 21
0.0
 31
0.0
  0
ENDBLK
  5
25AD
330
25A8
100
AcDbEntity
  8
0
100
AcDbBlockEnd
  0
BLOCK
  5
25BB
330
25B9
100
AcDbEntity
  8
0
100
AcDbBlockBegin
  2
_DotSmall
 70
     0
 10
0.0
 20
0.0
 30
0.0
  3
_DotSmall
  1

  0
LWPOLYLINE
  5
25BA
330
25B9
100
AcDbEntity
  8
0
  6
ByBlock
 62
     0
100
AcDbPolyline
 90
        2
 70
     1
 43
0.5
 10
-0.0625
 20
0.0
 42
1.0
 10
0.0625
 20
0.0
 42
1.0
  0
ENDBLK
  5
25BC
330
25B9
100
AcDbEntity
  8
0
100
AcDbBlockEnd
  0
BLOCK
  5
25CB
330
25C8
100
AcDbEntity
  8
0
100
AcDbBlockBegin
  2
_DotBlank
 70
     0
 10
0.0
 20
0.0
 30
0.0
  3
_DotBlank
  1

  0
CIRCLE
  5
25C9
330
25C8
100
AcDbEntity
  8
0
  6
ByBlock
 62
     0
370
    -2
100
AcDbCircle
 10
0.0
 20
0.0
 30
0.0
 40
0.5
  0
LINE
  5
25CA
330
25C8
100
AcDbEntity
  8
0
  6
ByBlock
 62
     0
370
    -2
100
AcDbLine
 10
-0.5
 20
0.0
 30
0.0
 11
-1.0
 21
0.0
 31
0.0
  0
ENDBLK
  5
25CC
330
25C8
100
AcDbEntity
  8
0
100
AcDbBlockEnd
  0
BLOCK
  5
25DA
330
25D8
100
AcDbEntity
  8
0
100
AcDbBlockBegin
  2
_Small
 70
     0
 10
0.0
 20
0.0
 30
0.0
  3
_Small
  1

  0
CIRCLE
  5
25D9
330
25D8
100
AcDbEntity
  8
0
  6
ByBlock
 62
     0
370
    -2
100
AcDbCircle
 10
0.0
 20
0.0
 30
0.0
 40
0.25
  0
ENDBLK
  5
25DB
330
25D8
100
AcDbEntity
  8
0
100
AcDbBlockEnd
  0
BLOCK
  5
25ED
330
25E7
100
AcDbEntity
  8
0
100
AcDbBlockBegin
  2
_BoxBlank
 70
     0
 10
0.0
 20
0.0
 30
0.0
  3
_BoxBlank
  1

  0
LINE
  5
25E8
330
25E7
100
AcDbEntity
  8
0
  6
ByBlock
 62
     0
370
    -2
100
AcDbLine
 10
-0.5
 20
-0.5
 30
0.0
 11
0.5
 21
-0.5
 31
0.0
  0
LINE
  5
25E9
330
25E7
100
AcDbEntity
  8
0
  6
ByBlock
 62
     0
370
    -2
100
AcDbLine
 10
0.5
 20
-0.5
 30
0.0
 11
0.5
 21
0.5
 31
0.0
  0
LINE
  5
25EA
330
25E7
100
AcDbEntity
  8
0
  6
ByBlock
 62
     0
370
    -2
100
AcDbLine
 10
0.5
 20
0.5
 30
0.0
 11
-0.5
 21
0.5
 31
0.0
  0
LINE
  5
25EB
330
25E7
100
AcDbEntity
  8
0
  6
ByBlock
 62
     0
370
    -2
100
AcDbLine
 10
-0.5
 20
0.5
 30
0.0
 11
-0.5
 21
-0.5
 31
0.0
  0
LINE
  5
25EC
330
25E7
100
AcDbEntity
  8
0
  6
ByBlock
 62
     0
370
    -2
100
AcDbLine
 10
-0.5
 20
0.0
 30
0.0
 11
-1.0
 21
0.0
 31
0.0
  0
ENDBLK
  5
25EE
330
25E7
100
AcDbEntity
  8
0
100
AcDbBlockEnd
  0
BLOCK
  5
25FD
330
25FA
100
AcDbEntity
  8
0
100
AcDbBlockBegin
  2
_BoxFilled
 70
     0
 10
0.0
 20
0.0
 30
0.0
  3
_BoxFilled
  1

  0
SOLID
  5
25FB
330
25FA
100
AcDbEntity
  8
0
  6
ByBlock
 62
     0
100
AcDbTrace
 10
-0.5
 20
0.5
 30
0.0
 11
0.5
 21
0.5
 31
0.0
 12
-0.5
 22
-0.5
 32
0.0
 13
0.5
 23
-0.5
 33
0.0
  0
LINE
  5
25FC
330
25FA
100
AcDbEntity
  8
0
  6
ByBlock
 62
     0
370
    -2
100
AcDbLine
 10
-0.5
 20
0.0
 30
0.0
 11
-1.0
 21
0.0
 31
0.0
  0
ENDBLK
  5
25FE
330
25FA
100
AcDbEntity
  8
0
100
AcDbBlockEnd
  0
BLOCK
  5
260E
330
260A
100
AcDbEntity
  8
0
100
AcDbBlockBegin
  2
_DatumBlank
 70
     0
 10
0.0
 20
0.0
 30
0.0
  3
_DatumBlank
  1

  0
LINE
  5
260B
330
260A
100
AcDbEntity
  8
0
  6
ByBlock
 62
     0
370
    -2
100
AcDbLine
 10
0.0
 20
0.5773502700000001
 30
0.0
 11
-1.0
 21
0.0
 31
0.0
  0
LINE
  5
260C
330
260A
100
AcDbEntity
  8
0
  6
ByBlock
 62
     0
370
    -2
100
AcDbLine
 10
-1.0
 20
0.0
 30
0.0
 11
0.0
 21
-0.5773502700000001
 31
0.0
  0
LINE
  5
260D
330
260A
100
AcDbEntity
  8
0
  6
ByBlock
 62
     0
370
    -2
100
AcDbLine
 10
0.0
 20
-0.5773502700000001
 30
0.0
 11
0.0
 21
0.5773502700000001
 31
0.0
  0
ENDBLK
  5
260F
330
260A
100
AcDbEntity
  8
0
100
AcDbBlockEnd
  0
BLOCK
  5
261D
330
261B
100
AcDbEntity
  8
0
100
AcDbBlockBegin
  2
_DatumFilled
 70
     0
 10
0.0
 20
0.0
 30
0.0
  3
_DatumFilled
  1

  0
SOLID
  5
261C
330
261B
100
AcDbEntity
  8
0
  6
ByBlock
 62
     0
100
AcDbTrace
 10
0.0
 20
0.5773502700000001
 30
0.0
 11
-1.0
 21
0.0
 31
0.0
 12
0.0
 22
-0.5773502700000001
 32
0.0
 13
0.0
 23
-0.5773502700000001
 33
0.0
  0
ENDBLK
  5
261E
330
261B
100
AcDbEntity
  8
0
100
AcDbBlockEnd
  0
BLOCK
  5
262D
330
262A
100
AcDbEntity
  8
0
100
AcDbBlockBegin
  2
_Integral
 70
     0
 10
0.0
 20
0.0
 30
0.0
  3
_Integral
  1

  0
ARC
  5
262B
330
262A
100
AcDbEntity
  8
0
  6
ByBlock
 62
     0
370
    -2
100
AcDbCircle
 10
0.44488802
 20
-0.09133463
 30
0.0
 40
0.4541666700000001
100
AcDbArc
 50
101.9999999980395
 51
167.9999999799193
  0
ARC
  5
262C
330
262A
100
AcDbEntity
  8
0
  6
ByBlock
 62
     0
370
    -2
100
AcDbCircle
 10
-0.44488802
 20
0.09133463
 30
0.0
 40
0.4541666700000001
100
AcDbArc
 50
282.0000000215427
 51
348.0000000034225
  0
ENDBLK
  5
262E
330
262A
100
AcDbEntity
  8
0
100
AcDbBlockEnd
  0
BLOCK
  5
263B
330
263A
100
AcDbEntity
  8
0
100
AcDbBlockBegin
  2
_None
 70
     0
 10
0.0
 20
0.0
 30
0.0
  3
_None
  1

  0
ENDBLK
  5
263C
330
263A
100
AcDbEntity
  8
0
100
AcDbBlockEnd
  0
BLOCK
  5
311F
330
311E
100
AcDbEntity
  8
0
100
AcDbBlockBegin
  2
*D27
 70
     1
 10
0.0
 20
0.0
 30
0.0
  3
*D27
  1

  0
LINE
  5
3145
330
311E
100
AcDbEntity
  8
SC
 62
     0
370
    -2
100
AcDbLine
 10
133.1878147505955
 20
183.1469582963354
 30
0.0
 11
133.1878147505955
 21
195.476
 31
0.0
  0
LINE
  5
3146
330
311E
100
AcDbEntity
  8
SC
 62
     0
370
    -2
100
AcDbLine
 10
256.7605149803961
 20
182.3919582963355
 30
0.0
 11
256.7605149803961
 21
195.476
 31
0.0
  0
LINE
  5
3147
330
311E
100
AcDbEntity
  8
SC
 62
     0
370
    -2
100
AcDbLine
 10
135.6878147505955
 20
194.226
 30
0.0
 11
254.2605149803961
 21
194.226
 31
0.0
  0
SOLID
  5
3148
330
311E
100
AcDbEntity
  8
SC
 62
     0
100
AcDbTrace
 10
135.6878147505955
 20
194.6426666666666
 30
0.0
 11
135.6878147505955
 21
193.8093333333333
 31
0.0
 12
133.1878147505955
 22
194.226
 32
0.0
 13
133.1878147505955
 23
194.226
 33
0.0
  0
SOLID
  5
3149
330
311E
100
AcDbEntity
  8
SC
 62
     0
100
AcDbTrace
 10
254.2605149803961
 20
194.6426666666666
 30
0.0
 11
254.2605149803961
 21
193.8093333333333
 31
0.0
 12
256.7605149803961
 22
194.226
 32
0.0
 13
256.7605149803961
 23
194.226
 33
0.0
  0
MTEXT
  5
314A
330
311E
100
AcDbEntity
  8
SC
 62
     0
100
AcDbMText
 10
194.9741648654958
 20
196.851
 30
0.0
 40
4.0
 41
0.0
 71
     5
 72
     1
  1
\A1;C
  7
0
 73
     1
 44
1.0
1001
ACAD
1000
MTEXTBEGIN
1070
    73
1070
     1
1070
    44
1040
1.0
1070
    74
1070
     0
1000
MTEXTEND
  0
POINT
  5
314B
330
311E
100
AcDbEntity
  8
DEFPOINTS
 62
     0
100
AcDbPoint
 10
133.1878147505955
 20
183.0844582963354
 30
0.0
  0
POINT
  5
314C
330
311E
100
AcDbEntity
  8
DEFPOINTS
 62
     0
100
AcDbPoint
 10
256.7605149803961
 20
182.3294582963355
 30
0.0
  0
POINT
  5
314D
330
311E
100
AcDbEntity
  8
DEFPOINTS
 62
     0
100
AcDbPoint
 10
256.7605149803961
 20
194.226
 30
0.0
  0
ENDBLK
  5
3120
330
311E
100
AcDbEntity
  8
0
100
AcDbBlockEnd
  0
BLOCK
  5
3150
330
314F
100
AcDbEntity
  8
0
100
AcDbBlockBegin
  2
*D28
 70
     1
 10
0.0
 20
0.0
 30
0.0
  3
*D28
  1

  0
LINE
  5
317F
330
314F
100
AcDbEntity
  8
SC
 62
     0
370
    -2
100
AcDbLine
 10
75.08781475059549
 20
181.3969582963354
 30
0.0
 11
75.08781475059549
 21
195.487
 31
0.0
  0
LINE
  5
3180
330
314F
100
AcDbEntity
  8
SC
 62
     0
370
    -2
100
AcDbLine
 10
112.1878147505955
 20
183.1469582963354
 30
0.0
 11
112.1878147505955
 21
195.487
 31
0.0
  0
LINE
  5
3181
330
314F
100
AcDbEntity
  8
SC
 62
     0
370
    -2
100
AcDbLine
 10
77.58781475059549
 20
194.237
 30
0.0
 11
109.6878147505955
 21
194.237
 31
0.0
  0
SOLID
  5
3182
330
314F
100
AcDbEntity
  8
SC
 62
     0
100
AcDbTrace
 10
77.58781475059549
 20
194.6536666666666
 30
0.0
 11
77.58781475059549
 21
193.8203333333333
 31
0.0
 12
75.08781475059549
 22
194.237
 32
0.0
 13
75.08781475059549
 23
194.237
 33
0.0
  0
SOLID
  5
3183
330
314F
100
AcDbEntity
  8
SC
 62
     0
100
AcDbTrace
 10
109.6878147505955
 20
194.6536666666666
 30
0.0
 11
109.6878147505955
 21
193.8203333333333
 31
0.0
 12
112.1878147505955
 22
194.237
 32
0.0
 13
112.1878147505955
 23
194.237
 33
0.0
  0
MTEXT
  5
3184
330
314F
100
AcDbEntity
  8
SC
 62
     0
100
AcDbMText
 10
93.6378147505955
 20
196.862
 30
0.0
 40
4.0
 41
0.0
 71
     5
 72
     1
  1
\A1;B
  7
0
 73
     1
 44
1.0
1001
ACAD
1000
MTEXTBEGIN
1070
    73
1070
     1
1070
    44
1040
1.0
1070
    74
1070
     0
1000
MTEXTEND
  0
POINT
  5
3185
330
314F
100
AcDbEntity
  8
DEFPOINTS
 62
     0
100
AcDbPoint
 10
75.08781475059549
 20
181.3344582963354
 30
0.0
  0
POINT
  5
3186
330
314F
100
AcDbEntity
  8
DEFPOINTS
 62
     0
100
AcDbPoint
 10
112.1878147505955
 20
183.0844582963354
 30
0.0
  0
POINT
  5
3187
330
314F
100
AcDbEntity
  8
DEFPOINTS
 62
     0
100
AcDbPoint
 10
112.1878147505955
 20
194.237
 30
0.0
  0
ENDBLK
  5
3151
330
314F
100
AcDbEntity
  8
0
100
AcDbBlockEnd
  0
BLOCK
  5
318A
330
3189
100
AcDbEntity
  8
0
100
AcDbBlockBegin
  2
*D29
 70
     1
 10
0.0
 20
0.0
 30
0.0
  3
*D29
  1

  0
LINE
  5
31A7
330
3189
100
AcDbEntity
  8
SC
 62
     0
370
    -2
100
AcDbLine
 10
180.634508044058
 20
111.0915655144099
 30
0.0
 11
180.634508044058
 21
122.1
 31
0.0
  0
LINE
  5
31A8
330
3189
100
AcDbEntity
  8
SC
 62
     0
370
    -2
100
AcDbLine
 10
362.2357002298006
 20
113.6967629445005
 30
0.0
 11
362.2357002298006
 21
122.1
 31
0.0
  0
LINE
  5
31A9
330
3189
100
AcDbEntity
  8
SC
 62
     0
370
    -2
100
AcDbLine
 10
183.134508044058
 20
120.85
 30
0.0
 11
359.7357002298006
 21
120.85
 31
0.0
  0
SOLID
  5
31AA
330
3189
100
AcDbEntity
  8
SC
 62
     0
100
AcDbTrace
 10
183.134508044058
 20
121.2666666666667
 30
0.0
 11
183.134508044058
 21
120.4333333333333
 31
0.0
 12
180.634508044058
 22
120.85
 32
0.0
 13
180.634508044058
 23
120.85
 33
0.0
  0
SOLID
  5
31AB
330
3189
100
AcDbEntity
  8
SC
 62
     0
100
AcDbTrace
 10
359.7357002298006
 20
121.2666666666667
 30
0.0
 11
359.7357002298006
 21
120.4333333333333
 31
0.0
 12
362.2357002298006
 22
120.85
 32
0.0
 13
362.2357002298006
 23
120.85
 33
0.0
  0
MTEXT
  5
31AC
330
3189
100
AcDbEntity
  8
SC
 62
     0
100
AcDbMText
 10
271.4351041369293
 20
123.475
 30
0.0
 40
4.0
 41
0.0
 71
     5
 72
     1
  1
\A1;C
  7
0
 73
     1
 44
1.0
1001
ACAD
1000
MTEXTBEGIN
1070
    73
1070
     1
1070
    44
1040
1.0
1070
    74
1070
     0
1000
MTEXTEND
  0
POINT
  5
31AD
330
3189
100
AcDbEntity
  8
DEFPOINTS
 62
     0
100
AcDbPoint
 10
180.634508044058
 20
111.0290655144099
 30
0.0
  0
POINT
  5
31AE
330
3189
100
AcDbEntity
  8
DEFPOINTS
 62
     0
100
AcDbPoint
 10
362.2357002298006
 20
113.6342629445005
 30
0.0
  0
POINT
  5
31AF
330
3189
100
AcDbEntity
  8
DEFPOINTS
 62
     0
100
AcDbPoint
 10
362.2357002298006
 20
120.85
 30
0.0
  0
ENDBLK
  5
318B
330
3189
100
AcDbEntity
  8
0
100
AcDbBlockEnd
  0
ENDSEC
  0
SECTION
  2
ENTITIES
  0
TEXT
  5
61
330
1E
100
AcDbEntity
  8
MO
100
AcDbText
 10
328.5
 20
53.5
 30
0.0
 40
4.0
  1

  7
0
 72
     1
 11
328.5
 21
53.5
 31
0.0
100
AcDbText
  0
TEXT
  5
62
330
1E
100
AcDbEntity
  8
MO
100
AcDbText
 10
328.5
 20
47.0
 30
0.0
 40
4.0
  1

  7
0
 72
     1
 11
328.5
 21
47.0
 31
0.0
100
AcDbText
  0
TEXT
  5
63
330
1E
100
AcDbEntity
  8
MO
100
AcDbText
 10
328.5
 20
34.0
 30
0.0
 40
4.0
  1

  7
0
 72
     1
 11
328.5
 21
34.0
 31
0.0
100
AcDbText
  0
TEXT
  5
6E
330
1E
100
AcDbEntity
  8
MO
100
AcDbText
 10
328.204
 20
39.802
 30
0.0
 40
4.0
  1

  7
0
 72
     1
 11
328.204
 21
39.802
 31
0.0
100
AcDbText
  0
TEXT
  5
89
330
1E
100
AcDbEntity
  8
MO
100
AcDbText
 10
82.2020000000001
 20
51.07199999999998
 30
0.0
 40
3.0
  1

  7
0
100
AcDbText
  0
TEXT
  5
8B
330
1E
100
AcDbEntity
  8
MO
100
AcDbText
 10
110.859
 20
51.07199999999998
 30
0.0
 40
3.0
  1

  7
0
100
AcDbText
  0
TEXT
  5
8D
330
1E
100
AcDbEntity
  8
MO
100
AcDbText
 10
360.261
 20
19.91099999999999
 30
0.0
 40
7.0
  1

  7
0
 72
     4
 11
360.261
 21
19.91099999999999
 31
0.0
100
AcDbText
  0
TEXT
  5
91
330
1E
100
AcDbEntity
  8
MO
370
    40
100
AcDbText
 10
262.0037165355063
 20
240.3444917771351
 30
0.0
 40
10.8
  1
バンド型センサー
  7
0
100
AcDbText
  0
TEXT
  5
AC
330
1E
100
AcDbEntity
  8
MO
100
AcDbText
 10
103.1910000000001
 20
51.07199999999996
 30
0.0
 40
3.0
  1

  7
0
100
AcDbText
  0
TEXT
  5
1399
330
1E
100
AcDbEntity
  8
MO
100
AcDbText
 10
75.70200000000006
 20
51.07199999999998
 30
0.0
 40
3.0
  1

  7
0
100
AcDbText
  0
TEXT
  5
139C
330
1E
100
AcDbEntity
  8
MO
100
AcDbText
 10
110.859
 20
63.07199999999996
 30
0.0
 40
3.0
  1

  7
0
100
AcDbText
  0
TEXT
  5
139F
330
1E
100
AcDbEntity
  8
SC
100
AcDbText
 10
135.033
 20
64.98099999999995
 30
0.0
 40
2.0
  1

  7
0
100
AcDbText
  0
TEXT
  5
13A0
330
1E
100
AcDbEntity
  8
MO
100
AcDbText
 10
110.859
 20
45.072
 30
0.0
 40
3.0
  1

  7
0
100
AcDbText
  0
TEXT
  5
148E
330
1E
100
AcDbEntity
  8
MO
100
AcDbText
 10
355.9181320877767
 20
10.917
 30
0.0
 40
5.0
  1
株）
  7
0
 72
     1
 11
359.9181320877767
 21
10.917
 31
0.0
100
AcDbText
  0
TEXT
  5
1491
330
1E
100
AcDbEntity
  8
SC
100
AcDbText
 10
103.7564
 20
117.6597333333333
 30
0.0
 40
0.25
  1

100
AcDbText
  0
TEXT
  5
1492
330
1E
100
AcDbEntity
  8
MO
100
AcDbText
 10
367.1910000000001
 20
10.917
 30
0.0
 40
6.0
  1
愛西電熱
  7
0
 72
     1
 11
380.7910000000002
 21
10.917
 31
0.0
100
AcDbText
  0
MTEXT
  5
1758
330
1E
100
AcDbEntity
  8
SC
100
AcDbMText
 10
317.637
 20
21.871
 30
0.0
 40
2.5
 41
0.0
 71
     1
 72
     5
  1

  7
0
 73
     1
 44
1.0
1001
ACAD
1000
MTEXTBEGIN
1070
    73
1070
     1
1070
    44
1040
1.0
1070
    74
1070
     0
1000
MTEXTEND
  0
MTEXT
  5
178F
330
1E
100
AcDbEntity
  8
SC
100
AcDbMText
 10
220.1774508739589
 20
61.30926792682227
 30
0.0
 40
5.0
 41
0.0
 71
     1
 72
     5
  1
加工、その他変更部がありましたら図面に書き込んで御利用下さい
  7
0
 73
     1
 44
1.0
1001
ACAD
1000
MTEXTBEGIN
1070
    73
1070
     1
1070
    44
1040
1.0
1070
    74
1070
     0
1000
MTEXTEND
  0
LINE
  5
17DC
330
1E
100
AcDbEntity
  8
0
100
AcDbLine
 10
21.24000000000004
 20
30.70499999999999
 30
0.0
 11
21.24000000000004
 21
50.70499999999999
 31
0.0
  0
LINE
  5
17DE
330
1E
100
AcDbEntity
  8
0
100
AcDbLine
 10
31.24000000000004
 20
50.70499999999999
 30
0.0
 11
31.24000000000004
 21
30.705
 31
0.0
  0
LINE
  5
1806
330
1E
100
AcDbEntity
  8
0
100
AcDbLine
 10
21.24000000000004
 20
50.70499999999999
 30
0.0
 11
56.24000000000003
 21
50.70499999999999
 31
0.0
  0
LINE
  5
1807
330
1E
100
AcDbEntity
  8
0
100
AcDbLine
 10
21.24000000000004
 20
40.70499999999999
 30
0.0
 11
56.24000000000003
 21
40.70499999999999
 31
0.0
  0
LINE
  5
1808
330
1E
100
AcDbEntity
  8
0
100
AcDbLine
 10
21.24000000000004
 20
30.70499999999999
 30
0.0
 11
56.24000000000003
 21
30.70499999999999
 31
0.0
  0
TEXT
  5
1814
330
1E
100
AcDbEntity
  8
MO
100
AcDbText
 10
25.42000058282754
 20
43.87999982484504
 30
0.0
 40
3.499999999999998
  1
A
  7
0
100
AcDbText
  0
TEXT
  5
181A
330
1E
100
AcDbEntity
  8
MO
100
AcDbText
 10
97.52012879570216
 20
43.7553613470516
 30
0.0
 40
3.499999999999998
  1
B
  7
0
100
AcDbText
  0
TEXT
  5
1822
330
1E
100
AcDbEntity
  8
MO
100
AcDbText
 10
33.57085048309875
 20
43.07893657328403
 30
0.0
 40
4.375
  1
バンド径
  7
0
 72
     1
 11
43.48751714976542
 21
43.07893657328403
 31
0.0
100
AcDbText
  0
TEXT
  5
1829
330
1E
100
AcDbEntity
  8
MO
100
AcDbText
 10
105.6473212413914
 20
43.61824969380625
 30
0.0
 40
4.375
  1
シース長
  7
0
 72
     1
 11
115.8556545747247
 21
43.61824969380625
 31
0.0
100
AcDbText
  0
TEXT
  5
1844
330
1E
100
AcDbEntity
  8
MO
100
AcDbText
 10
25.09312879570214
 20
33.67336134705161
 30
0.0
 40
3.499999999999998
  1
C
  7
0
100
AcDbText
  0
TEXT
  5
1845
330
1E
100
AcDbEntity
  8
MO
100
AcDbText
 10
32.81016860327977
 20
33.50686474409736
 30
0.0
 40
4.375
  1
リード長
  7
0
 72
     1
 11
43.16433526994643
 21
33.50686474409736
 31
0.0
100
AcDbText
  0
LINE
  5
1847
330
1E
100
AcDbEntity
  8
0
100
AcDbLine
 10
56.24000000000003
 20
50.70499999999999
 30
0.0
 11
56.24000000000003
 21
30.70499999999999
 31
0.0
  0
LINE
  5
1870
330
1E
100
AcDbEntity
  8
0
100
AcDbLine
 10
21.24000000000004
 20
30.705
 30
0.0
 11
166.24
 21
30.70499999999999
 31
0.0
  0
LINE
  5
1871
330
1E
100
AcDbEntity
  8
0
100
AcDbLine
 10
93.74000000000002
 20
50.70499999999999
 30
0.0
 11
93.74000000000002
 21
30.70499999999999
 31
0.0
  0
LINE
  5
1873
330
1E
100
AcDbEntity
  8
0
100
AcDbLine
 10
56.24000000000003
 20
50.70499999999999
 30
0.0
 11
166.24
 21
50.70499999999999
 31
0.0
  0
LINE
  5
1874
330
1E
100
AcDbEntity
  8
0
100
AcDbLine
 10
56.24000000000003
 20
40.70499999999999
 30
0.0
 11
93.74000000000002
 21
40.70499999999999
 31
0.0
  0
LINE
  5
1875
330
1E
100
AcDbEntity
  8
0
100
AcDbLine
 10
56.24000000000003
 20
30.70499999999999
 30
0.0
 11
166.24
 21
30.70499999999999
 31
0.0
  0
LINE
  5
1884
330
1E
100
AcDbEntity
  8
0
100
AcDbLine
 10
128.74
 20
40.705
 30
0.0
 11
166.24
 21
40.705
 31
0.0
  0
LINE
  5
1888
330
1E
100
AcDbEntity
  8
0
100
AcDbLine
 10
21.24000000000004
 20
30.705
 30
0.0
 11
238.74
 21
30.70499999999999
 31
0.0
  0
LINE
  5
1889
330
1E
100
AcDbEntity
  8
0
100
AcDbLine
 10
17.99999999999994
 20
20.705
 30
0.0
 11
283.2259999999999
 21
20.70499999999999
 31
0.0
  0
LINE
  5
188A
330
1E
100
AcDbEntity
  8
0
100
AcDbLine
 10
17.99999999999994
 20
10.705
 30
0.0
 11
283.2259999999999
 21
10.70499999999998
 31
0.0
  0
TEXT
  5
1892
330
1E
100
AcDbEntity
  8
MO
100
AcDbText
 10
18.0825030365616
 20
28.37468907764135
 30
0.0
 40
2.799999999999998
  1

  7
0
100
AcDbText
  0
TEXT
  5
1893
330
1E
100
AcDbEntity
  8
MO
100
AcDbText
 10
18.31122710757998
 20
21.78303665633006
 30
0.0
 40
3.5
  1
その他詳細：
  7
0
 72
     1
 11
29.86122710757998
 21
21.78303665633006
 31
0.0
100
AcDbText
  0
LINE
  5
18A2
330
1E
100
AcDbEntity
  8
0
100
AcDbLine
 10
93.74000000000002
 20
40.70499999999999
 30
0.0
 11
166.24
 21
40.70499999999999
 31
0.0
  0
LINE
  5
18A9
330
1E
100
AcDbEntity
  8
0
100
AcDbLine
 10
166.24
 20
50.70499999999999
 30
0.0
 11
166.24
 21
30.70499999999999
 31
0.0
  0
LINE
  5
18AA
330
1E
100
AcDbEntity
  8
0
100
AcDbLine
 10
103.74
 20
50.70499999999999
 30
0.0
 11
103.74
 21
30.70499999999999
 31
0.0
  0
LINE
  5
18AB
330
1E
100
AcDbEntity
  8
0
100
AcDbLine
 10
128.74
 20
50.70499999999999
 30
0.0
 11
128.74
 21
30.70499999999999
 31
0.0
  0
TEXT
  5
18B4
330
1E
100
AcDbEntity
  8
MO
100
AcDbText
 10
334.7498393399925
 20
3.380574230302642
 30
0.0
 40
3.5
  1
AISEI  DENNETSU CO., LTD
  7
0
100
AcDbText
  0
TEXT
  5
18BD
330
1E
100
AcDbEntity
  8
MO
100
AcDbText
 10
398.0943211714158
 20
11.06163477656134
 30
0.0
 40
5.0
  1
行
  7
0
 72
     1
 11
400.4276545047491
 21
11.06163477656134
 31
0.0
100
AcDbText
  0
TEXT
  5
18CC
330
1E
100
AcDbEntity
  8
MO
100
AcDbText
 10
156.976337509742
 20
42.75375974362895
 30
0.0
 40
3.0625
  1
mm
  7
0
 72
     1
 11
160.7680041764087
 21
42.75375974362895
 31
0.0
100
AcDbText
  0
TEXT
  5
18EB
330
1E
100
AcDbEntity
  8
MO
100
AcDbText
 10
23.86914196000268
 20
55.01909017515878
 30
0.0
 40
4.550000000000001
  1
※　下記空欄に記入・選択し、FAXしてください
  7
0
100
AcDbText
  0
LINE
  5
18ED
330
1E
100
AcDbEntity
  8
0
100
AcDbLine
 10
3.193615971125438
 20
267.713
 30
0.0
 11
128.2526159711254
 21
267.713
 31
0.0
  0
LINE
  5
18EE
330
1E
100
AcDbEntity
  8
0
100
AcDbLine
 10
3.193615971125438
 20
255.713
 30
0.0
 11
128.2526159711254
 21
255.7129999999999
 31
0.0
  0
LINE
  5
18EF
330
1E
100
AcDbEntity
  8
0
100
AcDbLine
 10
3.193615971125423
 20
243.713
 30
0.0
 11
128.2526159711254
 21
243.7129999999999
 31
0.0
  0
LINE
  5
18F0
330
1E
100
AcDbEntity
  8
0
100
AcDbLine
 10
3.193615971125423
 20
231.713
 30
0.0
 11
128.2526159711254
 21
231.7129999999999
 31
0.0
  0
TEXT
  5
18F7
330
1E
100
AcDbEntity
  8
MO
100
AcDbText
 10
5.047000000000004
 20
269.7195108252091
 30
0.0
 40
4.375
  1
貴社名：
  7
0
 72
     1
 11
14.08866666666667
 21
269.7195108252091
 31
0.0
100
AcDbText
  0
TEXT
  5
18FF
330
1E
100
AcDbEntity
  8
MO
100
AcDbText
 10
4.762445293775545
 20
259.6404968976157
 30
0.0
 40
4.375
  1
部署・担当者名：
  7
0
 72
     1
 11
24.30411196044222
 21
259.6404968976157
 31
0.0
100
AcDbText
  0
TEXT
  5
190B
330
1E
100
AcDbEntity
  8
MO
100
AcDbText
 10
4.244409610399639
 20
235.1743512486338
 30
0.0
 40
4.375
  1
御連絡先 FAX：
  7
0
 72
     1
 11
23.4735762770663
 21
235.1743512486338
 31
0.0
100
AcDbText
  0
TEXT
  5
1918
330
1E
100
AcDbEntity
  8
MO
100
AcDbText
 10
4.271947869785467
 20
247.7453335828736
 30
0.0
 40
4.375
  1
御連絡先 TEL：
  7
0
 72
     1
 11
22.87611453645213
 21
247.7453335828736
 31
0.0
100
AcDbText
  0
LINE
  5
1923
330
1E
100
AcDbEntity
  8
0
370
    40
100
AcDbLine
 10
315.0881625155812
 20
37.35735115744029
 30
0.0
 11
393.0881625155811
 21
37.35735115744029
 31
0.0
  0
LINE
  5
1924
330
1E
100
AcDbEntity
  8
0
370
    40
100
AcDbLine
 10
315.0881625155812
 20
34.7573511574403
 30
0.0
 11
399.5881625155811
 21
34.7573511574403
 31
0.0
  0
LINE
  5
1925
330
1E
100
AcDbEntity
  8
0
370
    40
100
AcDbLine
 10
393.0881625155811
 20
37.35735115744029
 30
0.0
 11
393.0881625155811
 21
39.95735115744029
 31
0.0
  0
LINE
  5
1926
330
1E
100
AcDbEntity
  8
0
370
    40
100
AcDbLine
 10
393.0881625155811
 20
39.95735115744029
 30
0.0
 11
399.5881625155811
 21
34.7573511574403
 31
0.0
  0
LINE
  5
1927
330
1E
100
AcDbEntity
  8
0
370
    40
100
AcDbLine
 10
315.0881625155812
 20
37.35735115744029
 30
0.0
 11
315.0881625155812
 21
34.7573511574403
 31
0.0
  0
TEXT
  5
192E
330
1E
100
AcDbEntity
  8
MO
370
    40
100
AcDbText
 10
324.6798300677355
 20
38.84484239326316
 30
0.0
 40
7.800000000000001
  1
FAX送信方向
  7
0
 72
     1
 11
353.2426872105926
 21
38.84484239326316
 31
0.0
100
AcDbText
  0
TEXT
  5
1943
330
1E
100
AcDbEntity
  8
0
370
    53
100
AcDbText
 10
86.07465571428525
 20
284.1842971226886
 30
0.0
 40
10.0
  1
愛西電熱　見積依頼書・注文書　フォーム
  7
0
100
AcDbText
  0
TEXT
  5
195E
330
1E
100
AcDbEntity
  8
MO
370
    40
100
AcDbText
 10
313.1463329590498
 20
24.83965109775832
 30
0.0
 40
7.800000000000001
  1
0568-25-2241
  7
0
 72
     1
 11
357.1606186733355
 21
24.83965109775832
 31
0.0
100
AcDbText
  0
LINE
  5
19C2
330
1E
100
AcDbEntity
  8
SC
370
    40
100
AcDbLine
 10
258.0595
 20
238.396
 30
0.0
 11
367.7745
 21
238.396
 31
0.0
  0
TEXT
  5
1D1C
330
1E
100
AcDbEntity
  8
MO
100
AcDbText
 10
85.67986840816656
 20
43.32247847051131
 30
0.0
 40
4.59375
  1
\U+03C6
  7
0
 72
     1
 11
87.97674340816655
 21
43.32247847051131
 31
0.0
100
AcDbText
  0
TEXT
  5
1E9F
330
1E
100
AcDbEntity
  8
MO
100
AcDbText
 10
84.47633750974205
 20
32.75375974362896
 30
0.0
 40
3.0625
  1
mm
  7
0
 72
     1
 11
88.26800417640873
 21
32.75375974362896
 31
0.0
100
AcDbText
  0
TEXT
  5
1EB5
330
1E
100
AcDbEntity
  8
MO
100
AcDbText
 10
97.59312879570211
 20
33.67336134705161
 30
0.0
 40
3.499999999999998
  1
D
  7
0
100
AcDbText
  0
TEXT
  5
1EB6
330
1E
100
AcDbEntity
  8
MO
100
AcDbText
 10
108.081001936613
 20
33.50686474409736
 30
0.0
 40
4.375
  1
タイプ
  7
0
 72
     1
 11
115.6643352699463
 21
33.50686474409736
 31
0.0
100
AcDbText
  0
TEXT
  5
1EB7
330
1E
100
AcDbEntity
  8
MO
100
AcDbText
 10
136.7464662430801
 20
33.91959994624482
 30
0.0
 40
3.5
  1
K　・　　J
  7
0
 72
     1
 11
147.7297995764134
 21
33.91959994624482
 31
0.0
100
AcDbText
  0
TEXT
  5
2DC7
330
1E
100
AcDbEntity
  8
MO
370
    40
100
AcDbText
 10
25.449
 20
68.754
 30
0.0
 40
6.240000000000001
  1
タイプ：K（青）or J（黄）
  7
0
 72
     1
 11
72.51642857142856
 21
68.754
 31
0.0
100
AcDbText
  0
LINE
  5
2DD3
330
1E
100
AcDbEntity
  8
0
100
AcDbLine
 10
166.24
 20
40.705
 30
0.0
 11
238.74
 21
40.705
 31
0.0
  0
LINE
  5
2DD8
330
1E
100
AcDbEntity
  8
0
100
AcDbLine
 10
176.24
 20
40.70499999999999
 30
0.0
 11
176.24
 21
30.705
 31
0.0
  0
LINE
  5
2DD9
330
1E
100
AcDbEntity
  8
0
100
AcDbLine
 10
201.24
 20
40.705
 30
0.0
 11
201.24
 21
30.705
 31
0.0
  0
LINE
  5
2DDA
330
1E
100
AcDbEntity
  8
0
100
AcDbLine
 10
238.74
 20
40.705
 30
0.0
 11
238.74
 21
30.705
 31
0.0
  0
TEXT
  5
2DDB
330
1E
100
AcDbEntity
  8
MO
100
AcDbText
 10
180.8726686032797
 20
33.50686474409736
 30
0.0
 40
4.375
  1
数　量
  7
0
 72
     1
 11
188.1643352699463
 21
33.50686474409736
 31
0.0
100
AcDbText
  0
TEXT
  5
2DDC
330
1E
100
AcDbEntity
  8
MO
100
AcDbText
 10
232.2623901747724
 20
34.21266728504769
 30
0.0
 40
3.5
  1
本
  7
0
 72
     1
 11
233.8957235081057
 21
34.21266728504769
 31
0.0
100
AcDbText
  0
LINE
  5
2EA6
330
1E
100
AcDbEntity
  8
HO
100
AcDbLine
 10
56.9158147505955
 20
166.7744582963354
 30
0.0
 11
93.25981475059551
 21
166.7744582963354
 31
0.0
  0
LINE
  5
2EA7
330
1E
100
AcDbEntity
  8
HO
100
AcDbLine
 10
75.08781475059549
 20
186.2733332963354
 30
0.0
 11
75.08781475059549
 21
147.2755832963354
 31
0.0
  0
ARC
  5
2EA8
330
1E
100
AcDbEntity
  8
SA
100
AcDbCircle
 10
75.08781475059549
 20
166.7744582963354
 30
0.0
 40
12.25
100
AcDbArc
 50
276.5624278686341
 51
263.4375721313659
  0
LINE
  5
2EA9
330
1E
100
AcDbEntity
  8
SA
100
AcDbLine
 10
73.68781475059549
 20
154.6047212408358
 30
0.0
 11
73.68781475059549
 21
149.7047212408358
 31
0.0
  0
LINE
  5
2EAA
330
1E
100
AcDbEntity
  8
SA
100
AcDbLine
 10
76.48781475059547
 20
154.6047212408358
 30
0.0
 11
76.48781475059547
 21
149.7047212408358
 31
0.0
  0
LINE
  5
2EAB
330
1E
100
AcDbEntity
  8
SA
100
AcDbLine
 10
77.18781475059548
 20
153.9958629118653
 30
0.0
 11
77.18781475059548
 21
149.7047212408358
 31
0.0
  0
LINE
  5
2EAD
330
1E
100
AcDbEntity
  8
SA
100
AcDbLine
 10
72.98781475059548
 20
149.7047212408358
 30
0.0
 11
73.68781475059549
 21
149.7047212408358
 31
0.0
  0
LINE
  5
2EAE
330
1E
100
AcDbEntity
  8
SA
100
AcDbLine
 10
76.48781475059549
 20
149.7047212408358
 30
0.0
 11
77.18781475059547
 21
149.7047212408358
 31
0.0
  0
ARC
  5
2EAF
330
1E
100
AcDbEntity
  8
SA
100
AcDbCircle
 10
75.08781475059549
 20
166.7744582963354
 30
0.0
 40
12.95
100
AcDbArc
 50
279.3324181838026
 51
260.6675818161972
  0
ARC
  5
2EB0
330
1E
100
AcDbEntity
  8
SA
100
AcDbCircle
 10
75.08781475059549
 20
166.7744582963354
 30
0.0
 40
14.56
100
AcDbArc
 50
90.0
 51
150.0
  0
ARC
  5
2EB1
330
1E
100
AcDbEntity
  8
SA
100
AcDbCircle
 10
63.17563532154053
 20
173.6519582963354
 30
0.0
 40
0.8049999999999998
100
AcDbArc
 50
150.0000000000009
 51
329.9999999999991
  0
LINE
  5
2EB2
330
1E
100
AcDbEntity
  8
HO
100
AcDbLine
 10
67.8911147505955
 20
151.8502212408358
 30
0.0
 11
81.63911475059549
 21
151.8502212408358
 31
0.0
  0
LINE
  5
2EB3
330
1E
100
AcDbEntity
  8
SA
100
AcDbLine
 10
77.18781475059548
 20
153.9502212408358
 30
0.0
 11
78.93781475059546
 21
153.9502212408358
 31
0.0
  0
LINE
  5
2EB4
330
1E
100
AcDbEntity
  8
SA
100
AcDbLine
 10
79.28781475059548
 20
153.6002212408358
 30
0.0
 11
79.28781475059548
 21
150.1002212408358
 31
0.0
  0
LINE
  5
2EB5
330
1E
100
AcDbEntity
  8
SA
100
AcDbLine
 10
78.93781475059549
 20
149.7502212408357
 30
0.0
 11
77.18781475059548
 21
149.7502212408358
 31
0.0
  0
LINE
  5
2EB6
330
1E
100
AcDbEntity
  8
HA
100
AcDbLine
 10
78.93781475059549
 20
153.9502212408358
 30
0.0
 11
78.93781475059549
 21
149.7502212408358
 31
0.0
  0
LINE
  5
2EB7
330
1E
100
AcDbEntity
  8
SA
100
AcDbLine
 10
78.93781475059546
 20
153.9502212408358
 30
0.0
 11
79.28781475059548
 21
153.6002212408358
 31
0.0
  0
LINE
  5
2EB8
330
1E
100
AcDbEntity
  8
SA
100
AcDbLine
 10
79.28781475059548
 20
150.1002212408358
 30
0.0
 11
78.93781475059549
 21
149.7502212408357
 31
0.0
  0
HATCH
  5
2EB9
330
1E
100
AcDbEntity
  8
HA
100
AcDbHatch
 10
0.0
 20
0.0
 30
0.0
210
0.0
220
0.0
230
1.0
  2
ANSI37
 70
     0
 71
     0
 91
        2
 92
        7
 72
     0
 73
     1
 93
        4
 10
78.93781475059546
 20
153.9502212408358
 10
77.18781475059548
 20
153.9502212408358
 10
77.18781475059547
 20
151.8502212408358
 10
78.93781475059547
 20
151.8502212408358
 97
        0
 92
        7
 72
     0
 73
     1
 93
        4
 10
78.93781475059547
 20
151.8502212408358
 10
77.18781475059549
 20
151.8502212408358
 10
77.18781475059549
 20
149.7502212408358
 10
78.93781475059547
 20
149.7502212408357
 97
        0
 75
     0
 76
     1
 52
0.0
 41
3.5
 77
     0
 78
     2
 53
44.99999999999999
 43
15.6088147505955
 44
79.14075829633539
 45
-0.3093592167691145
 46
0.3093592167691145
 79
     0
 53
135.0
 43
15.6088147505955
 44
79.14075829633539
 45
-0.3093592167691145
 46
-0.3093592167691145
 79
     0
 47
0.0580033488131797
 98
        2
 10
78.2812147505955
 20
153.0782582963354
 10
78.52481475059548
 20
150.6016582963354
  0
LINE
  5
2EBA
330
1E
100
AcDbEntity
  8
SA
100
AcDbLine
 10
69.51581475059545
 20
152.5502212408358
 30
0.0
 11
69.51581475059545
 21
151.1502212408358
 31
0.0
  0
LINE
  5
2EBB
330
1E
100
AcDbEntity
  8
SA
100
AcDbLine
 10
76.48781475059547
 20
152.9002212408358
 30
0.0
 11
73.68781475059549
 21
152.9002212408358
 31
0.0
  0
LINE
  5
2EBC
330
1E
100
AcDbEntity
  8
SA
100
AcDbLine
 10
69.86581475059546
 20
150.8002212408358
 30
0.0
 11
72.98781475059546
 21
150.8002212408358
 31
0.0
  0
LINE
  5
2EBD
330
1E
100
AcDbEntity
  8
HA
100
AcDbLine
 10
76.48781475059547
 20
152.5502212408358
 30
0.0
 11
73.68781475059549
 21
152.5502212408358
 31
0.0
  0
LINE
  5
2EBE
330
1E
100
AcDbEntity
  8
HA
100
AcDbLine
 10
69.51581475059545
 20
151.1502212408358
 30
0.0
 11
72.98781475059546
 21
151.1502212408358
 31
0.0
  0
LINE
  5
2EBF
330
1E
100
AcDbEntity
  8
HA
100
AcDbLine
 10
69.86581475059546
 20
152.9002212408358
 30
0.0
 11
69.86581475059546
 21
150.8002212408358
 31
0.0
  0
LINE
  5
2EC0
330
1E
100
AcDbEntity
  8
SA
100
AcDbLine
 10
69.86581475059546
 20
152.9002212408358
 30
0.0
 11
69.51581475059545
 21
152.5502212408358
 31
0.0
  0
LINE
  5
2EC1
330
1E
100
AcDbEntity
  8
SA
100
AcDbLine
 10
69.51581475059545
 20
151.1502212408358
 30
0.0
 11
69.86581475059546
 21
150.8002212408358
 31
0.0
  0
LINE
  5
2EC2
330
1E
100
AcDbEntity
  8
SA
100
AcDbLine
 10
72.98781475059546
 20
152.9002212408358
 30
0.0
 11
69.86581475059546
 21
152.9002212408358
 31
0.0
  0
LINE
  5
2EC3
330
1E
100
AcDbEntity
  8
HA
100
AcDbLine
 10
72.98781475059546
 20
152.5502212408358
 30
0.0
 11
69.51581475059545
 21
152.5502212408358
 31
0.0
  0
LINE
  5
2EC4
330
1E
100
AcDbEntity
  8
HA
100
AcDbLine
 10
73.68781475059549
 20
151.1502212408358
 30
0.0
 11
76.48781475059547
 21
151.1502212408358
 31
0.0
  0
LINE
  5
2EC5
330
1E
100
AcDbEntity
  8
SA
100
AcDbLine
 10
73.68781475059549
 20
150.8002212408358
 30
0.0
 11
76.48781475059547
 21
150.8002212408358
 31
0.0
  0
LINE
  5
2EC6
330
1E
100
AcDbEntity
  8
SA
100
AcDbLine
 10
75.08781475059549
 20
181.3344582963354
 30
0.0
 11
110.0878147505955
 21
181.3344582963354
 31
0.0
  0
LINE
  5
2EC7
330
1E
100
AcDbEntity
  8
SA
100
AcDbLine
 10
75.08781475059549
 20
179.7244582963353
 30
0.0
 11
110.0878147505955
 21
179.7244582963353
 31
0.0
  0
LINE
  5
2EC8
330
1E
100
AcDbEntity
  8
SA
100
AcDbLine
 10
110.0878147505955
 20
179.7244582963353
 30
0.0
 11
110.0878147505955
 21
181.6844582963354
 31
0.0
  0
LINE
  5
2EC9
330
1E
100
AcDbEntity
  8
SA
100
AcDbLine
 10
110.0878147505955
 20
181.6844582963354
 30
0.0
 11
112.1878147505955
 21
181.6844582963354
 31
0.0
  0
LINE
  5
2ECA
330
1E
100
AcDbEntity
  8
SA
100
AcDbLine
 10
110.0878147505955
 20
179.7244582963353
 30
0.0
 11
110.0878147505955
 21
179.3744582963354
 31
0.0
  0
LINE
  5
2ECB
330
1E
100
AcDbEntity
  8
SA
100
AcDbLine
 10
110.0878147505955
 20
179.3744582963354
 30
0.0
 11
112.1878147505955
 21
179.3744582963354
 31
0.0
  0
LINE
  5
2ECC
330
1E
100
AcDbEntity
  8
SA
100
AcDbLine
 10
112.1878147505955
 20
179.3744582963354
 30
0.0
 11
112.1878147505955
 21
181.6844582963354
 31
0.0
  0
LINE
  5
2ECD
330
1E
100
AcDbEntity
  8
SA
100
AcDbLine
 10
112.1878147505955
 20
181.6844582963354
 30
0.0
 11
112.1878147505955
 21
183.0844582963354
 31
0.0
  0
LINE
  5
2ECE
330
1E
100
AcDbEntity
  8
SA
100
AcDbLine
 10
112.1878147505955
 20
183.0844582963354
 30
0.0
 11
133.1878147505955
 21
183.0844582963354
 31
0.0
  0
LINE
  5
2ECF
330
1E
100
AcDbEntity
  8
SA
100
AcDbLine
 10
112.1878147505955
 20
179.3744582963354
 30
0.0
 11
112.1878147505955
 21
177.9744582963354
 31
0.0
  0
LINE
  5
2ED0
330
1E
100
AcDbEntity
  8
SA
100
AcDbLine
 10
112.1878147505955
 20
177.9744582963354
 30
0.0
 11
133.1878147505955
 21
177.9744582963354
 31
0.0
  0
LINE
  5
2ED1
330
1E
100
AcDbEntity
  8
SA
100
AcDbLine
 10
133.1878147505955
 20
177.9744582963354
 30
0.0
 11
133.1878147505955
 21
183.0844582963354
 31
0.0
  0
LINE
  5
2ED2
330
1E
100
AcDbEntity
  8
SA
100
AcDbLine
 10
153.1378147505955
 20
178.3244582963354
 30
0.0
 11
153.1378147505955
 21
182.7344582963355
 31
0.0
  0
LINE
  5
2ED3
330
1E
100
AcDbEntity
  8
SA
100
AcDbLine
 10
133.1878147505955
 20
183.0844582963354
 30
0.0
 11
133.1878147505955
 21
182.7344582963354
 31
0.0
  0
LINE
  5
2ED4
330
1E
100
AcDbEntity
  8
SA
100
AcDbLine
 10
133.1878147505955
 20
177.9744582963354
 30
0.0
 11
133.1878147505955
 21
178.3244582963354
 31
0.0
  0
ARC
  5
2ED5
330
1E
100
AcDbEntity
  8
SA
100
AcDbCircle
 10
133.7128147505954
 20
182.7344582963354
 30
0.0
 40
0.525
100
AcDbArc
 50
0.0
 51
180.0
  0
ARC
  5
2ED6
330
1E
100
AcDbEntity
  8
SA
100
AcDbCircle
 10
133.7128147505954
 20
178.3244582963354
 30
0.0
 40
0.525
100
AcDbArc
 50
180.0
 51
0.0
  0
LINE
  5
2ED7
330
1E
100
AcDbEntity
  8
SA
100
AcDbLine
 10
134.2378147505955
 20
182.7344582963354
 30
0.0
 11
133.1878147505955
 21
178.3244582963354
 31
0.0
  0
ARC
  5
2ED8
330
1E
100
AcDbEntity
  8
SA
100
AcDbCircle
 10
134.7628147505955
 20
182.7344582963354
 30
0.0
 40
0.525
100
AcDbArc
 50
0.0
 51
180.0
  0
ARC
  5
2ED9
330
1E
100
AcDbEntity
  8
SA
100
AcDbCircle
 10
134.7628147505955
 20
178.3244582963354
 30
0.0
 40
0.525
100
AcDbArc
 50
180.0
 51
0.0
  0
LINE
  5
2EDA
330
1E
100
AcDbEntity
  8
SA
100
AcDbLine
 10
135.2878147505955
 20
182.7344582963354
 30
0.0
 11
134.2378147505955
 21
178.3244582963354
 31
0.0
  0
ARC
  5
2EDB
330
1E
100
AcDbEntity
  8
SA
100
AcDbCircle
 10
135.8128147505955
 20
182.7344582963354
 30
0.0
 40
0.525
100
AcDbArc
 50
0.0
 51
180.0
  0
ARC
  5
2EDC
330
1E
100
AcDbEntity
  8
SA
100
AcDbCircle
 10
135.8128147505955
 20
178.3244582963354
 30
0.0
 40
0.525
100
AcDbArc
 50
180.0
 51
0.0
  0
LINE
  5
2EDD
330
1E
100
AcDbEntity
  8
SA
100
AcDbLine
 10
136.3378147505954
 20
182.7344582963354
 30
0.0
 11
135.2878147505955
 21
178.3244582963354
 31
0.0
  0
ARC
  5
2EDE
330
1E
100
AcDbEntity
  8
SA
100
AcDbCircle
 10
136.8628147505955
 20
182.7344582963354
 30
0.0
 40
0.525
100
AcDbArc
 50
0.0
 51
180.0
  0
ARC
  5
2EDF
330
1E
100
AcDbEntity
  8
SA
100
AcDbCircle
 10
136.8628147505955
 20
178.3244582963354
 30
0.0
 40
0.525
100
AcDbArc
 50
180.0
 51
0.0
  0
LINE
  5
2EE0
330
1E
100
AcDbEntity
  8
SA
100
AcDbLine
 10
137.3878147505955
 20
182.7344582963354
 30
0.0
 11
136.3378147505955
 21
178.3244582963354
 31
0.0
  0
ARC
  5
2EE1
330
1E
100
AcDbEntity
  8
SA
100
AcDbCircle
 10
137.9128147505955
 20
182.7344582963354
 30
0.0
 40
0.525
100
AcDbArc
 50
0.0
 51
180.0
  0
ARC
  5
2EE2
330
1E
100
AcDbEntity
  8
SA
100
AcDbCircle
 10
137.9128147505955
 20
178.3244582963354
 30
0.0
 40
0.525
100
AcDbArc
 50
180.0
 51
0.0
  0
LINE
  5
2EE3
330
1E
100
AcDbEntity
  8
SA
100
AcDbLine
 10
138.4378147505955
 20
182.7344582963354
 30
0.0
 11
137.3878147505955
 21
178.3244582963354
 31
0.0
  0
ARC
  5
2EE4
330
1E
100
AcDbEntity
  8
SA
100
AcDbCircle
 10
138.9628147505954
 20
182.7344582963354
 30
0.0
 40
0.525
100
AcDbArc
 50
0.0
 51
180.0
  0
ARC
  5
2EE5
330
1E
100
AcDbEntity
  8
SA
100
AcDbCircle
 10
138.9628147505954
 20
178.3244582963354
 30
0.0
 40
0.525
100
AcDbArc
 50
180.0
 51
0.0
  0
LINE
  5
2EE6
330
1E
100
AcDbEntity
  8
SA
100
AcDbLine
 10
139.4878147505955
 20
182.7344582963354
 30
0.0
 11
138.4378147505955
 21
178.3244582963354
 31
0.0
  0
ARC
  5
2EE7
330
1E
100
AcDbEntity
  8
SA
100
AcDbCircle
 10
140.0128147505955
 20
182.7344582963354
 30
0.0
 40
0.525
100
AcDbArc
 50
0.0
 51
180.0
  0
ARC
  5
2EE8
330
1E
100
AcDbEntity
  8
SA
100
AcDbCircle
 10
140.0128147505955
 20
178.3244582963354
 30
0.0
 40
0.525
100
AcDbArc
 50
180.0
 51
0.0
  0
LINE
  5
2EE9
330
1E
100
AcDbEntity
  8
SA
100
AcDbLine
 10
140.5378147505955
 20
182.7344582963354
 30
0.0
 11
139.4878147505955
 21
178.3244582963354
 31
0.0
  0
ARC
  5
2EEA
330
1E
100
AcDbEntity
  8
SA
100
AcDbCircle
 10
141.0628147505955
 20
182.7344582963354
 30
0.0
 40
0.525
100
AcDbArc
 50
0.0
 51
180.0
  0
ARC
  5
2EEB
330
1E
100
AcDbEntity
  8
SA
100
AcDbCircle
 10
141.0628147505955
 20
178.3244582963354
 30
0.0
 40
0.525
100
AcDbArc
 50
180.0
 51
0.0
  0
LINE
  5
2EEC
330
1E
100
AcDbEntity
  8
SA
100
AcDbLine
 10
141.5878147505955
 20
182.7344582963354
 30
0.0
 11
140.5378147505955
 21
178.3244582963354
 31
0.0
  0
ARC
  5
2EED
330
1E
100
AcDbEntity
  8
SA
100
AcDbCircle
 10
142.1128147505955
 20
182.7344582963354
 30
0.0
 40
0.525
100
AcDbArc
 50
0.0
 51
180.0
  0
ARC
  5
2EEE
330
1E
100
AcDbEntity
  8
SA
100
AcDbCircle
 10
142.1128147505955
 20
178.3244582963354
 30
0.0
 40
0.525
100
AcDbArc
 50
180.0
 51
0.0
  0
LINE
  5
2EEF
330
1E
100
AcDbEntity
  8
SA
100
AcDbLine
 10
142.6378147505955
 20
182.7344582963354
 30
0.0
 11
141.5878147505955
 21
178.3244582963354
 31
0.0
  0
ARC
  5
2EF0
330
1E
100
AcDbEntity
  8
SA
100
AcDbCircle
 10
143.1628147505954
 20
182.7344582963354
 30
0.0
 40
0.525
100
AcDbArc
 50
0.0
 51
180.0
  0
ARC
  5
2EF1
330
1E
100
AcDbEntity
  8
SA
100
AcDbCircle
 10
143.1628147505954
 20
178.3244582963354
 30
0.0
 40
0.525
100
AcDbArc
 50
180.0
 51
0.0
  0
LINE
  5
2EF2
330
1E
100
AcDbEntity
  8
SA
100
AcDbLine
 10
143.6878147505955
 20
182.7344582963354
 30
0.0
 11
142.6378147505955
 21
178.3244582963354
 31
0.0
  0
ARC
  5
2EF3
330
1E
100
AcDbEntity
  8
SA
100
AcDbCircle
 10
144.2128147505954
 20
182.7344582963354
 30
0.0
 40
0.525
100
AcDbArc
 50
0.0
 51
180.0
  0
ARC
  5
2EF4
330
1E
100
AcDbEntity
  8
SA
100
AcDbCircle
 10
144.2128147505954
 20
178.3244582963354
 30
0.0
 40
0.525
100
AcDbArc
 50
180.0
 51
0.0
  0
LINE
  5
2EF5
330
1E
100
AcDbEntity
  8
SA
100
AcDbLine
 10
144.7378147505955
 20
182.7344582963354
 30
0.0
 11
143.6878147505955
 21
178.3244582963354
 31
0.0
  0
ARC
  5
2EF6
330
1E
100
AcDbEntity
  8
SA
100
AcDbCircle
 10
145.2628147505954
 20
182.7344582963354
 30
0.0
 40
0.525
100
AcDbArc
 50
0.0
 51
180.0
  0
ARC
  5
2EF7
330
1E
100
AcDbEntity
  8
SA
100
AcDbCircle
 10
145.2628147505954
 20
178.3244582963354
 30
0.0
 40
0.525
100
AcDbArc
 50
180.0
 51
0.0
  0
LINE
  5
2EF8
330
1E
100
AcDbEntity
  8
SA
100
AcDbLine
 10
145.7878147505954
 20
182.7344582963354
 30
0.0
 11
144.7378147505955
 21
178.3244582963354
 31
0.0
  0
ARC
  5
2EF9
330
1E
100
AcDbEntity
  8
SA
100
AcDbCircle
 10
146.3128147505955
 20
182.7344582963354
 30
0.0
 40
0.525
100
AcDbArc
 50
0.0
 51
180.0
  0
ARC
  5
2EFA
330
1E
100
AcDbEntity
  8
SA
100
AcDbCircle
 10
146.3128147505955
 20
178.3244582963354
 30
0.0
 40
0.525
100
AcDbArc
 50
180.0
 51
0.0
  0
LINE
  5
2EFB
330
1E
100
AcDbEntity
  8
SA
100
AcDbLine
 10
146.8378147505954
 20
182.7344582963354
 30
0.0
 11
145.7878147505955
 21
178.3244582963354
 31
0.0
  0
ARC
  5
2EFC
330
1E
100
AcDbEntity
  8
SA
100
AcDbCircle
 10
147.3628147505955
 20
182.7344582963354
 30
0.0
 40
0.525
100
AcDbArc
 50
0.0
 51
180.0
  0
ARC
  5
2EFD
330
1E
100
AcDbEntity
  8
SA
100
AcDbCircle
 10
147.3628147505955
 20
178.3244582963354
 30
0.0
 40
0.525
100
AcDbArc
 50
180.0
 51
0.0
  0
LINE
  5
2EFE
330
1E
100
AcDbEntity
  8
SA
100
AcDbLine
 10
147.8878147505955
 20
182.7344582963354
 30
0.0
 11
146.8378147505955
 21
178.3244582963354
 31
0.0
  0
ARC
  5
2EFF
330
1E
100
AcDbEntity
  8
SA
100
AcDbCircle
 10
148.4128147505954
 20
182.7344582963354
 30
0.0
 40
0.525
100
AcDbArc
 50
0.0
 51
180.0
  0
ARC
  5
2F00
330
1E
100
AcDbEntity
  8
SA
100
AcDbCircle
 10
148.4128147505954
 20
178.3244582963354
 30
0.0
 40
0.525
100
AcDbArc
 50
180.0
 51
0.0
  0
LINE
  5
2F01
330
1E
100
AcDbEntity
  8
SA
100
AcDbLine
 10
148.9378147505955
 20
182.7344582963354
 30
0.0
 11
147.8878147505955
 21
178.3244582963354
 31
0.0
  0
ARC
  5
2F02
330
1E
100
AcDbEntity
  8
SA
100
AcDbCircle
 10
149.4628147505954
 20
182.7344582963354
 30
0.0
 40
0.525
100
AcDbArc
 50
0.0
 51
180.0
  0
ARC
  5
2F03
330
1E
100
AcDbEntity
  8
SA
100
AcDbCircle
 10
149.4628147505954
 20
178.3244582963354
 30
0.0
 40
0.525
100
AcDbArc
 50
180.0
 51
0.0
  0
LINE
  5
2F04
330
1E
100
AcDbEntity
  8
SA
100
AcDbLine
 10
149.9878147505955
 20
182.7344582963354
 30
0.0
 11
148.9378147505955
 21
178.3244582963354
 31
0.0
  0
ARC
  5
2F05
330
1E
100
AcDbEntity
  8
SA
100
AcDbCircle
 10
150.5128147505955
 20
182.7344582963354
 30
0.0
 40
0.525
100
AcDbArc
 50
0.0
 51
180.0
  0
ARC
  5
2F06
330
1E
100
AcDbEntity
  8
SA
100
AcDbCircle
 10
150.5128147505955
 20
178.3244582963354
 30
0.0
 40
0.525
100
AcDbArc
 50
180.0
 51
0.0
  0
LINE
  5
2F07
330
1E
100
AcDbEntity
  8
SA
100
AcDbLine
 10
151.0378147505954
 20
182.7344582963354
 30
0.0
 11
149.9878147505955
 21
178.3244582963354
 31
0.0
  0
ARC
  5
2F08
330
1E
100
AcDbEntity
  8
SA
100
AcDbCircle
 10
151.5628147505955
 20
182.7344582963354
 30
0.0
 40
0.525
100
AcDbArc
 50
0.0
 51
180.0
  0
ARC
  5
2F09
330
1E
100
AcDbEntity
  8
SA
100
AcDbCircle
 10
151.5628147505955
 20
178.3244582963354
 30
0.0
 40
0.525
100
AcDbArc
 50
180.0
 51
0.0
  0
LINE
  5
2F0A
330
1E
100
AcDbEntity
  8
SA
100
AcDbLine
 10
152.0878147505954
 20
182.7344582963354
 30
0.0
 11
151.0378147505955
 21
178.3244582963354
 31
0.0
  0
ARC
  5
2F0B
330
1E
100
AcDbEntity
  8
SA
100
AcDbCircle
 10
152.6128147505955
 20
182.7344582963354
 30
0.0
 40
0.525
100
AcDbArc
 50
0.0
 51
180.0
  0
ARC
  5
2F0C
330
1E
100
AcDbEntity
  8
SA
100
AcDbCircle
 10
152.6128147505955
 20
178.3244582963354
 30
0.0
 40
0.525
100
AcDbArc
 50
180.0
 51
0.0
  0
LINE
  5
2F0D
330
1E
100
AcDbEntity
  8
SA
100
AcDbLine
 10
153.1378147505955
 20
182.7344582963354
 30
0.0
 11
152.0878147505955
 21
178.3244582963354
 31
0.0
  0
SPLINE
  5
2F0E
330
1E
100
AcDbEntity
  8
SA
100
AcDbSpline
210
0.0
220
0.0
230
1.0
 70
  1064
 71
     3
 72
    10
 73
     6
 74
     4
 42
0.000000001
 43
0.0000000001
 44
0.0000000001
 40
0.0
 40
0.0
 40
0.0
 40
0.0
 40
6.324555320336759
 40
14.57076657157208
 40
20.89532189190884
 40
20.89532189190884
 40
20.89532189190884
 40
20.89532189190884
 10
185.6548154223812
 20
190.5374564409284
 30
0.0
 10
184.6316010755249
 20
188.5511495869866
 30
0.0
 10
182.2742784424559
 20
183.9750154491071
 30
0.0
 10
187.0353524023065
 20
177.0998974327499
 30
0.0
 10
184.6780297692375
 20
172.5237632948703
 30
0.0
 10
183.6548154223812
 20
170.5374564409285
 30
0.0
 11
185.6548154223812
 21
190.5374564409284
 31
0.0
 11
183.6548154223812
 21
184.5374564409285
 31
0.0
 11
185.6548154223812
 21
176.5374564409285
 31
0.0
 11
183.6548154223812
 21
170.5374564409285
 31
0.0
  0
SPLINE
  5
2F0F
330
1E
100
AcDbEntity
  8
SA
100
AcDbSpline
210
0.0
220
0.0
230
1.0
 70
  1064
 71
     3
 72
    10
 73
     6
 74
     4
 42
0.000000001
 43
0.0000000001
 44
0.0000000001
 40
0.0
 40
0.0
 40
0.0
 40
0.0
 40
6.324555320336759
 40
14.57076657157208
 40
20.89532189190884
 40
20.89532189190884
 40
20.89532189190884
 40
20.89532189190884
 10
183.6548154223812
 20
190.5374564409284
 30
0.0
 10
182.6316010755249
 20
188.5511495869866
 30
0.0
 10
180.2742784424559
 20
183.9750154491071
 30
0.0
 10
185.0353524023065
 20
177.0998974327499
 30
0.0
 10
182.6780297692375
 20
172.5237632948703
 30
0.0
 10
181.6548154223812
 20
170.5374564409285
 30
0.0
 11
183.6548154223812
 21
190.5374564409284
 31
0.0
 11
181.6548154223812
 21
184.5374564409285
 31
0.0
 11
183.6548154223812
 21
176.5374564409285
 31
0.0
 11
181.6548154223812
 21
170.5374564409285
 31
0.0
  0
LINE
  5
2F10
330
1E
100
AcDbEntity
  8
SA
100
AcDbLine
 10
153.1378147505955
 20
178.7294582963354
 30
0.0
 11
183.2684688442517
 21
178.7294582963354
 31
0.0
  0
LINE
  5
2F11
330
1E
100
AcDbEntity
  8
SA
100
AcDbLine
 10
153.1378147505955
 20
182.3294582963354
 30
0.0
 11
182.0458741221597
 21
182.3294582963354
 31
0.0
  0
LINE
  5
2F12
330
1E
100
AcDbEntity
  8
SA
100
AcDbLine
 10
236.6895149803961
 20
181.8294582963354
 30
0.0
 11
253.2605149803961
 21
181.8294582963354
 31
0.0
  0
LINE
  5
2F13
330
1E
100
AcDbEntity
  8
SA
100
AcDbLine
 10
236.6895149803961
 20
179.2294582963354
 30
0.0
 11
253.2605149803961
 21
179.2294582963354
 31
0.0
  0
LINE
  5
2F14
330
1E
100
AcDbEntity
  8
SA
100
AcDbLine
 10
253.2605149803961
 20
179.2294582963354
 30
0.0
 11
253.2605149803961
 21
180.2294582963354
 31
0.0
  0
LINE
  5
2F15
330
1E
100
AcDbEntity
  8
SA
100
AcDbLine
 10
253.2605149803961
 20
180.2294582963354
 30
0.0
 11
236.6895149803961
 21
180.2294582963354
 31
0.0
  0
LINE
  5
2F16
330
1E
100
AcDbEntity
  8
SA
100
AcDbLine
 10
253.2605149803961
 20
180.2294582963354
 30
0.0
 11
253.2605149803961
 21
180.4294582963354
 31
0.0
  0
LINE
  5
2F17
330
1E
100
AcDbEntity
  8
SA
100
AcDbLine
 10
253.2605149803961
 20
180.4294582963354
 30
0.0
 11
255.2605149803961
 21
180.4294582963354
 31
0.0
  0
LINE
  5
2F18
330
1E
100
AcDbEntity
  8
SA
100
AcDbLine
 10
253.2605149803961
 20
179.2294582963354
 30
0.0
 11
253.2605149803961
 21
179.0294582963354
 31
0.0
  0
LINE
  5
2F19
330
1E
100
AcDbEntity
  8
SA
100
AcDbLine
 10
253.2605149803961
 20
179.0294582963354
 30
0.0
 11
255.2605149803961
 21
179.0294582963354
 31
0.0
  0
LINE
  5
2F1A
330
1E
100
AcDbEntity
  8
SA
100
AcDbLine
 10
255.7605149803961
 20
180.7294582963354
 30
0.0
 11
257.7605149803961
 21
180.7294582963354
 31
0.0
  0
ARC
  5
2F1B
330
1E
100
AcDbEntity
  8
SA
100
AcDbCircle
 10
256.1244958271704
 20
179.556156885045
 30
0.0
 40
1.228461744847815
100
AcDbArc
 50
107.2349034627553
 51
134.6926096013899
  0
LINE
  5
2F1C
330
1E
100
AcDbEntity
  8
SA
100
AcDbLine
 10
256.0945149803961
 20
180.2294582963354
 30
0.0
 11
257.7605149803961
 21
180.2294582963354
 31
0.0
  0
ARC
  5
2F1D
330
1E
100
AcDbEntity
  8
SA
100
AcDbCircle
 10
257.7605149803961
 20
180.4794582963354
 30
0.0
 40
0.25
100
AcDbArc
 50
270.0
 51
90.0
  0
ARC
  5
2F1E
330
1E
100
AcDbEntity
  8
SA
100
AcDbCircle
 10
257.7605149803961
 20
178.9794582963354
 30
0.0
 40
0.25
100
AcDbArc
 50
270.0
 51
90.0
  0
LINE
  5
2F1F
330
1E
100
AcDbEntity
  8
SA
100
AcDbLine
 10
256.0945149803961
 20
179.2294582963354
 30
0.0
 11
257.7605149803961
 21
179.2294582963354
 31
0.0
  0
ARC
  5
2F20
330
1E
100
AcDbEntity
  8
SA
100
AcDbCircle
 10
256.1244958271704
 20
179.9027597076258
 30
0.0
 40
1.228461744847815
100
AcDbArc
 50
225.30739039861
 51
252.7650965372446
  0
LINE
  5
2F21
330
1E
100
AcDbEntity
  8
SA
100
AcDbLine
 10
255.7605149803961
 20
178.7294582963354
 30
0.0
 11
257.7605149803961
 21
178.7294582963354
 31
0.0
  0
ARC
  5
2F22
330
1E
100
AcDbEntity
  8
SA
100
AcDbCircle
 10
256.0945149803961
 20
179.7294582963354
 30
0.0
 40
0.5
100
AcDbArc
 50
90.0
 51
270.0
  0
ARC
  5
2F23
330
1E
100
AcDbEntity
  8
SA
100
AcDbCircle
 10
256.0945149803961
 20
181.3294582963355
 30
0.0
 40
0.5
100
AcDbArc
 50
90.0
 51
270.0
  0
LINE
  5
2F24
330
1E
100
AcDbEntity
  8
SA
100
AcDbLine
 10
255.7605149803961
 20
182.3294582963355
 30
0.0
 11
257.7605149803961
 21
182.3294582963355
 31
0.0
  0
ARC
  5
2F25
330
1E
100
AcDbEntity
  8
SA
100
AcDbCircle
 10
256.1244958271704
 20
181.156156885045
 30
0.0
 40
1.228461744847815
100
AcDbArc
 50
107.2349034627553
 51
134.6926096013899
  0
LINE
  5
2F26
330
1E
100
AcDbEntity
  8
SA
100
AcDbLine
 10
256.0945149803961
 20
181.8294582963355
 30
0.0
 11
257.7605149803961
 21
181.8294582963355
 31
0.0
  0
ARC
  5
2F27
330
1E
100
AcDbEntity
  8
SA
100
AcDbCircle
 10
257.7605149803961
 20
182.0794582963355
 30
0.0
 40
0.25
100
AcDbArc
 50
270.0
 51
90.0
  0
ARC
  5
2F28
330
1E
100
AcDbEntity
  8
SA
100
AcDbCircle
 10
257.7605149803961
 20
180.5794582963355
 30
0.0
 40
0.25
100
AcDbArc
 50
348.4630409724173
 51
90.0
  0
LINE
  5
2F29
330
1E
100
AcDbEntity
  8
SA
100
AcDbLine
 10
256.0945149803961
 20
180.8294582963355
 30
0.0
 11
257.7605149803961
 21
180.8294582963355
 31
0.0
  0
ARC
  5
2F2A
330
1E
100
AcDbEntity
  8
SA
100
AcDbCircle
 10
256.1244958271704
 20
181.5027597076259
 30
0.0
 40
1.228461744847815
100
AcDbArc
 50
225.30739039861
 51
232.4002976318951
  0
LINE
  5
2F2B
330
1E
100
AcDbEntity
  8
SA
100
AcDbLine
 10
253.2605149803961
 20
182.0294582963355
 30
0.0
 11
255.2605149803961
 21
182.0294582963355
 31
0.0
  0
LINE
  5
2F2C
330
1E
100
AcDbEntity
  8
SA
100
AcDbLine
 10
253.2605149803961
 20
181.8294582963355
 30
0.0
 11
253.2605149803961
 21
182.0294582963355
 31
0.0
  0
LINE
  5
2F2D
330
1E
100
AcDbEntity
  8
SA
100
AcDbLine
 10
253.2605149803961
 20
180.6294582963354
 30
0.0
 11
255.2605149803961
 21
180.6294582963354
 31
0.0
  0
LINE
  5
2F2E
330
1E
100
AcDbEntity
  8
SA
100
AcDbLine
 10
253.2605149803961
 20
180.8294582963355
 30
0.0
 11
253.2605149803961
 21
180.6294582963354
 31
0.0
  0
LINE
  5
2F2F
330
1E
100
AcDbEntity
  8
SA
100
AcDbLine
 10
253.2605149803961
 20
180.8294582963355
 30
0.0
 11
236.6895149803961
 21
180.8294582963354
 31
0.0
  0
LINE
  5
2F30
330
1E
100
AcDbEntity
  8
SA
100
AcDbLine
 10
253.2605149803961
 20
181.8294582963355
 30
0.0
 11
253.2605149803961
 21
180.8294582963355
 31
0.0
  0
LINE
  5
2F31
330
1E
100
AcDbEntity
  8
SA
100
AcDbLine
 10
236.6895149803961
 20
181.8294582963355
 30
0.0
 11
253.2605149803961
 21
181.8294582963355
 31
0.0
  0
LINE
  5
2F32
330
1E
100
AcDbEntity
  8
SA
100
AcDbLine
 10
226.6105149803961
 20
182.5294582963354
 30
0.0
 11
226.6105149803961
 21
180.5294582963354
 31
0.0
  0
LINE
  5
2F33
330
1E
100
AcDbEntity
  8
SA
100
AcDbLine
 10
226.6105149803961
 20
182.3294582963354
 30
0.0
 11
226.6105149803961
 21
182.5294582963354
 31
0.0
  0
LINE
  5
2F34
330
1E
100
AcDbEntity
  8
SA
100
AcDbLine
 10
226.6105149803961
 20
182.5294582963354
 30
0.0
 11
233.268514980396
 21
182.5294582963354
 31
0.0
  0
LINE
  5
2F35
330
1E
100
AcDbEntity
  8
SA
100
AcDbLine
 10
234.3475149803961
 20
182.0294582963355
 30
0.0
 11
236.6895149803961
 21
182.0294582963355
 31
0.0
  0
LINE
  5
2F36
330
1E
100
AcDbEntity
  8
SA
100
AcDbLine
 10
236.6895149803961
 20
182.0294582963355
 30
0.0
 11
236.6895149803961
 21
180.8294582963355
 31
0.0
  0
LINE
  5
2F37
330
1E
100
AcDbEntity
  8
SA
100
AcDbLine
 10
233.2685149803961
 20
182.5294582963354
 30
0.0
 11
234.3475149803961
 21
182.0294582963355
 31
0.0
  0
LINE
  5
2F38
330
1E
100
AcDbEntity
  8
SA
100
AcDbLine
 10
233.2685149803961
 20
178.5294582963355
 30
0.0
 11
234.3475149803961
 21
179.0294582963354
 31
0.0
  0
LINE
  5
2F39
330
1E
100
AcDbEntity
  8
SA
100
AcDbLine
 10
236.6895149803961
 20
179.0294582963354
 30
0.0
 11
236.6895149803961
 21
180.8294582963354
 31
0.0
  0
LINE
  5
2F3A
330
1E
100
AcDbEntity
  8
SA
100
AcDbLine
 10
234.3475149803961
 20
179.0294582963354
 30
0.0
 11
236.6895149803961
 21
179.0294582963354
 31
0.0
  0
LINE
  5
2F3B
330
1E
100
AcDbEntity
  8
SA
100
AcDbLine
 10
226.6105149803961
 20
178.5294582963355
 30
0.0
 11
233.268514980396
 21
178.5294582963355
 31
0.0
  0
LINE
  5
2F3C
330
1E
100
AcDbEntity
  8
SA
100
AcDbLine
 10
226.6105149803961
 20
178.7294582963355
 30
0.0
 11
226.6105149803961
 21
178.5294582963355
 31
0.0
  0
LINE
  5
2F3D
330
1E
100
AcDbEntity
  8
SA
100
AcDbLine
 10
226.6105149803961
 20
178.5294582963355
 30
0.0
 11
226.6105149803961
 21
180.5294582963354
 31
0.0
  0
LINE
  5
2F3F
330
1E
100
AcDbEntity
  8
SA
100
AcDbLine
 10
184.0458741221597
 20
182.3294582963354
 30
0.0
 11
226.6105149803961
 21
182.3294582963354
 31
0.0
  0
LINE
  5
2F40
330
1E
100
AcDbEntity
  8
SA
100
AcDbLine
 10
185.2684688442517
 20
178.7294582963354
 30
0.0
 11
226.6105149803961
 21
178.7294582963354
 31
0.0
  0
HATCH
  5
2F41
330
1E
100
AcDbEntity
  8
HA
 62
     4
 48
0.6
100
AcDbHatch
 10
0.0
 20
0.0
 30
0.0
210
0.0
220
0.0
230
1.0
  2
ANSI37
 70
     0
 71
     0
 91
        2
 92
        5
 93
        4
 72
     4
 94
        3
 73
     0
 74
     0
 95
        8
 96
        4
 40
8.606940604933729
 40
8.606940604933729
 40
8.606940604933729
 40
8.606940604933729
 40
12.30484138349211
 40
12.30484138349211
 40
12.30484138349211
 40
12.30484138349211
 10
183.2684688442517
 20
178.7294582963354
 10
182.9163270890369
 20
179.9273310608454
 10
182.399475690632
 20
181.1315294679741
 10
182.0458741221597
 20
182.3294582963355
 72
     1
 10
182.0458741221597
 20
182.3294582963354
 11
153.1378147505955
 21
182.3294582963354
 72
     1
 10
153.1378147505955
 20
182.3294582963354
 11
153.1378147505954
 21
178.7294582963354
 72
     1
 10
153.1378147505955
 20
178.7294582963354
 11
183.2684688442517
 21
178.7294582963354
 97
        0
 92
        5
 93
        5
 72
     1
 10
226.6105149803961
 20
180.5294582963354
 11
226.6105149803961
 21
182.3294582963354
 72
     1
 10
226.6105149803961
 20
182.3294582963354
 11
184.0458741221598
 21
182.3294582963354
 72
     4
 94
        3
 73
     0
 74
     0
 95
        8
 96
        4
 40
8.606940604933729
 40
8.606940604933729
 40
8.606940604933729
 40
8.606940604933729
 40
12.30484138349211
 40
12.30484138349211
 40
12.30484138349211
 40
12.30484138349211
 10
184.0458741221598
 20
182.3294582963355
 10
184.399475690632
 20
181.1315294679741
 10
184.9163270890369
 20
179.9273310608454
 10
185.2684688442517
 20
178.7294582963354
 72
     1
 10
185.2684688442517
 20
178.7294582963354
 11
226.6105149803961
 21
178.7294582963354
 72
     1
 10
226.6105149803961
 20
178.7294582963354
 11
226.6105149803961
 21
180.5294582963354
 97
        0
 75
     0
 76
     1
 52
0.0
 41
10.0
 77
     0
 78
     2
 53
45.0
 43
14.64281475059549
 44
41.58345829633539
 45
-0.8838834764831842
 46
0.8838834764831844
 79
     0
 53
135.0
 43
14.64281475059549
 44
41.58345829633539
 45
-0.8838834764831844
 46
-0.8838834764831842
 79
     0
 47
0.2240440034045316
 98
        2
 10
169.6398147505955
 20
181.1884582963353
 10
198.7898147505955
 20
179.8444582963353
  0
LINE
  5
2F42
330
1E
100
AcDbEntity
  8
SC
100
AcDbLine
 10
50.83022464596659
 20
148.1537084013487
 30
0.0
 11
63.38754122178499
 21
157.7930274887738
 31
0.0
  0
LINE
  5
2F43
330
1E
100
AcDbEntity
  8
SC
100
AcDbLine
 10
86.78808827940601
 20
175.7558891038969
 30
0.0
 11
88.77118548767898
 21
177.2781655119582
 31
0.0
  0
MTEXT
  5
2F44
330
1E
100
AcDbEntity
  8
SC
100
AcDbMText
 10
54.65873278951024
 20
154.3404702362142
 30
0.0
 40
4.0
 41
0.0
 71
     5
 72
     1
  1
\A1;A　%%C
  7
0
 11
0.7932388833091885
 21
0.6089105632245114
 31
0.0
 73
     1
 44
1.0
1001
ACAD
1000
MTEXTBEGIN
1070
    73
1070
     1
1070
    44
1040
1.0
1070
    74
1070
     0
1000
MTEXTEND
  0
LINE
  5
2F45
330
1E
100
AcDbEntity
  8
SC
100
AcDbLine
 10
84.80499107113304
 20
174.2336126958356
 30
0.0
 11
65.37063843005795
 21
159.3153038968351
 31
0.0
  0
SOLID
  5
2F46
330
1E
100
AcDbEntity
  8
SC
100
AcDbTrace
 10
86.53437554472914
 20
176.0864053052757
 30
0.0
 11
87.04180101408288
 21
175.4253729025181
 31
0.0
 12
84.80499107113304
 22
174.2336126958356
 32
0.0
 13
84.80499107113304
 23
174.2336126958356
 33
0.0
  0
SOLID
  5
2F47
330
1E
100
AcDbEntity
  8
SC
100
AcDbTrace
 10
63.1338284871081
 20
158.1235436901526
 30
0.0
 11
63.64125395646187
 21
157.462511287395
 31
0.0
 12
65.37063843005795
 22
159.3153038968351
 32
0.0
 13
65.37063843005795
 23
159.3153038968351
 33
0.0
  0
LEADER
  5
2F49
330
1E
100
AcDbEntity
  8
SC
100
AcDbLeader
  3
nisimura
 76
     3
 10
120.1168147505955
 20
181.8874582963354
 30
0.0
 10
130.0158147505955
 20
198.0044582963354
 30
0.0
 10
147.792
 20
198.0044582963354
 30
0.0
1001
ACAD
1000
DSTYLE
1002
{
1070
   147
1040
0.625
1070
    77
1070
     0
1002
}
  0
LEADER
  5
2F4A
330
1E
100
AcDbEntity
  8
SC
100
AcDbLeader
  3
nisimura
 76
     3
 10
140.8728147505955
 20
178.4344582963354
 30
0.0
 10
153.324
 20
154.4064582963354
 30
0.0
 10
178.746
 20
154.4064582963354
 30
0.0
1001
ACAD
1000
DSTYLE
1002
{
1070
   147
1040
0.625
1070
    77
1070
     0
1002
}
  0
LINE
  5
2F55
330
1E
100
AcDbEntity
  8
SA
100
AcDbLine
 10
72.98781475059548
 20
149.7047212408358
 30
0.0
 11
72.98781475059546
 21
153.9958629118653
 31
0.0
  0
LINE
  5
2F56
330
1E
100
AcDbEntity
  8
HO
100
AcDbLine
 10
162.391
 20
98.07926294450041
 30
0.0
 11
198.735
 21
98.07926294450041
 31
0.0
  0
LINE
  5
2F57
330
1E
100
AcDbEntity
  8
HO
100
AcDbLine
 10
180.563
 20
111.6342629445004
 30
0.0
 11
180.563
 21
78.58038794450042
 31
0.0
  0
ARC
  5
2F58
330
1E
100
AcDbEntity
  8
SA
100
AcDbCircle
 10
180.563
 20
98.07926294450041
 30
0.0
 40
12.25
100
AcDbArc
 50
276.5624278686341
 51
263.4375721313659
  0
LINE
  5
2F59
330
1E
100
AcDbEntity
  8
SA
100
AcDbLine
 10
179.163
 20
85.90952588900083
 30
0.0
 11
179.163
 21
81.00952588900085
 31
0.0
  0
LINE
  5
2F5A
330
1E
100
AcDbEntity
  8
SA
100
AcDbLine
 10
181.9629999999999
 20
85.90952588900083
 30
0.0
 11
181.9629999999999
 21
81.00952588900083
 31
0.0
  0
LINE
  5
2F5B
330
1E
100
AcDbEntity
  8
SA
100
AcDbLine
 10
182.6629999999999
 20
85.30066756003035
 30
0.0
 11
182.6629999999999
 21
81.00952588900083
 31
0.0
  0
LINE
  5
2F5C
330
1E
100
AcDbEntity
  8
SA
100
AcDbLine
 10
178.4629999999999
 20
81.00952588900085
 30
0.0
 11
179.163
 21
81.00952588900085
 31
0.0
  0
LINE
  5
2F5D
330
1E
100
AcDbEntity
  8
SA
100
AcDbLine
 10
181.9629999999999
 20
81.00952588900083
 30
0.0
 11
182.6629999999999
 21
81.00952588900083
 31
0.0
  0
ARC
  5
2F5E
330
1E
100
AcDbEntity
  8
SA
100
AcDbCircle
 10
180.563
 20
98.07926294450041
 30
0.0
 40
12.95
100
AcDbArc
 50
279.3324181838026
 51
260.6675818161974
  0
LINE
  5
2F61
330
1E
100
AcDbEntity
  8
HO
100
AcDbLine
 10
173.3663
 20
83.15502588900082
 30
0.0
 11
187.1143
 21
83.15502588900082
 31
0.0
  0
LINE
  5
2F62
330
1E
100
AcDbEntity
  8
SA
100
AcDbLine
 10
182.6629999999999
 20
85.25502588900085
 30
0.0
 11
184.4129999999999
 21
85.25502588900081
 31
0.0
  0
LINE
  5
2F63
330
1E
100
AcDbEntity
  8
SA
100
AcDbLine
 10
184.763
 20
84.90502588900083
 30
0.0
 11
184.763
 21
81.40502588900082
 31
0.0
  0
LINE
  5
2F64
330
1E
100
AcDbEntity
  8
SA
100
AcDbLine
 10
184.413
 20
81.0550258890008
 30
0.0
 11
182.6629999999999
 21
81.05502588900083
 31
0.0
  0
LINE
  5
2F65
330
1E
100
AcDbEntity
  8
HA
100
AcDbLine
 10
184.413
 20
85.25502588900085
 30
0.0
 11
184.413
 21
81.05502588900083
 31
0.0
  0
LINE
  5
2F66
330
1E
100
AcDbEntity
  8
SA
100
AcDbLine
 10
184.4129999999999
 20
85.25502588900081
 30
0.0
 11
184.763
 21
84.90502588900083
 31
0.0
  0
LINE
  5
2F67
330
1E
100
AcDbEntity
  8
SA
100
AcDbLine
 10
184.763
 20
81.40502588900082
 30
0.0
 11
184.413
 21
81.0550258890008
 31
0.0
  0
HATCH
  5
2F68
330
1E
100
AcDbEntity
  8
HA
100
AcDbHatch
 10
0.0
 20
0.0
 30
0.0
210
0.0
220
0.0
230
1.0
  2
ANSI37
 70
     0
 71
     0
 91
        2
 92
        7
 72
     0
 73
     1
 93
        4
 10
184.4129999999999
 20
85.25502588900085
 10
182.6629999999999
 20
85.25502588900085
 10
182.6629999999999
 20
83.15502588900082
 10
184.4129999999999
 20
83.15502588900082
 97
        0
 92
        7
 72
     0
 73
     1
 93
        4
 10
184.4129999999999
 20
83.15502588900082
 10
182.6629999999999
 20
83.15502588900082
 10
182.6629999999999
 20
81.05502588900085
 10
184.4129999999999
 20
81.0550258890008
 97
        0
 75
     0
 76
     1
 52
0.0
 41
3.5
 77
     0
 78
     2
 53
44.99999999999999
 43
121.084
 44
10.44556294450042
 45
-0.3093592167691145
 46
0.3093592167691145
 79
     0
 53
135.0
 43
121.084
 44
10.44556294450042
 45
-0.3093592167691145
 46
-0.3093592167691145
 79
     0
 47
0.0580033488131797
 98
        2
 10
183.7564
 20
84.38306294450043
 10
184.0
 20
81.90646294450042
  0
LINE
  5
2F69
330
1E
100
AcDbEntity
  8
SA
100
AcDbLine
 10
174.9909999999999
 20
83.85502588900086
 30
0.0
 11
174.9909999999999
 21
82.45502588900086
 31
0.0
  0
LINE
  5
2F6A
330
1E
100
AcDbEntity
  8
SA
100
AcDbLine
 10
181.9629999999999
 20
84.20502588900083
 30
0.0
 11
179.163
 21
84.20502588900083
 31
0.0
  0
LINE
  5
2F6B
330
1E
100
AcDbEntity
  8
SA
100
AcDbLine
 10
175.3409999999999
 20
82.10502588900087
 30
0.0
 11
178.4629999999999
 21
82.10502588900087
 31
0.0
  0
LINE
  5
2F6C
330
1E
100
AcDbEntity
  8
HA
100
AcDbLine
 10
181.9629999999999
 20
83.85502588900081
 30
0.0
 11
179.163
 21
83.85502588900081
 31
0.0
  0
LINE
  5
2F6D
330
1E
100
AcDbEntity
  8
HA
100
AcDbLine
 10
174.9909999999999
 20
82.45502588900086
 30
0.0
 11
178.4629999999999
 21
82.45502588900086
 31
0.0
  0
LINE
  5
2F6E
330
1E
100
AcDbEntity
  8
HA
100
AcDbLine
 10
175.3409999999999
 20
84.20502588900086
 30
0.0
 11
175.3409999999999
 21
82.10502588900087
 31
0.0
  0
LINE
  5
2F6F
330
1E
100
AcDbEntity
  8
SA
100
AcDbLine
 10
175.3409999999999
 20
84.20502588900086
 30
0.0
 11
174.9909999999999
 21
83.85502588900086
 31
0.0
  0
LINE
  5
2F70
330
1E
100
AcDbEntity
  8
SA
100
AcDbLine
 10
174.9909999999999
 20
82.45502588900086
 30
0.0
 11
175.3409999999999
 21
82.10502588900087
 31
0.0
  0
LINE
  5
2F71
330
1E
100
AcDbEntity
  8
SA
100
AcDbLine
 10
178.4629999999999
 20
84.20502588900086
 30
0.0
 11
175.3409999999999
 21
84.20502588900086
 31
0.0
  0
LINE
  5
2F72
330
1E
100
AcDbEntity
  8
HA
100
AcDbLine
 10
178.4629999999999
 20
83.85502588900086
 30
0.0
 11
174.9909999999999
 21
83.85502588900086
 31
0.0
  0
LINE
  5
2F73
330
1E
100
AcDbEntity
  8
HA
100
AcDbLine
 10
179.163
 20
82.45502588900084
 30
0.0
 11
181.9629999999999
 21
82.45502588900084
 31
0.0
  0
LINE
  5
2F74
330
1E
100
AcDbEntity
  8
SA
100
AcDbLine
 10
179.163
 20
82.10502588900082
 30
0.0
 11
181.9629999999999
 21
82.10502588900082
 31
0.0
  0
SPLINE
  5
2FBD
330
1E
100
AcDbEntity
  8
SA
100
AcDbSpline
210
0.0
220
0.0
230
1.0
 70
  1064
 71
     3
 72
    10
 73
     6
 74
     4
 42
0.000000001
 43
0.0000000001
 44
0.0000000001
 40
0.0
 40
0.0
 40
0.0
 40
0.0
 40
6.324555320336759
 40
14.57076657157208
 40
20.89532189190884
 40
20.89532189190884
 40
20.89532189190884
 40
20.89532189190884
 10
291.1300006717858
 20
121.8422610890935
 30
0.0
 10
290.1067863249295
 20
119.8559542351516
 30
0.0
 10
287.7494636918605
 20
115.279820097272
 30
0.0
 10
292.510537651711
 20
108.4047020809149
 30
0.0
 10
290.153215018642
 20
103.8285679430354
 30
0.0
 10
289.1300006717857
 20
101.8422610890935
 30
0.0
 11
291.1300006717858
 21
121.8422610890935
 31
0.0
 11
289.1300006717857
 21
115.8422610890935
 31
0.0
 11
291.1300006717858
 21
107.8422610890935
 31
0.0
 11
289.1300006717857
 21
101.8422610890935
 31
0.0
  0
SPLINE
  5
2FBE
330
1E
100
AcDbEntity
  8
SA
100
AcDbSpline
210
0.0
220
0.0
230
1.0
 70
  1064
 71
     3
 72
    10
 73
     6
 74
     4
 42
0.000000001
 43
0.0000000001
 44
0.0000000001
 40
0.0
 40
0.0
 40
0.0
 40
0.0
 40
6.324555320336759
 40
14.57076657157208
 40
20.89532189190884
 40
20.89532189190884
 40
20.89532189190884
 40
20.89532189190884
 10
289.1300006717857
 20
121.8422610890935
 30
0.0
 10
288.1067863249294
 20
119.8559542351516
 30
0.0
 10
285.7494636918604
 20
115.279820097272
 30
0.0
 10
290.510537651711
 20
108.4047020809149
 30
0.0
 10
288.153215018642
 20
103.8285679430354
 30
0.0
 10
287.1300006717858
 20
101.8422610890935
 30
0.0
 11
289.1300006717857
 21
121.8422610890935
 31
0.0
 11
287.1300006717858
 21
115.8422610890935
 31
0.0
 11
289.1300006717857
 21
107.8422610890935
 31
0.0
 11
287.1300006717858
 21
101.8422610890935
 31
0.0
  0
LINE
  5
2FC0
330
1E
100
AcDbEntity
  8
SA
100
AcDbLine
 10
182.563
 20
113.6342629445004
 30
0.0
 11
287.5210593715642
 21
113.6342629445004
 31
0.0
  0
LINE
  5
2FC1
330
1E
100
AcDbEntity
  8
SA
100
AcDbLine
 10
342.1647002298006
 20
113.1342629445005
 30
0.0
 11
358.7357002298006
 21
113.1342629445005
 31
0.0
  0
LINE
  5
2FC2
330
1E
100
AcDbEntity
  8
SA
100
AcDbLine
 10
342.1647002298006
 20
110.5342629445004
 30
0.0
 11
358.7357002298006
 21
110.5342629445004
 31
0.0
  0
LINE
  5
2FC3
330
1E
100
AcDbEntity
  8
SA
100
AcDbLine
 10
358.7357002298006
 20
110.5342629445004
 30
0.0
 11
358.7357002298006
 21
111.5342629445004
 31
0.0
  0
LINE
  5
2FC4
330
1E
100
AcDbEntity
  8
SA
100
AcDbLine
 10
358.7357002298006
 20
111.5342629445004
 30
0.0
 11
342.1647002298006
 21
111.5342629445004
 31
0.0
  0
LINE
  5
2FC5
330
1E
100
AcDbEntity
  8
SA
100
AcDbLine
 10
358.7357002298006
 20
111.5342629445004
 30
0.0
 11
358.7357002298006
 21
111.7342629445004
 31
0.0
  0
LINE
  5
2FC6
330
1E
100
AcDbEntity
  8
SA
100
AcDbLine
 10
358.7357002298006
 20
111.7342629445004
 30
0.0
 11
360.7357002298006
 21
111.7342629445004
 31
0.0
  0
LINE
  5
2FC7
330
1E
100
AcDbEntity
  8
SA
100
AcDbLine
 10
358.7357002298006
 20
110.5342629445004
 30
0.0
 11
358.7357002298006
 21
110.3342629445004
 31
0.0
  0
LINE
  5
2FC8
330
1E
100
AcDbEntity
  8
SA
100
AcDbLine
 10
358.7357002298006
 20
110.3342629445004
 30
0.0
 11
360.7357002298006
 21
110.3342629445004
 31
0.0
  0
LINE
  5
2FC9
330
1E
100
AcDbEntity
  8
SA
100
AcDbLine
 10
361.2357002298006
 20
112.0342629445004
 30
0.0
 11
363.2357002298006
 21
112.0342629445004
 31
0.0
  0
ARC
  5
2FCA
330
1E
100
AcDbEntity
  8
SA
100
AcDbCircle
 10
361.5996810765748
 20
110.86096153321
 30
0.0
 40
1.228461744847815
100
AcDbArc
 50
107.2349034627553
 51
134.69260960139
  0
LINE
  5
2FCB
330
1E
100
AcDbEntity
  8
SA
100
AcDbLine
 10
361.5697002298006
 20
111.5342629445004
 30
0.0
 11
363.2357002298006
 21
111.5342629445004
 31
0.0
  0
ARC
  5
2FCC
330
1E
100
AcDbEntity
  8
SA
100
AcDbCircle
 10
363.2357002298006
 20
111.7842629445004
 30
0.0
 40
0.25
100
AcDbArc
 50
270.0
 51
90.0
  0
ARC
  5
2FCD
330
1E
100
AcDbEntity
  8
SA
100
AcDbCircle
 10
363.2357002298006
 20
110.2842629445004
 30
0.0
 40
0.25
100
AcDbArc
 50
270.0
 51
90.0
  0
LINE
  5
2FCE
330
1E
100
AcDbEntity
  8
SA
100
AcDbLine
 10
361.5697002298006
 20
110.5342629445004
 30
0.0
 11
363.2357002298006
 21
110.5342629445004
 31
0.0
  0
ARC
  5
2FCF
330
1E
100
AcDbEntity
  8
SA
100
AcDbCircle
 10
361.5996810765748
 20
111.2075643557909
 30
0.0
 40
1.228461744847815
100
AcDbArc
 50
225.3073903986098
 51
252.7650965372446
  0
LINE
  5
2FD0
330
1E
100
AcDbEntity
  8
SA
100
AcDbLine
 10
361.2357002298006
 20
110.0342629445004
 30
0.0
 11
363.2357002298006
 21
110.0342629445004
 31
0.0
  0
ARC
  5
2FD1
330
1E
100
AcDbEntity
  8
SA
100
AcDbCircle
 10
361.5697002298006
 20
111.0342629445004
 30
0.0
 40
0.5
100
AcDbArc
 50
90.0
 51
270.0
  0
ARC
  5
2FD2
330
1E
100
AcDbEntity
  8
SA
100
AcDbCircle
 10
361.5697002298006
 20
112.6342629445005
 30
0.0
 40
0.5
100
AcDbArc
 50
90.0
 51
270.0
  0
LINE
  5
2FD3
330
1E
100
AcDbEntity
  8
SA
100
AcDbLine
 10
361.2357002298006
 20
113.6342629445005
 30
0.0
 11
363.2357002298006
 21
113.6342629445005
 31
0.0
  0
ARC
  5
2FD4
330
1E
100
AcDbEntity
  8
SA
100
AcDbCircle
 10
361.5996810765748
 20
112.4609615332101
 30
0.0
 40
1.228461744847815
100
AcDbArc
 50
107.2349034627553
 51
134.69260960139
  0
LINE
  5
2FD5
330
1E
100
AcDbEntity
  8
SA
100
AcDbLine
 10
361.5697002298006
 20
113.1342629445005
 30
0.0
 11
363.2357002298006
 21
113.1342629445005
 31
0.0
  0
ARC
  5
2FD6
330
1E
100
AcDbEntity
  8
SA
100
AcDbCircle
 10
363.2357002298006
 20
113.3842629445005
 30
0.0
 40
0.25
100
AcDbArc
 50
270.0
 51
90.0
  0
ARC
  5
2FD7
330
1E
100
AcDbEntity
  8
SA
100
AcDbCircle
 10
363.2357002298006
 20
111.8842629445005
 30
0.0
 40
0.25
100
AcDbArc
 50
348.4630409724172
 51
90.0
  0
LINE
  5
2FD8
330
1E
100
AcDbEntity
  8
SA
100
AcDbLine
 10
361.5697002298006
 20
112.1342629445005
 30
0.0
 11
363.2357002298006
 21
112.1342629445005
 31
0.0
  0
ARC
  5
2FD9
330
1E
100
AcDbEntity
  8
SA
100
AcDbCircle
 10
361.5996810765748
 20
112.8075643557909
 30
0.0
 40
1.228461744847815
100
AcDbArc
 50
225.3073903986098
 51
232.4002976318949
  0
LINE
  5
2FDA
330
1E
100
AcDbEntity
  8
SA
100
AcDbLine
 10
358.7357002298006
 20
113.3342629445005
 30
0.0
 11
360.7357002298006
 21
113.3342629445005
 31
0.0
  0
LINE
  5
2FDB
330
1E
100
AcDbEntity
  8
SA
100
AcDbLine
 10
358.7357002298006
 20
113.1342629445005
 30
0.0
 11
358.7357002298006
 21
113.3342629445005
 31
0.0
  0
LINE
  5
2FDC
330
1E
100
AcDbEntity
  8
SA
100
AcDbLine
 10
358.7357002298006
 20
111.9342629445005
 30
0.0
 11
360.7357002298006
 21
111.9342629445005
 31
0.0
  0
LINE
  5
2FDD
330
1E
100
AcDbEntity
  8
SA
100
AcDbLine
 10
358.7357002298006
 20
112.1342629445005
 30
0.0
 11
358.7357002298006
 21
111.9342629445005
 31
0.0
  0
LINE
  5
2FDE
330
1E
100
AcDbEntity
  8
SA
100
AcDbLine
 10
358.7357002298006
 20
112.1342629445005
 30
0.0
 11
342.1647002298006
 21
112.1342629445005
 31
0.0
  0
LINE
  5
2FDF
330
1E
100
AcDbEntity
  8
SA
100
AcDbLine
 10
358.7357002298006
 20
113.1342629445005
 30
0.0
 11
358.7357002298006
 21
112.1342629445005
 31
0.0
  0
LINE
  5
2FE0
330
1E
100
AcDbEntity
  8
SA
100
AcDbLine
 10
342.1647002298006
 20
113.1342629445005
 30
0.0
 11
358.7357002298006
 21
113.1342629445005
 31
0.0
  0
LINE
  5
2FE1
330
1E
100
AcDbEntity
  8
SA
100
AcDbLine
 10
332.0857002298005
 20
113.8342629445004
 30
0.0
 11
332.0857002298006
 21
111.8342629445004
 31
0.0
  0
LINE
  5
2FE2
330
1E
100
AcDbEntity
  8
SA
100
AcDbLine
 10
332.0857002298005
 20
113.6342629445004
 30
0.0
 11
332.0857002298005
 21
113.8342629445004
 31
0.0
  0
LINE
  5
2FE3
330
1E
100
AcDbEntity
  8
SA
100
AcDbLine
 10
332.0857002298005
 20
113.8342629445004
 30
0.0
 11
338.7437002298006
 21
113.8342629445004
 31
0.0
  0
LINE
  5
2FE4
330
1E
100
AcDbEntity
  8
SA
100
AcDbLine
 10
339.8227002298006
 20
113.3342629445005
 30
0.0
 11
342.1647002298006
 21
113.3342629445005
 31
0.0
  0
LINE
  5
2FE5
330
1E
100
AcDbEntity
  8
SA
100
AcDbLine
 10
342.1647002298006
 20
113.3342629445005
 30
0.0
 11
342.1647002298006
 21
112.1342629445005
 31
0.0
  0
LINE
  5
2FE6
330
1E
100
AcDbEntity
  8
SA
100
AcDbLine
 10
338.7437002298006
 20
113.8342629445004
 30
0.0
 11
339.8227002298006
 21
113.3342629445005
 31
0.0
  0
LINE
  5
2FE7
330
1E
100
AcDbEntity
  8
SA
100
AcDbLine
 10
338.7437002298006
 20
109.8342629445005
 30
0.0
 11
339.8227002298006
 21
110.3342629445004
 31
0.0
  0
LINE
  5
2FE8
330
1E
100
AcDbEntity
  8
SA
100
AcDbLine
 10
342.1647002298006
 20
110.3342629445004
 30
0.0
 11
342.1647002298006
 21
112.1342629445005
 31
0.0
  0
LINE
  5
2FE9
330
1E
100
AcDbEntity
  8
SA
100
AcDbLine
 10
339.8227002298006
 20
110.3342629445004
 30
0.0
 11
342.1647002298006
 21
110.3342629445004
 31
0.0
  0
LINE
  5
2FEA
330
1E
100
AcDbEntity
  8
SA
100
AcDbLine
 10
332.0857002298005
 20
109.8342629445005
 30
0.0
 11
338.7437002298006
 21
109.8342629445005
 31
0.0
  0
LINE
  5
2FEB
330
1E
100
AcDbEntity
  8
SA
100
AcDbLine
 10
332.0857002298005
 20
110.0342629445005
 30
0.0
 11
332.0857002298005
 21
109.8342629445005
 31
0.0
  0
LINE
  5
2FEC
330
1E
100
AcDbEntity
  8
SA
100
AcDbLine
 10
332.0857002298005
 20
109.8342629445005
 30
0.0
 11
332.0857002298006
 21
111.8342629445004
 31
0.0
  0
LINE
  5
2FEE
330
1E
100
AcDbEntity
  8
SA
100
AcDbLine
 10
289.5210593715642
 20
113.6342629445004
 30
0.0
 11
332.0857002298006
 21
113.6342629445004
 31
0.0
  0
LINE
  5
2FEF
330
1E
100
AcDbEntity
  8
SA
100
AcDbLine
 10
290.7436540936562
 20
110.0342629445004
 30
0.0
 11
332.0857002298006
 21
110.0342629445004
 31
0.0
  0
LINE
  5
2FF1
330
1E
100
AcDbEntity
  8
SC
100
AcDbLine
 10
156.3054098953711
 20
79.45851304951375
 30
0.0
 11
168.8627264711895
 21
89.09783213693888
 31
0.0
  0
LINE
  5
2FF2
330
1E
100
AcDbEntity
  8
SC
100
AcDbLine
 10
192.2632735288105
 20
107.0606937520619
 30
0.0
 11
194.2463707370834
 21
108.5829701601232
 31
0.0
  0
MTEXT
  5
2FF3
330
1E
100
AcDbEntity
  8
SC
100
AcDbMText
 10
160.0222515898192
 20
85.36253568012226
 30
0.0
 40
4.0
 41
0.0
 71
     5
 72
     1
  1
\A1;A %%C
  7
0
 11
0.7932388833091885
 21
0.6089105632245114
 31
0.0
 73
     1
 44
1.0
1001
ACAD
1000
MTEXTBEGIN
1070
    73
1070
     1
1070
    44
1040
1.0
1070
    74
1070
     0
1000
MTEXTEND
  0
LINE
  5
2FF4
330
1E
100
AcDbEntity
  8
SC
100
AcDbLine
 10
190.2801763205375
 20
105.5384173440007
 30
0.0
 11
170.8458236794624
 21
90.62010854500014
 31
0.0
  0
SOLID
  5
2FF5
330
1E
100
AcDbEntity
  8
SC
100
AcDbTrace
 10
192.0095607941336
 20
107.3912099534408
 30
0.0
 11
192.5169862634873
 21
106.7301775506831
 31
0.0
 12
190.2801763205375
 22
105.5384173440007
 32
0.0
 13
190.2801763205375
 23
105.5384173440007
 33
0.0
  0
SOLID
  5
2FF6
330
1E
100
AcDbEntity
  8
SC
100
AcDbTrace
 10
168.6090137365126
 20
89.42834833831771
 30
0.0
 11
169.1164392058663
 21
88.76731593556005
 31
0.0
 12
170.8458236794624
 22
90.62010854500014
 32
0.0
 13
170.8458236794624
 23
90.62010854500014
 33
0.0
  0
LEADER
  5
2FF7
330
1E
100
AcDbEntity
  8
SC
100
AcDbLeader
  3
nisimura
 76
     3
 10
180.634508044058
 20
111.0290655144099
 30
0.0
 10
175.012754022029
 20
117.1776642294551
 30
0.0
 10
160.5689836875366
 20
117.1814298165435
 30
0.0
1001
ACAD
1000
DSTYLE
1002
{
1070
   147
1040
0.625
1070
    77
1070
     0
1002
}
  0
LEADER
  5
2FF9
330
1E
100
AcDbEntity
  8
SC
100
AcDbLeader
  3
nisimura
 76
     3
 10
246.348
 20
109.7392629445004
 30
0.0
 10
256.9059999999999
 20
85.71126294450042
 30
0.0
 10
275.1
 20
85.71126294450042
 30
0.0
1001
ACAD
1000
DSTYLE
1002
{
1070
   147
1040
0.625
1070
    77
1070
     0
1002
}
  0
LINE
  5
2FFA
330
1E
100
AcDbEntity
  8
SA
100
AcDbLine
 10
178.4629999999999
 20
81.00952588900085
 30
0.0
 11
178.4629999999999
 21
85.30066756003035
 31
0.0
  0
LEADER
  5
2FFC
330
1E
100
AcDbEntity
  8
SC
100
AcDbLeader
  3
nisimura
 76
     3
 10
94.86695581594529
 20
179.7244582963353
 30
0.0
 10
101.7031333626324
 20
162.401
 30
0.0
 10
132.262
 20
162.401
 30
0.0
211
0.9998220165524605
221
-0.0188662454391723
231
0.0
1001
ACAD
1000
DSTYLE
1002
{
1070
   147
1040
0.625
1070
    77
1070
     0
1002
}
  0
LINE
  5
304F
330
1E
100
AcDbEntity
  8
HA
100
AcDbLine
 10
184.9975950928083
 20
110.2463031089299
 30
0.0
 11
188.3855549283789
 21
113.6342629445005
 31
0.0
  0
LINE
  5
3050
330
1E
100
AcDbEntity
  8
HA
100
AcDbLine
 10
186.5533218813453
 20
110.0342629445004
 30
0.0
 11
190.1533218813453
 21
113.6342629445005
 31
0.0
  0
LINE
  5
3051
330
1E
100
AcDbEntity
  8
HA
100
AcDbLine
 10
188.3210888343116
 20
110.0342629445004
 30
0.0
 11
191.9210888343117
 21
113.6342629445005
 31
0.0
  0
LINE
  5
3052
330
1E
100
AcDbEntity
  8
HA
100
AcDbLine
 10
190.088855787278
 20
110.0342629445004
 30
0.0
 11
193.688855787278
 21
113.6342629445005
 31
0.0
  0
LINE
  5
3053
330
1E
100
AcDbEntity
  8
HA
100
AcDbLine
 10
191.8566227402444
 20
110.0342629445004
 30
0.0
 11
195.4566227402444
 21
113.6342629445005
 31
0.0
  0
LINE
  5
3054
330
1E
100
AcDbEntity
  8
HA
100
AcDbLine
 10
193.6243896932107
 20
110.0342629445004
 30
0.0
 11
197.2243896932108
 21
113.6342629445005
 31
0.0
  0
LINE
  5
3055
330
1E
100
AcDbEntity
  8
HA
100
AcDbLine
 10
195.3921566461771
 20
110.0342629445004
 30
0.0
 11
198.9921566461772
 21
113.6342629445005
 31
0.0
  0
LINE
  5
3056
330
1E
100
AcDbEntity
  8
HA
100
AcDbLine
 10
197.1599235991435
 20
110.0342629445004
 30
0.0
 11
200.7599235991436
 21
113.6342629445005
 31
0.0
  0
LINE
  5
3057
330
1E
100
AcDbEntity
  8
HA
100
AcDbLine
 10
198.9276905521099
 20
110.0342629445004
 30
0.0
 11
202.5276905521099
 21
113.6342629445005
 31
0.0
  0
LINE
  5
3058
330
1E
100
AcDbEntity
  8
HA
100
AcDbLine
 10
200.6954575050762
 20
110.0342629445004
 30
0.0
 11
204.2954575050763
 21
113.6342629445005
 31
0.0
  0
LINE
  5
3059
330
1E
100
AcDbEntity
  8
HA
100
AcDbLine
 10
202.4632244580426
 20
110.0342629445004
 30
0.0
 11
206.0632244580427
 21
113.6342629445005
 31
0.0
  0
LINE
  5
305A
330
1E
100
AcDbEntity
  8
HA
100
AcDbLine
 10
204.2309914110089
 20
110.0342629445004
 30
0.0
 11
207.830991411009
 21
113.6342629445005
 31
0.0
  0
LINE
  5
305B
330
1E
100
AcDbEntity
  8
HA
100
AcDbLine
 10
205.9987583639753
 20
110.0342629445004
 30
0.0
 11
209.5987583639754
 21
113.6342629445005
 31
0.0
  0
LINE
  5
305C
330
1E
100
AcDbEntity
  8
HA
100
AcDbLine
 10
207.7665253169417
 20
110.0342629445004
 30
0.0
 11
211.3665253169418
 21
113.6342629445005
 31
0.0
  0
LINE
  5
305D
330
1E
100
AcDbEntity
  8
HA
100
AcDbLine
 10
209.5342922699081
 20
110.0342629445004
 30
0.0
 11
213.1342922699082
 21
113.6342629445005
 31
0.0
  0
LINE
  5
305E
330
1E
100
AcDbEntity
  8
HA
100
AcDbLine
 10
211.3020592228744
 20
110.0342629445004
 30
0.0
 11
214.9020592228745
 21
113.6342629445005
 31
0.0
  0
LINE
  5
305F
330
1E
100
AcDbEntity
  8
HA
100
AcDbLine
 10
213.0698261758408
 20
110.0342629445004
 30
0.0
 11
216.6698261758409
 21
113.6342629445005
 31
0.0
  0
LINE
  5
3060
330
1E
100
AcDbEntity
  8
HA
100
AcDbLine
 10
214.8375931288072
 20
110.0342629445004
 30
0.0
 11
218.4375931288073
 21
113.6342629445005
 31
0.0
  0
LINE
  5
3061
330
1E
100
AcDbEntity
  8
HA
100
AcDbLine
 10
216.6053600817735
 20
110.0342629445004
 30
0.0
 11
220.2053600817736
 21
113.6342629445005
 31
0.0
  0
LINE
  5
3062
330
1E
100
AcDbEntity
  8
HA
100
AcDbLine
 10
218.3731270347399
 20
110.0342629445004
 30
0.0
 11
221.97312703474
 21
113.6342629445005
 31
0.0
  0
LINE
  5
3063
330
1E
100
AcDbEntity
  8
HA
100
AcDbLine
 10
220.1408939877063
 20
110.0342629445004
 30
0.0
 11
223.7408939877064
 21
113.6342629445005
 31
0.0
  0
LINE
  5
3064
330
1E
100
AcDbEntity
  8
HA
100
AcDbLine
 10
221.9086609406726
 20
110.0342629445004
 30
0.0
 11
225.5086609406727
 21
113.6342629445005
 31
0.0
  0
LINE
  5
3065
330
1E
100
AcDbEntity
  8
HA
100
AcDbLine
 10
223.676427893639
 20
110.0342629445004
 30
0.0
 11
227.2764278936391
 21
113.6342629445005
 31
0.0
  0
LINE
  5
3066
330
1E
100
AcDbEntity
  8
HA
100
AcDbLine
 10
225.4441948466054
 20
110.0342629445004
 30
0.0
 11
229.0441948466054
 21
113.6342629445005
 31
0.0
  0
LINE
  5
3067
330
1E
100
AcDbEntity
  8
HA
100
AcDbLine
 10
227.2119617995718
 20
110.0342629445004
 30
0.0
 11
230.8119617995718
 21
113.6342629445005
 31
0.0
  0
LINE
  5
3068
330
1E
100
AcDbEntity
  8
HA
100
AcDbLine
 10
228.9797287525381
 20
110.0342629445004
 30
0.0
 11
232.5797287525382
 21
113.6342629445005
 31
0.0
  0
LINE
  5
3069
330
1E
100
AcDbEntity
  8
HA
100
AcDbLine
 10
230.7474957055045
 20
110.0342629445004
 30
0.0
 11
234.3474957055045
 21
113.6342629445004
 31
0.0
  0
LINE
  5
306A
330
1E
100
AcDbEntity
  8
HA
100
AcDbLine
 10
232.5152626584708
 20
110.0342629445004
 30
0.0
 11
236.1152626584709
 21
113.6342629445004
 31
0.0
  0
LINE
  5
306B
330
1E
100
AcDbEntity
  8
HA
100
AcDbLine
 10
234.2830296114372
 20
110.0342629445004
 30
0.0
 11
237.8830296114372
 21
113.6342629445004
 31
0.0
  0
LINE
  5
306C
330
1E
100
AcDbEntity
  8
HA
100
AcDbLine
 10
236.0507965644036
 20
110.0342629445004
 30
0.0
 11
239.6507965644036
 21
113.6342629445004
 31
0.0
  0
LINE
  5
306D
330
1E
100
AcDbEntity
  8
HA
100
AcDbLine
 10
237.81856351737
 20
110.0342629445004
 30
0.0
 11
241.41856351737
 21
113.6342629445004
 31
0.0
  0
LINE
  5
306E
330
1E
100
AcDbEntity
  8
HA
100
AcDbLine
 10
239.5863304703363
 20
110.0342629445004
 30
0.0
 11
243.1863304703364
 21
113.6342629445004
 31
0.0
  0
LINE
  5
306F
330
1E
100
AcDbEntity
  8
HA
100
AcDbLine
 10
241.3540974233027
 20
110.0342629445004
 30
0.0
 11
244.9540974233027
 21
113.6342629445004
 31
0.0
  0
LINE
  5
3070
330
1E
100
AcDbEntity
  8
HA
100
AcDbLine
 10
243.1218643762691
 20
110.0342629445004
 30
0.0
 11
246.7218643762691
 21
113.6342629445004
 31
0.0
  0
LINE
  5
3071
330
1E
100
AcDbEntity
  8
HA
100
AcDbLine
 10
244.8896313292355
 20
110.0342629445004
 30
0.0
 11
248.4896313292355
 21
113.6342629445004
 31
0.0
  0
LINE
  5
3072
330
1E
100
AcDbEntity
  8
HA
100
AcDbLine
 10
246.6573982822018
 20
110.0342629445004
 30
0.0
 11
250.2573982822018
 21
113.6342629445004
 31
0.0
  0
LINE
  5
3073
330
1E
100
AcDbEntity
  8
HA
100
AcDbLine
 10
248.4251652351681
 20
110.0342629445004
 30
0.0
 11
252.0251652351682
 21
113.6342629445004
 31
0.0
  0
LINE
  5
3074
330
1E
100
AcDbEntity
  8
HA
100
AcDbLine
 10
250.1929321881345
 20
110.0342629445004
 30
0.0
 11
253.7929321881346
 21
113.6342629445004
 31
0.0
  0
LINE
  5
3075
330
1E
100
AcDbEntity
  8
HA
100
AcDbLine
 10
251.9606991411009
 20
110.0342629445004
 30
0.0
 11
255.5606991411009
 21
113.6342629445004
 31
0.0
  0
LINE
  5
3076
330
1E
100
AcDbEntity
  8
HA
100
AcDbLine
 10
253.7284660940673
 20
110.0342629445004
 30
0.0
 11
257.3284660940673
 21
113.6342629445004
 31
0.0
  0
LINE
  5
3077
330
1E
100
AcDbEntity
  8
HA
100
AcDbLine
 10
255.4962330470336
 20
110.0342629445004
 30
0.0
 11
259.0962330470337
 21
113.6342629445004
 31
0.0
  0
LINE
  5
3078
330
1E
100
AcDbEntity
  8
HA
100
AcDbLine
 10
257.264
 20
110.0342629445004
 30
0.0
 11
260.864
 21
113.6342629445004
 31
0.0
  0
LINE
  5
3079
330
1E
100
AcDbEntity
  8
HA
100
AcDbLine
 10
259.0317669529663
 20
110.0342629445004
 30
0.0
 11
262.6317669529663
 21
113.6342629445004
 31
0.0
  0
LINE
  5
307A
330
1E
100
AcDbEntity
  8
HA
100
AcDbLine
 10
260.7995339059328
 20
110.0342629445004
 30
0.0
 11
264.3995339059328
 21
113.6342629445004
 31
0.0
  0
LINE
  5
307B
330
1E
100
AcDbEntity
  8
HA
100
AcDbLine
 10
262.5673008588991
 20
110.0342629445004
 30
0.0
 11
266.1673008588991
 21
113.6342629445004
 31
0.0
  0
LINE
  5
307C
330
1E
100
AcDbEntity
  8
HA
100
AcDbLine
 10
264.3350678118655
 20
110.0342629445004
 30
0.0
 11
267.9350678118655
 21
113.6342629445004
 31
0.0
  0
LINE
  5
307D
330
1E
100
AcDbEntity
  8
HA
100
AcDbLine
 10
266.1028347648318
 20
110.0342629445004
 30
0.0
 11
269.7028347648319
 21
113.6342629445004
 31
0.0
  0
LINE
  5
307E
330
1E
100
AcDbEntity
  8
HA
100
AcDbLine
 10
267.8706017177982
 20
110.0342629445004
 30
0.0
 11
271.4706017177983
 21
113.6342629445004
 31
0.0
  0
LINE
  5
307F
330
1E
100
AcDbEntity
  8
HA
100
AcDbLine
 10
269.6383686707646
 20
110.0342629445004
 30
0.0
 11
273.2383686707646
 21
113.6342629445004
 31
0.0
  0
LINE
  5
3080
330
1E
100
AcDbEntity
  8
HA
100
AcDbLine
 10
271.4061356237309
 20
110.0342629445004
 30
0.0
 11
275.006135623731
 21
113.6342629445004
 31
0.0
  0
LINE
  5
3081
330
1E
100
AcDbEntity
  8
HA
100
AcDbLine
 10
273.1739025766974
 20
110.0342629445004
 30
0.0
 11
276.7739025766973
 21
113.6342629445004
 31
0.0
  0
LINE
  5
3082
330
1E
100
AcDbEntity
  8
HA
100
AcDbLine
 10
274.9416695296637
 20
110.0342629445004
 30
0.0
 11
278.5416695296638
 21
113.6342629445004
 31
0.0
  0
LINE
  5
3083
330
1E
100
AcDbEntity
  8
HA
100
AcDbLine
 10
276.70943648263
 20
110.0342629445004
 30
0.0
 11
280.3094364826301
 21
113.6342629445004
 31
0.0
  0
LINE
  5
3084
330
1E
100
AcDbEntity
  8
HA
100
AcDbLine
 10
278.4772034355964
 20
110.0342629445004
 30
0.0
 11
282.0772034355964
 21
113.6342629445004
 31
0.0
  0
LINE
  5
3085
330
1E
100
AcDbEntity
  8
HA
100
AcDbLine
 10
280.2449703885628
 20
110.0342629445004
 30
0.0
 11
283.8449703885629
 21
113.6342629445004
 31
0.0
  0
LINE
  5
3086
330
1E
100
AcDbEntity
  8
HA
100
AcDbLine
 10
282.0127373415291
 20
110.0342629445004
 30
0.0
 11
285.6127373415292
 21
113.6342629445004
 31
0.0
  0
LINE
  5
3087
330
1E
100
AcDbEntity
  8
HA
100
AcDbLine
 10
283.7805042944956
 20
110.0342629445004
 30
0.0
 11
287.3805042944956
 21
113.6342629445004
 31
0.0
  0
LINE
  5
3088
330
1E
100
AcDbEntity
  8
HA
100
AcDbLine
 10
285.5482712474619
 20
110.0342629445004
 30
0.0
 11
287.9252603878169
 21
112.4112520848554
 31
0.0
  0
LINE
  5
3089
330
1E
100
AcDbEntity
  8
HA
100
AcDbLine
 10
287.3160382004283
 20
110.0342629445004
 30
0.0
 11
288.3922482303848
 21
111.1104729744569
 31
0.0
  0
LINE
  5
308A
330
1E
100
AcDbEntity
  8
HA
100
AcDbLine
 10
289.8646551367982
 20
112.5828798808704
 30
0.0
 11
290.9160382004283
 21
113.6342629445004
 31
0.0
  0
LINE
  5
308B
330
1E
100
AcDbEntity
  8
HA
100
AcDbLine
 10
290.3316127809676
 20
111.2820705720733
 30
0.0
 11
292.6838051533946
 21
113.6342629445004
 31
0.0
  0
LINE
  5
308C
330
1E
100
AcDbEntity
  8
HA
100
AcDbLine
 10
290.851572106361
 20
110.0342629445004
 30
0.0
 11
294.451572106361
 21
113.6342629445004
 31
0.0
  0
LINE
  5
308D
330
1E
100
AcDbEntity
  8
HA
100
AcDbLine
 10
292.6193390593273
 20
110.0342629445004
 30
0.0
 11
296.2193390593274
 21
113.6342629445004
 31
0.0
  0
LINE
  5
308E
330
1E
100
AcDbEntity
  8
HA
100
AcDbLine
 10
294.3871060122938
 20
110.0342629445004
 30
0.0
 11
297.9871060122938
 21
113.6342629445004
 31
0.0
  0
LINE
  5
308F
330
1E
100
AcDbEntity
  8
HA
100
AcDbLine
 10
296.1548729652601
 20
110.0342629445004
 30
0.0
 11
299.7548729652601
 21
113.6342629445004
 31
0.0
  0
LINE
  5
3090
330
1E
100
AcDbEntity
  8
HA
100
AcDbLine
 10
297.9226399182265
 20
110.0342629445004
 30
0.0
 11
301.5226399182265
 21
113.6342629445004
 31
0.0
  0
LINE
  5
3091
330
1E
100
AcDbEntity
  8
HA
100
AcDbLine
 10
299.6904068711929
 20
110.0342629445004
 30
0.0
 11
303.2904068711929
 21
113.6342629445004
 31
0.0
  0
LINE
  5
3092
330
1E
100
AcDbEntity
  8
HA
100
AcDbLine
 10
301.4581738241592
 20
110.0342629445004
 30
0.0
 11
305.0581738241592
 21
113.6342629445004
 31
0.0
  0
LINE
  5
3093
330
1E
100
AcDbEntity
  8
HA
100
AcDbLine
 10
303.2259407771257
 20
110.0342629445004
 30
0.0
 11
306.8259407771256
 21
113.6342629445004
 31
0.0
  0
LINE
  5
3094
330
1E
100
AcDbEntity
  8
HA
100
AcDbLine
 10
304.993707730092
 20
110.0342629445004
 30
0.0
 11
308.593707730092
 21
113.6342629445004
 31
0.0
  0
LINE
  5
3095
330
1E
100
AcDbEntity
  8
HA
100
AcDbLine
 10
306.7614746830583
 20
110.0342629445004
 30
0.0
 11
310.3614746830583
 21
113.6342629445004
 31
0.0
  0
LINE
  5
3096
330
1E
100
AcDbEntity
  8
HA
100
AcDbLine
 10
308.5292416360247
 20
110.0342629445004
 30
0.0
 11
312.1292416360248
 21
113.6342629445004
 31
0.0
  0
LINE
  5
3097
330
1E
100
AcDbEntity
  8
HA
100
AcDbLine
 10
310.2970085889911
 20
110.0342629445004
 30
0.0
 11
313.8970085889911
 21
113.6342629445004
 31
0.0
  0
LINE
  5
3098
330
1E
100
AcDbEntity
  8
HA
100
AcDbLine
 10
312.0647755419574
 20
110.0342629445004
 30
0.0
 11
315.6647755419574
 21
113.6342629445004
 31
0.0
  0
LINE
  5
3099
330
1E
100
AcDbEntity
  8
HA
100
AcDbLine
 10
313.8325424949238
 20
110.0342629445004
 30
0.0
 11
317.4325424949238
 21
113.6342629445004
 31
0.0
  0
LINE
  5
309A
330
1E
100
AcDbEntity
  8
HA
100
AcDbLine
 10
315.6003094478901
 20
110.0342629445004
 30
0.0
 11
319.2003094478902
 21
113.6342629445004
 31
0.0
  0
LINE
  5
309B
330
1E
100
AcDbEntity
  8
HA
100
AcDbLine
 10
317.3680764008566
 20
110.0342629445004
 30
0.0
 11
320.9680764008565
 21
113.6342629445004
 31
0.0
  0
LINE
  5
309C
330
1E
100
AcDbEntity
  8
HA
100
AcDbLine
 10
319.1358433538229
 20
110.0342629445004
 30
0.0
 11
322.7358433538229
 21
113.6342629445004
 31
0.0
  0
LINE
  5
309D
330
1E
100
AcDbEntity
  8
HA
100
AcDbLine
 10
320.9036103067893
 20
110.0342629445004
 30
0.0
 11
324.5036103067893
 21
113.6342629445004
 31
0.0
  0
LINE
  5
309E
330
1E
100
AcDbEntity
  8
HA
100
AcDbLine
 10
322.6713772597557
 20
110.0342629445004
 30
0.0
 11
326.2713772597557
 21
113.6342629445004
 31
0.0
  0
LINE
  5
309F
330
1E
100
AcDbEntity
  8
HA
100
AcDbLine
 10
324.439144212722
 20
110.0342629445004
 30
0.0
 11
328.039144212722
 21
113.6342629445004
 31
0.0
  0
LINE
  5
30A0
330
1E
100
AcDbEntity
  8
HA
100
AcDbLine
 10
326.2069111656883
 20
110.0342629445004
 30
0.0
 11
329.8069111656884
 21
113.6342629445004
 31
0.0
  0
LINE
  5
30A1
330
1E
100
AcDbEntity
  8
HA
100
AcDbLine
 10
327.9746781186548
 20
110.0342629445004
 30
0.0
 11
331.5746781186548
 21
113.6342629445004
 31
0.0
  0
LINE
  5
30A2
330
1E
100
AcDbEntity
  8
HA
100
AcDbLine
 10
329.7424450716211
 20
110.0342629445004
 30
0.0
 11
332.0857002298006
 21
112.3775181026799
 31
0.0
  0
LINE
  5
30A3
330
1E
100
AcDbEntity
  8
HA
100
AcDbLine
 10
331.5102120245875
 20
110.0342629445004
 30
0.0
 11
332.0857002298005
 21
110.6097511497134
 31
0.0
  0
LINE
  5
30A6
330
1E
100
AcDbEntity
  8
HA
100
AcDbLine
 10
183.9543952663462
 20
110.5773003163202
 30
0.0
 11
181.0327187664156
 21
113.4989768162508
 31
0.0
  0
LINE
  5
30A7
330
1E
100
AcDbEntity
  8
HA
100
AcDbLine
 10
186.2651995911323
 20
110.0342629445004
 30
0.0
 11
182.6651995911323
 21
113.6342629445004
 31
0.0
  0
LINE
  5
30A8
330
1E
100
AcDbEntity
  8
HA
100
AcDbLine
 10
188.0329665440987
 20
110.0342629445004
 30
0.0
 11
184.4329665440987
 21
113.6342629445004
 31
0.0
  0
LINE
  5
30A9
330
1E
100
AcDbEntity
  8
HA
100
AcDbLine
 10
189.8007334970651
 20
110.0342629445004
 30
0.0
 11
186.2007334970651
 21
113.6342629445004
 31
0.0
  0
LINE
  5
30AA
330
1E
100
AcDbEntity
  8
HA
100
AcDbLine
 10
191.5685004500315
 20
110.0342629445004
 30
0.0
 11
187.9685004500314
 21
113.6342629445004
 31
0.0
  0
LINE
  5
30AB
330
1E
100
AcDbEntity
  8
HA
100
AcDbLine
 10
193.3362674029978
 20
110.0342629445004
 30
0.0
 11
189.7362674029978
 21
113.6342629445004
 31
0.0
  0
LINE
  5
30AC
330
1E
100
AcDbEntity
  8
HA
100
AcDbLine
 10
195.1040343559642
 20
110.0342629445004
 30
0.0
 11
191.5040343559642
 21
113.6342629445004
 31
0.0
  0
LINE
  5
30AD
330
1E
100
AcDbEntity
  8
HA
100
AcDbLine
 10
196.8718013089306
 20
110.0342629445004
 30
0.0
 11
193.2718013089305
 21
113.6342629445004
 31
0.0
  0
LINE
  5
30AE
330
1E
100
AcDbEntity
  8
HA
100
AcDbLine
 10
198.6395682618969
 20
110.0342629445004
 30
0.0
 11
195.0395682618969
 21
113.6342629445004
 31
0.0
  0
LINE
  5
30AF
330
1E
100
AcDbEntity
  8
HA
100
AcDbLine
 10
200.4073352148633
 20
110.0342629445004
 30
0.0
 11
196.8073352148633
 21
113.6342629445004
 31
0.0
  0
LINE
  5
30B0
330
1E
100
AcDbEntity
  8
HA
100
AcDbLine
 10
202.1751021678297
 20
110.0342629445004
 30
0.0
 11
198.5751021678296
 21
113.6342629445004
 31
0.0
  0
LINE
  5
30B1
330
1E
100
AcDbEntity
  8
HA
100
AcDbLine
 10
203.9428691207961
 20
110.0342629445004
 30
0.0
 11
200.342869120796
 21
113.6342629445005
 31
0.0
  0
LINE
  5
30B2
330
1E
100
AcDbEntity
  8
HA
100
AcDbLine
 10
205.7106360737624
 20
110.0342629445004
 30
0.0
 11
202.1106360737624
 21
113.6342629445004
 31
0.0
  0
LINE
  5
30B3
330
1E
100
AcDbEntity
  8
HA
100
AcDbLine
 10
207.4784030267287
 20
110.0342629445004
 30
0.0
 11
203.8784030267287
 21
113.6342629445005
 31
0.0
  0
LINE
  5
30B4
330
1E
100
AcDbEntity
  8
HA
100
AcDbLine
 10
209.2461699796952
 20
110.0342629445004
 30
0.0
 11
205.6461699796951
 21
113.6342629445005
 31
0.0
  0
LINE
  5
30B5
330
1E
100
AcDbEntity
  8
HA
100
AcDbLine
 10
211.0139369326615
 20
110.0342629445004
 30
0.0
 11
207.4139369326615
 21
113.6342629445004
 31
0.0
  0
LINE
  5
30B6
330
1E
100
AcDbEntity
  8
HA
100
AcDbLine
 10
212.7817038856279
 20
110.0342629445004
 30
0.0
 11
209.1817038856279
 21
113.6342629445004
 31
0.0
  0
LINE
  5
30B7
330
1E
100
AcDbEntity
  8
HA
100
AcDbLine
 10
214.5494708385943
 20
110.0342629445004
 30
0.0
 11
210.9494708385942
 21
113.6342629445004
 31
0.0
  0
LINE
  5
30B8
330
1E
100
AcDbEntity
  8
HA
100
AcDbLine
 10
216.3172377915606
 20
110.0342629445004
 30
0.0
 11
212.7172377915606
 21
113.6342629445005
 31
0.0
  0
LINE
  5
30B9
330
1E
100
AcDbEntity
  8
HA
100
AcDbLine
 10
218.085004744527
 20
110.0342629445004
 30
0.0
 11
214.485004744527
 21
113.6342629445004
 31
0.0
  0
LINE
  5
30BA
330
1E
100
AcDbEntity
  8
HA
100
AcDbLine
 10
219.8527716974933
 20
110.0342629445004
 30
0.0
 11
216.2527716974933
 21
113.6342629445005
 31
0.0
  0
LINE
  5
30BB
330
1E
100
AcDbEntity
  8
HA
100
AcDbLine
 10
221.6205386504597
 20
110.0342629445004
 30
0.0
 11
218.0205386504597
 21
113.6342629445005
 31
0.0
  0
LINE
  5
30BC
330
1E
100
AcDbEntity
  8
HA
100
AcDbLine
 10
223.3883056034261
 20
110.0342629445004
 30
0.0
 11
219.7883056034261
 21
113.6342629445005
 31
0.0
  0
LINE
  5
30BD
330
1E
100
AcDbEntity
  8
HA
100
AcDbLine
 10
225.1560725563924
 20
110.0342629445004
 30
0.0
 11
221.5560725563924
 21
113.6342629445004
 31
0.0
  0
LINE
  5
30BE
330
1E
100
AcDbEntity
  8
HA
100
AcDbLine
 10
226.9238395093588
 20
110.0342629445005
 30
0.0
 11
223.3238395093588
 21
113.6342629445005
 31
0.0
  0
LINE
  5
30BF
330
1E
100
AcDbEntity
  8
HA
100
AcDbLine
 10
228.6916064623252
 20
110.0342629445004
 30
0.0
 11
225.0916064623252
 21
113.6342629445005
 31
0.0
  0
LINE
  5
30C0
330
1E
100
AcDbEntity
  8
HA
100
AcDbLine
 10
230.4593734152915
 20
110.0342629445005
 30
0.0
 11
226.8593734152915
 21
113.6342629445005
 31
0.0
  0
LINE
  5
30C1
330
1E
100
AcDbEntity
  8
HA
100
AcDbLine
 10
232.2271403682579
 20
110.0342629445005
 30
0.0
 11
228.6271403682579
 21
113.6342629445005
 31
0.0
  0
LINE
  5
30C2
330
1E
100
AcDbEntity
  8
HA
100
AcDbLine
 10
233.9949073212243
 20
110.0342629445005
 30
0.0
 11
230.3949073212243
 21
113.6342629445005
 31
0.0
  0
LINE
  5
30C3
330
1E
100
AcDbEntity
  8
HA
100
AcDbLine
 10
235.7626742741906
 20
110.0342629445004
 30
0.0
 11
232.1626742741906
 21
113.6342629445005
 31
0.0
  0
LINE
  5
30C4
330
1E
100
AcDbEntity
  8
HA
100
AcDbLine
 10
237.530441227157
 20
110.0342629445004
 30
0.0
 11
233.930441227157
 21
113.6342629445005
 31
0.0
  0
LINE
  5
30C5
330
1E
100
AcDbEntity
  8
HA
100
AcDbLine
 10
239.2982081801234
 20
110.0342629445005
 30
0.0
 11
235.6982081801234
 21
113.6342629445005
 31
0.0
  0
LINE
  5
30C6
330
1E
100
AcDbEntity
  8
HA
100
AcDbLine
 10
241.0659751330898
 20
110.0342629445004
 30
0.0
 11
237.4659751330898
 21
113.6342629445005
 31
0.0
  0
LINE
  5
30C7
330
1E
100
AcDbEntity
  8
HA
100
AcDbLine
 10
242.8337420860561
 20
110.0342629445004
 30
0.0
 11
239.2337420860561
 21
113.6342629445005
 31
0.0
  0
LINE
  5
30C8
330
1E
100
AcDbEntity
  8
HA
100
AcDbLine
 10
244.6015090390225
 20
110.0342629445004
 30
0.0
 11
241.0015090390225
 21
113.6342629445004
 31
0.0
  0
LINE
  5
30C9
330
1E
100
AcDbEntity
  8
HA
100
AcDbLine
 10
246.3692759919889
 20
110.0342629445004
 30
0.0
 11
242.7692759919889
 21
113.6342629445004
 31
0.0
  0
LINE
  5
30CA
330
1E
100
AcDbEntity
  8
HA
100
AcDbLine
 10
248.1370429449552
 20
110.0342629445005
 30
0.0
 11
244.5370429449553
 21
113.6342629445004
 31
0.0
  0
LINE
  5
30CB
330
1E
100
AcDbEntity
  8
HA
100
AcDbLine
 10
249.9048098979216
 20
110.0342629445005
 30
0.0
 11
246.3048098979216
 21
113.6342629445005
 31
0.0
  0
LINE
  5
30CC
330
1E
100
AcDbEntity
  8
HA
100
AcDbLine
 10
251.672576850888
 20
110.0342629445004
 30
0.0
 11
248.072576850888
 21
113.6342629445004
 31
0.0
  0
LINE
  5
30CD
330
1E
100
AcDbEntity
  8
HA
100
AcDbLine
 10
253.4403438038543
 20
110.0342629445004
 30
0.0
 11
249.8403438038543
 21
113.6342629445004
 31
0.0
  0
LINE
  5
30CE
330
1E
100
AcDbEntity
  8
HA
100
AcDbLine
 10
255.2081107568208
 20
110.0342629445004
 30
0.0
 11
251.6081107568208
 21
113.6342629445004
 31
0.0
  0
LINE
  5
30CF
330
1E
100
AcDbEntity
  8
HA
100
AcDbLine
 10
256.9758777097872
 20
110.0342629445005
 30
0.0
 11
253.3758777097871
 21
113.6342629445004
 31
0.0
  0
LINE
  5
30D0
330
1E
100
AcDbEntity
  8
HA
100
AcDbLine
 10
258.7436446627535
 20
110.0342629445004
 30
0.0
 11
255.1436446627534
 21
113.6342629445004
 31
0.0
  0
LINE
  5
30D1
330
1E
100
AcDbEntity
  8
HA
100
AcDbLine
 10
260.5114116157198
 20
110.0342629445004
 30
0.0
 11
256.9114116157199
 21
113.6342629445004
 31
0.0
  0
LINE
  5
30D2
330
1E
100
AcDbEntity
  8
HA
100
AcDbLine
 10
262.2791785686862
 20
110.0342629445004
 30
0.0
 11
258.6791785686862
 21
113.6342629445004
 31
0.0
  0
LINE
  5
30D3
330
1E
100
AcDbEntity
  8
HA
100
AcDbLine
 10
264.0469455216526
 20
110.0342629445005
 30
0.0
 11
260.4469455216525
 21
113.6342629445004
 31
0.0
  0
LINE
  5
30D4
330
1E
100
AcDbEntity
  8
HA
100
AcDbLine
 10
265.8147124746189
 20
110.0342629445004
 30
0.0
 11
262.2147124746189
 21
113.6342629445004
 31
0.0
  0
LINE
  5
30D5
330
1E
100
AcDbEntity
  8
HA
100
AcDbLine
 10
267.5824794275853
 20
110.0342629445004
 30
0.0
 11
263.9824794275853
 21
113.6342629445004
 31
0.0
  0
LINE
  5
30D6
330
1E
100
AcDbEntity
  8
HA
100
AcDbLine
 10
269.3502463805517
 20
110.0342629445004
 30
0.0
 11
265.7502463805517
 21
113.6342629445004
 31
0.0
  0
LINE
  5
30D7
330
1E
100
AcDbEntity
  8
HA
100
AcDbLine
 10
271.1180133335181
 20
110.0342629445004
 30
0.0
 11
267.5180133335181
 21
113.6342629445004
 31
0.0
  0
LINE
  5
30D8
330
1E
100
AcDbEntity
  8
HA
100
AcDbLine
 10
272.8857802864844
 20
110.0342629445004
 30
0.0
 11
269.2857802864844
 21
113.6342629445004
 31
0.0
  0
LINE
  5
30D9
330
1E
100
AcDbEntity
  8
HA
100
AcDbLine
 10
274.6535472394508
 20
110.0342629445004
 30
0.0
 11
271.0535472394508
 21
113.6342629445004
 31
0.0
  0
LINE
  5
30DA
330
1E
100
AcDbEntity
  8
HA
100
AcDbLine
 10
276.4213141924172
 20
110.0342629445004
 30
0.0
 11
272.8213141924172
 21
113.6342629445004
 31
0.0
  0
LINE
  5
30DB
330
1E
100
AcDbEntity
  8
HA
100
AcDbLine
 10
278.1890811453835
 20
110.0342629445004
 30
0.0
 11
274.5890811453835
 21
113.6342629445005
 31
0.0
  0
LINE
  5
30DC
330
1E
100
AcDbEntity
  8
HA
100
AcDbLine
 10
279.9568480983499
 20
110.0342629445004
 30
0.0
 11
276.3568480983499
 21
113.6342629445004
 31
0.0
  0
LINE
  5
30DD
330
1E
100
AcDbEntity
  8
HA
100
AcDbLine
 10
281.7246150513163
 20
110.0342629445004
 30
0.0
 11
278.1246150513163
 21
113.6342629445004
 31
0.0
  0
LINE
  5
30DE
330
1E
100
AcDbEntity
  8
HA
100
AcDbLine
 10
283.4923820042827
 20
110.0342629445004
 30
0.0
 11
279.8923820042826
 21
113.6342629445004
 31
0.0
  0
LINE
  5
30DF
330
1E
100
AcDbEntity
  8
HA
100
AcDbLine
 10
285.260148957249
 20
110.0342629445004
 30
0.0
 11
281.660148957249
 21
113.6342629445004
 31
0.0
  0
LINE
  5
30E0
330
1E
100
AcDbEntity
  8
HA
100
AcDbLine
 10
287.0279159102154
 20
110.0342629445004
 30
0.0
 11
283.4279159102154
 21
113.6342629445004
 31
0.0
  0
LINE
  5
30E1
330
1E
100
AcDbEntity
  8
HA
100
AcDbLine
 10
288.7217020941779
 20
110.1082437135043
 30
0.0
 11
285.1956828631817
 21
113.6342629445004
 31
0.0
  0
LINE
  5
30E2
330
1E
100
AcDbEntity
  8
HA
100
AcDbLine
 10
287.7849289276036
 20
112.8127838330449
 30
0.0
 11
286.9634498161481
 21
113.6342629445004
 31
0.0
  0
LINE
  5
30E3
330
1E
100
AcDbEntity
  8
HA
100
AcDbLine
 10
292.3312167691145
 20
110.0342629445004
 30
0.0
 11
289.9093305844372
 21
112.4561491291778
 31
0.0
  0
LINE
  5
30E4
330
1E
100
AcDbEntity
  8
HA
100
AcDbLine
 10
294.0989837220809
 20
110.0342629445004
 30
0.0
 11
290.4989837220808
 21
113.6342629445005
 31
0.0
  0
LINE
  5
30E5
330
1E
100
AcDbEntity
  8
HA
100
AcDbLine
 10
295.8667506750472
 20
110.0342629445004
 30
0.0
 11
292.2667506750471
 21
113.6342629445004
 31
0.0
  0
LINE
  5
30E6
330
1E
100
AcDbEntity
  8
HA
100
AcDbLine
 10
297.6345176280136
 20
110.0342629445004
 30
0.0
 11
294.0345176280136
 21
113.6342629445005
 31
0.0
  0
LINE
  5
30E7
330
1E
100
AcDbEntity
  8
HA
100
AcDbLine
 10
299.40228458098
 20
110.0342629445004
 30
0.0
 11
295.8022845809799
 21
113.6342629445005
 31
0.0
  0
LINE
  5
30E8
330
1E
100
AcDbEntity
  8
HA
100
AcDbLine
 10
301.1700515339463
 20
110.0342629445004
 30
0.0
 11
297.5700515339463
 21
113.6342629445004
 31
0.0
  0
LINE
  5
30E9
330
1E
100
AcDbEntity
  8
HA
100
AcDbLine
 10
302.9378184869127
 20
110.0342629445004
 30
0.0
 11
299.3378184869127
 21
113.6342629445004
 31
0.0
  0
LINE
  5
30EA
330
1E
100
AcDbEntity
  8
HA
100
AcDbLine
 10
304.7055854398791
 20
110.0342629445004
 30
0.0
 11
301.1055854398791
 21
113.6342629445004
 31
0.0
  0
LINE
  5
30EB
330
1E
100
AcDbEntity
  8
HA
100
AcDbLine
 10
306.4733523928454
 20
110.0342629445004
 30
0.0
 11
302.8733523928454
 21
113.6342629445005
 31
0.0
  0
LINE
  5
30EC
330
1E
100
AcDbEntity
  8
HA
100
AcDbLine
 10
308.2411193458118
 20
110.0342629445004
 30
0.0
 11
304.6411193458118
 21
113.6342629445004
 31
0.0
  0
LINE
  5
30ED
330
1E
100
AcDbEntity
  8
HA
100
AcDbLine
 10
310.0088862987782
 20
110.0342629445004
 30
0.0
 11
306.4088862987782
 21
113.6342629445004
 31
0.0
  0
LINE
  5
30EE
330
1E
100
AcDbEntity
  8
HA
100
AcDbLine
 10
311.7766532517446
 20
110.0342629445004
 30
0.0
 11
308.1766532517445
 21
113.6342629445004
 31
0.0
  0
LINE
  5
30EF
330
1E
100
AcDbEntity
  8
HA
100
AcDbLine
 10
313.5444202047109
 20
110.0342629445004
 30
0.0
 11
309.9444202047109
 21
113.6342629445004
 31
0.0
  0
LINE
  5
30F0
330
1E
100
AcDbEntity
  8
HA
100
AcDbLine
 10
315.3121871576773
 20
110.0342629445004
 30
0.0
 11
311.7121871576773
 21
113.6342629445004
 31
0.0
  0
LINE
  5
30F1
330
1E
100
AcDbEntity
  8
HA
100
AcDbLine
 10
317.0799541106437
 20
110.0342629445004
 30
0.0
 11
313.4799541106436
 21
113.6342629445005
 31
0.0
  0
LINE
  5
30F2
330
1E
100
AcDbEntity
  8
HA
100
AcDbLine
 10
318.84772106361
 20
110.0342629445004
 30
0.0
 11
315.24772106361
 21
113.6342629445004
 31
0.0
  0
LINE
  5
30F3
330
1E
100
AcDbEntity
  8
HA
100
AcDbLine
 10
320.6154880165763
 20
110.0342629445005
 30
0.0
 11
317.0154880165763
 21
113.6342629445005
 31
0.0
  0
LINE
  5
30F4
330
1E
100
AcDbEntity
  8
HA
100
AcDbLine
 10
322.3832549695428
 20
110.0342629445004
 30
0.0
 11
318.7832549695428
 21
113.6342629445004
 31
0.0
  0
LINE
  5
30F5
330
1E
100
AcDbEntity
  8
HA
100
AcDbLine
 10
324.1510219225091
 20
110.0342629445004
 30
0.0
 11
320.5510219225091
 21
113.6342629445004
 31
0.0
  0
LINE
  5
30F6
330
1E
100
AcDbEntity
  8
HA
100
AcDbLine
 10
325.9187888754755
 20
110.0342629445004
 30
0.0
 11
322.3187888754755
 21
113.6342629445004
 31
0.0
  0
LINE
  5
30F7
330
1E
100
AcDbEntity
  8
HA
100
AcDbLine
 10
327.6865558284419
 20
110.0342629445004
 30
0.0
 11
324.0865558284419
 21
113.6342629445004
 31
0.0
  0
LINE
  5
30F8
330
1E
100
AcDbEntity
  8
HA
100
AcDbLine
 10
329.4543227814082
 20
110.0342629445004
 30
0.0
 11
325.8543227814082
 21
113.6342629445004
 31
0.0
  0
LINE
  5
30F9
330
1E
100
AcDbEntity
  8
HA
100
AcDbLine
 10
331.2220897343746
 20
110.0342629445004
 30
0.0
 11
327.6220897343746
 21
113.6342629445004
 31
0.0
  0
LINE
  5
30FA
330
1E
100
AcDbEntity
  8
HA
100
AcDbLine
 10
332.0857002298006
 20
110.9384194020408
 30
0.0
 11
329.3898566873409
 21
113.6342629445004
 31
0.0
  0
LINE
  5
30FB
330
1E
100
AcDbEntity
  8
HA
100
AcDbLine
 10
332.0857002298005
 20
112.7061863550072
 30
0.0
 11
331.1576236403073
 21
113.6342629445004
 31
0.0
  0
LINE
  5
30FD
330
1E
100
AcDbEntity
  8
SA
100
AcDbLine
 10
185.5409990960223
 20
110.0342629445004
 30
0.0
 11
288.7436540936562
 21
110.0342629445004
 31
0.0
  0
LINE
  5
30FE
330
1E
100
AcDbEntity
  8
HA
100
AcDbLine
 10
183.6415428412422
 20
110.6580178103302
 30
0.0
 11
186.6177879754126
 21
113.6342629445005
 31
0.0
  0
LINE
  5
30FF
330
1E
100
AcDbEntity
  8
HA
100
AcDbLine
 10
182.1476954635084
 20
110.9319373855627
 30
0.0
 11
184.8500210224462
 21
113.6342629445005
 31
0.0
  0
ARC
  5
3103
330
1E
100
AcDbEntity
  8
SA
100
AcDbCircle
 10
182.1260554456185
 20
109.7032413587679
 30
0.0
 40
3.955230872034976
100
AcDbArc
 50
83.65744162298511
 51
163.3509467932844
  0
LINE
  5
310A
330
1E
100
AcDbEntity
  8
HA
100
AcDbLine
 10
180.4769682958976
 20
111.0289771709183
 30
0.0
 11
183.0822540694798
 21
113.6342629445005
 31
0.0
  0
LINE
  5
310B
330
1E
100
AcDbEntity
  8
HA
100
AcDbLine
 10
178.6121615575757
 20
110.9319373855627
 30
0.0
 11
181.2376245583253
 21
113.5574003863123
 31
0.0
  0
LINE
  5
310F
330
1E
100
AcDbEntity
  8
HA
100
AcDbLine
 10
182.1339044989293
 20
110.9181464209836
 30
0.0
 11
180.0085647511603
 21
113.0434861687527
 31
0.0
  0
LINE
  5
3110
330
1E
100
AcDbEntity
  8
HA
100
AcDbLine
 10
180.634508044058
 20
111.0290655144099
 30
0.0
 11
179.240891891324
 21
112.4226816671439
 31
0.0
  0
TEXT
  5
3111
330
1E
100
AcDbEntity
  8
NN
370
    25
100
AcDbText
 10
50.24471716310898
 20
208.3244810844482
 30
0.0
 40
6.240000000000001
  1
非接地型バンドセンサー
  7
0
 72
     1
 11
90.388717163109
 21
208.3244810844482
 31
0.0
100
AcDbText
  0
TEXT
  5
3112
330
1E
100
AcDbEntity
  8
NN
370
    25
100
AcDbText
 10
162.9494285714286
 20
129.752
 30
0.0
 40
6.240000000000001
  1
接地型バンドセンサー
  7
0
 72
     1
 11
199.3494285714286
 21
129.752
 31
0.0
100
AcDbText
  0
MTEXT
  5
3113
330
1E
100
AcDbEntity
  8
SC
100
AcDbMText
 10
103.1275400087897
 20
166.9286
 30
0.0
 40
3.5
 41
0.0
 71
     1
 72
     5
  1
シースセンサー
  7
0
 73
     1
 44
1.0
1001
ACAD
1000
MTEXTBEGIN
1070
    73
1070
     1
1070
    44
1040
1.0
1070
    74
1070
     0
1000
MTEXTEND
  0
MTEXT
  5
3114
330
1E
100
AcDbEntity
  8
SC
100
AcDbMText
 10
131.5585891805811
 20
201.9376973431988
 30
0.0
 40
3.5
 41
0.0
 71
     1
 72
     5
  1
スリーブ
  7
0
 73
     1
 44
1.0
1001
ACAD
1000
MTEXTBEGIN
1070
    73
1070
     1
1070
    44
1040
1.0
1070
    74
1070
     0
1000
MTEXTEND
  0
MTEXT
  5
3115
330
1E
100
AcDbEntity
  8
SC
100
AcDbMText
 10
155.4359733274735
 20
158.9340582963354
 30
0.0
 40
3.5
 41
0.0
 71
     1
 72
     5
  1
スプリング
  7
0
 73
     1
 44
1.0
1001
ACAD
1000
MTEXTBEGIN
1070
    73
1070
     1
1070
    44
1040
1.0
1070
    74
1070
     0
1000
MTEXTEND
  0
LEADER
  5
3116
330
1E
100
AcDbEntity
  8
SC
100
AcDbLeader
  3
nisimura
 76
     3
 10
162.5855149803961
 20
179.6714582963353
 30
0.0
 10
171.5755149803961
 20
164.4714582963353
 30
0.0
 10
191.043
 20
164.4714582963353
 30
0.0
1001
ACAD
1000
DSTYLE
1002
{
1070
   147
1040
0.625
1070
    77
1070
     0
1002
}
  0
MTEXT
  5
3117
330
1E
100
AcDbEntity
  8
SC
100
AcDbMText
 10
172.9033540352366
 20
168.4017564809362
 30
0.0
 40
3.5
 41
0.0
 71
     1
 72
     5
  1
補償導線
  7
0
 73
     1
 44
1.0
1001
ACAD
1000
MTEXTBEGIN
1070
    73
1070
     1
1070
    44
1040
1.0
1070
    74
1070
     0
1000
MTEXTEND
  0
MTEXT
  5
3118
330
1E
100
AcDbEntity
  8
SC
100
AcDbMText
 10
258.2338390548405
 20
89.64156112910135
 30
0.0
 40
3.5
 41
0.0
 71
     1
 72
     5
  1
補償導線
  7
0
 73
     1
 44
1.0
1001
ACAD
1000
MTEXTBEGIN
1070
    73
1070
     1
1070
    44
1040
1.0
1070
    74
1070
     0
1000
MTEXTEND
  0
LEADER
  5
3119
330
1E
100
AcDbEntity
  8
SC
100
AcDbLeader
  3
nisimura
 76
     3
 10
85.59201543468683
 20
159.2005380440264
 30
0.0
 10
92.42819298137392
 20
141.8770797476911
 30
0.0
 10
116.701
 20
141.8770797476911
 30
0.0
211
0.9998220165524605
221
-0.0188662454391723
231
0.0
1001
ACAD
1000
DSTYLE
1002
{
1070
   147
1040
0.625
1070
    77
1070
     0
1002
}
  0
MTEXT
  5
311A
330
1E
100
AcDbEntity
  8
SC
100
AcDbMText
 10
93.85259962753124
 20
146.4046797476911
 30
0.0
 40
3.5
 41
0.0
 71
     1
 72
     5
  1
SUSバンド
  7
0
 73
     1
 44
1.0
1001
ACAD
1000
MTEXTBEGIN
1070
    73
1070
     1
1070
    44
1040
1.0
1070
    74
1070
     0
1000
MTEXTEND
  0
LEADER
  5
311B
330
1E
100
AcDbEntity
  8
SC
100
AcDbLeader
  3
nisimura
 76
     3
 10
190.6272319261774
 20
89.92980064713934
 30
0.0
 10
197.4634094728645
 20
72.60634235080399
 30
0.0
 10
221.7362164914907
 20
72.60634235080399
 30
0.0
211
0.9998220165524605
221
-0.0188662454391723
231
0.0
1001
ACAD
1000
DSTYLE
1002
{
1070
   147
1040
0.625
1070
    77
1070
     0
1002
}
  0
MTEXT
  5
311C
330
1E
100
AcDbEntity
  8
SC
100
AcDbMText
 10
198.8878161190219
 20
77.13394235080399
 30
0.0
 40
3.5
 41
0.0
 71
     1
 72
     5
  1
SUSバンド
  7
0
 73
     1
 44
1.0
1001
ACAD
1000
MTEXTBEGIN
1070
    73
1070
     1
1070
    44
1040
1.0
1070
    74
1070
     0
1000
MTEXTEND
  0
DIMENSION
  5
311D
330
1E
100
AcDbEntity
  8
SC
100
AcDbDimension
  2
*D27
 10
256.7605149803961
 20
194.226
 30
0.0
 11
194.9741648654958
 21
196.851
 31
0.0
 70
    32
  1
C
 71
     5
 42
123.5727002298006
  3
nisimura
100
AcDbAlignedDimension
 13
133.1878147505955
 23
183.0844582963354
 33
0.0
 14
256.7605149803961
 24
182.3294582963355
 34
0.0
100
AcDbRotatedDimension
1001
ACAD
1000
DSTYLE
1002
{
1070
   140
1040
4.0
1002
}
  0
DIMENSION
  5
314E
330
1E
100
AcDbEntity
  8
SC
100
AcDbDimension
  2
*D28
 10
112.1878147505955
 20
194.237
 30
0.0
 11
93.6378147505955
 21
196.862
 31
0.0
 70
    32
  1
B
 71
     5
 42
37.09999999999999
  3
nisimura
100
AcDbAlignedDimension
 13
75.08781475059549
 23
181.3344582963354
 33
0.0
 14
112.1878147505955
 24
183.0844582963354
 34
0.0
100
AcDbRotatedDimension
1001
ACAD
1000
DSTYLE
1002
{
1070
   140
1040
4.0
1002
}
  0
DIMENSION
  5
3188
330
1E
100
AcDbEntity
  8
SC
100
AcDbDimension
  2
*D29
 10
362.2357002298006
 20
120.85
 30
0.0
 11
271.4351041369293
 21
123.475
 31
0.0
 70
    32
  1
C
 71
     5
 42
181.6011921857426
  3
nisimura
100
AcDbAlignedDimension
 13
180.634508044058
 23
111.0290655144099
 33
0.0
 14
362.2357002298006
 24
113.6342629445005
 34
0.0
100
AcDbRotatedDimension
1001
ACAD
1000
DSTYLE
1002
{
1070
   140
1040
4.0
1002
}
  0
MTEXT
  5
31B0
330
1E
100
AcDbEntity
  8
SC
100
AcDbMText
 10
161.5320179756997
 20
121.4043985873753
 30
0.0
 40
3.5
 41
0.0
 71
     1
 72
     5
  1
感知部
  7
0
 73
     1
 44
1.0
1001
ACAD
1000
MTEXTBEGIN
1070
    73
1070
     1
1070
    44
1040
1.0
1070
    74
1070
     0
1000
MTEXTEND
  0
LINE
  5
3201
330
1E
100
AcDbEntity
  8
0
100
AcDbLine
 10
166.24
 20
50.705
 30
0.0
 11
238.74
 21
50.705
 31
0.0
  0
LINE
  5
3202
330
1E
100
AcDbEntity
  8
0
100
AcDbLine
 10
238.74
 20
50.705
 30
0.0
 11
238.74
 21
40.705
 31
0.0
  0
LINE
  5
3203
330
1E
100
AcDbEntity
  8
0
100
AcDbLine
 10
176.24
 20
50.70499999999999
 30
0.0
 11
176.24
 21
40.705
 31
0.0
  0
LINE
  5
3204
330
1E
100
AcDbEntity
  8
0
100
AcDbLine
 10
201.24
 20
50.705
 30
0.0
 11
201.24
 21
40.705
 31
0.0
  0
TEXT
  5
3206
330
1E
100
AcDbEntity
  8
MO
100
AcDbText
 10
180.581001936613
 20
43.50686474409735
 30
0.0
 40
4.375
  1
タイプ
  7
0
 72
     1
 11
188.1643352699463
 21
43.50686474409735
 31
0.0
100
AcDbText
  0
TEXT
  5
3207
330
1E
100
AcDbEntity
  8
MO
100
AcDbText
 10
204.8645782149411
 20
43.36085653852637
 30
0.0
 40
4.375
  1
非接地・接地
  7
0
 72
     1
 11
220.0312448816077
 21
43.36085653852637
 31
0.0
100
AcDbText
  0
ENDSEC
  0
SECTION
  2
OBJECTS
  0
DICTIONARY
  5
C
330
0
100
AcDbDictionary
281
     1
  3
ACAD_CIP_PREVIOUS_PRODUCT_INFO
350
2022
  3
ACAD_COLOR
350
1793
  3
ACAD_DETAILVIEWSTYLE
350
201F
  3
ACAD_GROUP
350
D
  3
ACAD_LAYOUT
350
19
  3
ACAD_MATERIAL
350
1792
  3
ACAD_MLEADERSTYLE
350
201B
  3
ACAD_MLINESTYLE
350
16
  3
ACAD_PLOTSETTINGS
350
18
  3
ACAD_PLOTSTYLENAME
350
E
  3
ACAD_SCALELIST
350
2009
  3
ACAD_SECTIONVIEWSTYLE
350
201D
  3
ACAD_TABLESTYLE
350
17A5
  3
ACAD_VISUALSTYLE
350
1FF0
  3
ACDB_RECOMPOSE_DATA
350
320A
  3
AcDbVariableDictionary
350
17B5
  3
AcDsDecomposeData
350
3211
  3
DWGPROPS
350
320B
  0
DICTIONARY
  5
2081
330
2
100
AcDbDictionary
280
     1
281
     1
  3
ACAD_LAYERSTATES
360
2082
  0
DICTIONARY
  5
2058
330
10
100
AcDbDictionary
280
     1
281
     1
  3
ADSK_XREC_LAYER_RECONCILED
360
2059
  0
DICTIONARY
  5
205A
330
28
100
AcDbDictionary
280
     1
281
     1
  3
ADSK_XREC_LAYER_RECONCILED
360
205B
  0
DICTIONARY
  5
205C
330
29
100
AcDbDictionary
280
     1
281
     1
  3
ADSK_XREC_LAYER_RECONCILED
360
205D
  0
DICTIONARY
  5
205E
330
2A
100
AcDbDictionary
280
     1
281
     1
  3
ADSK_XREC_LAYER_RECONCILED
360
205F
  0
DICTIONARY
  5
2060
330
2B
100
AcDbDictionary
280
     1
281
     1
  3
ADSK_XREC_LAYER_RECONCILED
360
2061
  0
DICTIONARY
  5
2062
330
2C
100
AcDbDictionary
280
     1
281
     1
  3
ADSK_XREC_LAYER_RECONCILED
360
2063
  0
DICTIONARY
  5
2064
330
2D
100
AcDbDictionary
280
     1
281
     1
  3
ADSK_XREC_LAYER_RECONCILED
360
2065
  0
DICTIONARY
  5
2066
330
1397
100
AcDbDictionary
280
     1
281
     1
  3
ADSK_XREC_LAYER_RECONCILED
360
2067
  0
DICTIONARY
  5
2BBB
330
1E
100
AcDbDictionary
280
     1
281
     1
  3
ACAD_SORTENTS
360
2BBC
  0
XRECORD
  5
2022
102
{ACAD_REACTORS
330
C
102
}
330
C
100
AcDbXrecord
280
     1
300
ACDLT
300
2014
300
ACDLT_F_S
  0
DICTIONARY
  5
1793
102
{ACAD_REACTORS
330
C
102
}
330
C
100
AcDbDictionary
281
     1
  0
DICTIONARY
  5
201F
102
{ACAD_REACTORS
330
C
102
}
330
C
100
AcDbDictionary
281
     1
  3
Imperial24
350
2020
  0
DICTIONARY
  5
D
102
{ACAD_REACTORS
330
C
102
}
330
C
100
AcDbDictionary
281
     1
  0
DICTIONARY
  5
19
102
{ACAD_REACTORS
330
C
102
}
330
C
100
AcDbDictionary
281
     1
  3
Model
350
21
  3
ﾚｲｱｳﾄ1
350
1D
  0
DICTIONARY
  5
1792
102
{ACAD_REACTORS
330
C
102
}
330
C
100
AcDbDictionary
281
     1
  3
ByBlock
350
1FE0
  3
ByLayer
350
1FD8
  3
Global
350
1FE8
  0
DICTIONARY
  5
201B
102
{ACAD_REACTORS
330
C
102
}
330
C
100
AcDbDictionary
281
     1
  3
Standard
350
201C
  0
DICTIONARY
  5
16
102
{ACAD_REACTORS
330
C
102
}
330
C
100
AcDbDictionary
281
     1
  3
Standard
350
17
  0
DICTIONARY
  5
18
102
{ACAD_REACTORS
330
C
102
}
330
C
100
AcDbDictionary
281
     1
  0
ACDBDICTIONARYWDFLT
  5
E
102
{ACAD_REACTORS
330
C
102
}
330
C
100
AcDbDictionary
281
     1
  3
Normal
350
F
100
AcDbDictionaryWithDefault
340
F
  0
DICTIONARY
  5
2009
102
{ACAD_REACTORS
330
C
102
}
330
C
100
AcDbDictionary
281
     1
  3
A0
350
200A
  3
A1
350
200B
  3
A2
350
200C
  3
A3
350
200D
  3
A4
350
200E
  3
A5
350
200F
  3
A6
350
2010
  3
A7
350
2011
  3
A8
350
2012
  3
A9
350
2013
  3
B0
350
2014
  3
B1
350
2015
  3
B2
350
2016
  3
B3
350
2017
  3
B4
350
2018
  3
B5
350
2019
  3
B6
350
201A
  0
DICTIONARY
  5
201D
102
{ACAD_REACTORS
330
C
102
}
330
C
100
AcDbDictionary
281
     1
  3
Imperial24
350
201E
  0
DICTIONARY
  5
17A5
102
{ACAD_REACTORS
330
C
102
}
330
C
100
AcDbDictionary
281
     1
  3
Standard
350
17A6
  0
DICTIONARY
  5
1FF0
102
{ACAD_REACTORS
330
C
102
}
330
C
100
AcDbDictionary
281
     1
  3
2dWireframe
350
1FF6
  3
Basic
350
1FF5
  3
Brighten
350
1FFC
  3
ColorChange
350
2000
  3
Conceptual
350
1FF9
  3
Dim
350
1FFB
  3
EdgeColorOff
350
2008
  3
Facepattern
350
1FFF
  3
Flat
350
1FF1
  3
FlatWithEdges
350
1FF2
  3
Gouraud
350
1FF3
  3
GouraudWithEdges
350
1FF4
  3
Hidden
350
1FF8
  3
JitterOff
350
2006
  3
Linepattern
350
1FFE
  3
OverhangOff
350
2007
  3
Realistic
350
1FFA
  3
Shaded
350
2005
  3
Shaded with edges
350
2004
  3
Shades of Gray
350
2001
  3
Sketchy
350
2002
  3
Thicken
350
1FFD
  3
Wireframe
350
1FF7
  3
X-Ray
350
2003
  0
XRECORD
  5
320A
102
{ACAD_REACTORS
330
C
102
}
330
C
100
AcDbXrecord
280
     1
 90
        1
330
17A6
  0
DICTIONARY
  5
17B5
102
{ACAD_REACTORS
330
C
102
}
330
C
100
AcDbDictionary
281
     1
  3
CANNOSCALE
350
2090
  3
CMLEADERSTYLE
350
208C
  3
CTABLESTYLE
350
17B6
  3
CVIEWDETAILSTYLE
350
208D
  3
CVIEWSECTIONSTYLE
350
208E
  3
DIMASSOC
350
1C49
  3
INDEXCTL
350
31B5
  3
LAYEREVAL
350
2092
  3
LAYERNOTIFY
350
2093
  3
LIGHTINGUNITS
350
2091
  3
MSLTSCALE
350
208F
  3
PROJECTNAME
350
1C4A
  3
SORTENTS
350
31B4
  3
XCLIPFRAME
350
31B6
  0
DICTIONARY
  5
3211
102
{ACAD_REACTORS
330
C
102
}
330
C
100
AcDbDictionary
281
     1
  3
AcDsRecords
350
3213
  3
AcDsSchemas
350
3212
1001
ACAD
1070
     2
  0
XRECORD
  5
320B
102
{ACAD_REACTORS
330
C
102
}
330
C
100
AcDbXrecord
280
     1
  1
DWGPROPS COOKIE
  2

  3

  4

  6

  7

  8
user
  9

300
=
301
=
302
=
303
=
304
=
305
=
306
=
307
=
308
=
309
=
 40
2.003496481481481
 41
2450808.702418171
 42
2458726.580744271
  1

 90
        0
  0
DICTIONARY
  5
2082
102
{ACAD_REACTORS
330
2081
102
}
330
2081
100
AcDbDictionary
281
     1
  0
XRECORD
  5
2059
102
{ACAD_REACTORS
330
2058
102
}
330
2058
100
AcDbXrecord
280
     1
290
     1
  0
XRECORD
  5
205B
102
{ACAD_REACTORS
330
205A
102
}
330
205A
100
AcDbXrecord
280
     1
290
     1
  0
XRECORD
  5
205D
102
{ACAD_REACTORS
330
205C
102
}
330
205C
100
AcDbXrecord
280
     1
290
     1
  0
XRECORD
  5
205F
102
{ACAD_REACTORS
330
205E
102
}
330
205E
100
AcDbXrecord
280
     1
290
     1
  0
XRECORD
  5
2061
102
{ACAD_REACTORS
330
2060
102
}
330
2060
100
AcDbXrecord
280
     1
290
     1
  0
XRECORD
  5
2063
102
{ACAD_REACTORS
330
2062
102
}
330
2062
100
AcDbXrecord
280
     1
290
     1
  0
XRECORD
  5
2065
102
{ACAD_REACTORS
330
2064
102
}
330
2064
100
AcDbXrecord
280
     1
290
     1
  0
XRECORD
  5
2067
102
{ACAD_REACTORS
330
2066
102
}
330
2066
100
AcDbXrecord
280
     1
290
     1
  0
SORTENTSTABLE
  5
2BBC
102
{ACAD_REACTORS
330
2BBB
102
}
330
2BBB
100
AcDbSortentsTable
330
1E
331
61
  5
61
331
139C
  5
139C
331
2F5E
  5
2F5E
331
2EE4
  5
2EE4
331
2F1F
  5
2F1F
331
2F5A
  5
2F5A
331
2EE0
  5
2EE0
331
18A9
  5
18A9
331
1918
  5
1918
331
2F1B
  5
2F1B
331
2F56
  5
2F56
331
2EDC
  5
2EDC
331
2ED8
  5
2ED8
331
2FD7
  5
2FDA
331
30C4
  5
30BE
331
2FD3
  5
2FD6
331
30C0
  5
30BA
331
30FF
  5
2FF8
331
2FCF
  5
2FD2
331
30FB
  5
30F5
331
2FCB
  5
2FCE
331
30BC
  5
30B6
331
3084
  5
307E
331
30B8
  5
30B2
331
3080
  5
307A
331
1822
  5
1822
331
2F17
  5
2F17
331
178F
  5
178F
331
2F13
  5
2F13
331
2ED4
  5
2ED4
331
181A
  5
181A
331
2F0F
  5
2F0F
331
2F4A
  5
2F4A
331
2ED0
  5
2ED0
331
2F0B
  5
2F0B
331
2F46
  5
2F46
331
2ECC
  5
2ECC
331
2F42
  5
2F42
331
2EC8
  5
2EC8
331
2DDB
  5
2DDB
331
30F7
  5
30F1
331
2FC7
  5
2FCA
331
30F3
  5
30ED
331
2FC3
  5
2FC6
331
30B4
  5
30AE
331
307C
  5
3076
331
30EF
  5
30E9
331
30B0
  5
30AA
331
3078
  5
3072
331
2FFA
  5
30FF
331
30EB
  5
30E5
331
30AC
  5
30A6
331
3074
  5
306E
331
30A8
  5
30A2
331
3070
  5
306A
331
1EB6
  5
1EB6
331
AC
  5
AC
331
1943
  5
1943
331
2F07
  5
2F07
331
1889
  5
1889
331
18F0
  5
18F0
331
2F03
  5
2F03
331
2EC4
  5
2EC4
331
2EFF
  5
2EFF
331
2F3A
  5
2F3A
331
2EC0
  5
2EC0
331
2EFB
  5
2EFB
331
2F36
  5
2F36
331
2EBC
  5
2EBC
331
2DD3
  5
2DD3
331
2F71
  5
2F71
331
2F32
  5
2F32
331
2EB8
  5
2EB8
331
2FF6
  5
30FB
331
30E7
  5
30E1
331
2FF2
  5
30F7
331
30E3
  5
30DD
331
306C
  5
3066
331
30DF
  5
30D9
331
2FEE
  5
2FF2
331
30A0
  5
309A
331
3068
  5
3062
331
30DB
  5
30D5
331
2FEA
  5
2FED
331
309C
  5
3096
331
3064
  5
305E
331
3098
  5
3092
331
3060
  5
305A
331
1927
  5
1927
331
1923
  5
1923
331
1806
  5
1806
331
18CC
  5
18CC
331
1875
  5
1875
331
17DE
  5
17DE
331
2EF7
  5
2EF7
331
1871
  5
1871
331
2EF3
  5
2EF3
331
2F6D
  5
2F6D
331
2F2E
  5
2F2E
331
2EB4
  5
2EB4
331
1845
  5
1845
331
2EEF
  5
2EEF
331
2F69
  5
2F69
331
2F2A
  5
2F2A
331
2EB0
  5
2EB0
331
2DC7
  5
2DC7
331
2F65
  5
2F65
331
2F26
  5
2F26
331
2EEB
  5
2EEB
331
2F61
  5
2F61
331
2F22
  5
2F22
331
2EA8
  5
2EA8
331
30D7
  5
30D1
331
2FE6
  5
2FE9
331
30D3
  5
30CD
331
2FE2
  5
2FE5
331
3094
  5
308E
331
305C
  5
3056
331
30CF
  5
30C9
331
2FDE
  5
2FE1
331
3090
  5
308A
331
310A
  5
310A
331
3058
  5
3052
331
30CB
  5
30C5
331
2FDA
  5
2FDD
331
308C
  5
3086
331
3054
  5
304E
331
3088
  5
3082
331
3050
  5
2FFC
331
139F
  5
139F
331
18B4
  5
18B4
331
2EE7
  5
2EE7
331
2F5D
  5
2F5D
331
2EE3
  5
2EE3
331
1829
  5
1829
331
2F1E
  5
2F1E
331
2F59
  5
2F59
331
2EDF
  5
2EDF
331
2F1A
  5
2F1A
331
2F55
  5
2F55
331
2EDB
  5
2EDB
331
2EA7
  5
2EA7
331
30C7
  5
30C1
331
2FD6
  5
2FD9
331
30C3
  5
30BD
331
2FD2
  5
2FD5
331
30BF
  5
30B9
331
30FE
  5
2FF9
331
2FCE
  5
2FD1
331
3087
  5
3081
331
30FA
  5
30F4
331
2FCA
  5
2FCD
331
30BB
  5
30B5
331
3083
  5
307D
331
19C2
  5
19C2
331
190B
  5
190B
331
2F16
  5
2F16
331
2ED7
  5
2ED7
331
18FF
  5
18FF
331
2F12
  5
2F12
331
2ED3
  5
2ED3
331
2F0E
  5
2F0E
331
2F49
  5
2F49
331
2ECF
  5
2ECF
331
2F0A
  5
2F0A
331
2F45
  5
2F45
331
2ECB
  5
2ECB
331
2F41
  5
2F41
331
2DDA
  5
2DD5
331
30F6
  5
30F0
331
2FC6
  5
2FC9
331
30B7
  5
30B1
331
307F
  5
3079
331
30F2
  5
30EC
331
2FC2
  5
2FC5
331
30B3
  5
30AD
331
307B
  5
3075
331
30EE
  5
30E8
331
30AF
  5
30A9
331
3077
  5
3071
331
2FBE
  5
2FBE
331
2FF9
  5
30FE
331
30EA
  5
30E4
331
30AB
  5
30A5
331
3073
  5
306D
331
195E
  5
195E
331
1EB5
  5
1EB5
331
18F7
  5
18F7
331
2F06
  5
2F06
331
2EC7
  5
2EC7
331
1888
  5
1888
331
18EF
  5
18EF
331
1492
  5
1492
331
2F02
  5
2F02
331
2F3D
  5
2F3D
331
2EC3
  5
2EC3
331
1884
  5
1884
331
18EB
  5
18EB
331
2EFE
  5
2EFE
331
2F39
  5
2F39
331
2EBF
  5
2EBF
331
2EFA
  5
2EFA
331
2F74
  5
2F74
331
2F35
  5
2F35
331
2EBB
  5
2EBB
331
2F70
  5
2F70
331
2F31
  5
2F31
331
2FF5
  5
30FA
331
30E6
  5
30E0
331
30A7
  5
30A1
331
306F
  5
3069
331
2FF1
  5
30F6
331
30E2
  5
30DC
331
30A3
  5
309E
331
306B
  5
3065
331
30DE
  5
30D8
331
309F
  5
3099
331
3067
  5
3061
331
30DA
  5
30D4
331
2FE9
  5
2FEC
331
309B
  5
3095
331
3063
  5
305D
331
192E
  5
192E
331
8B
  5
8B
331
1926
  5
1926
331
148E
  5
148E
331
1874
  5
1874
331
2EF6
  5
2EF6
331
2EB7
  5
2EB7
331
1870
  5
1870
331
2EF2
  5
2EF2
331
2F6C
  5
2F6C
331
2F2D
  5
2F2D
331
2EB3
  5
2EB3
331
1844
  5
1844
331
2EEE
  5
2EEE
331
2F68
  5
2F68
331
2F29
  5
2F29
331
2EAF
  5
2EAF
331
2EEA
  5
2EEA
331
2F64
  5
2F64
331
2F25
  5
2F25
331
2EAB
  5
2EAB
331
2F21
  5
2F21
331
30D6
  5
30D0
331
2FE5
  5
2FE8
331
3097
  5
3091
331
305F
  5
3059
331
30D2
  5
30CC
331
2FE1
  5
2FE4
331
3093
  5
308D
331
305B
  5
3055
331
30CE
  5
30C8
331
2FDD
  5
2FE0
331
308F
  5
3089
331
3057
  5
3051
331
30CA
  5
30C4
331
2FD9
  5
2FDC
331
308B
  5
3085
331
3053
  5
304D
331
63
  5
63
331
2EE6
  5
2EE6
331
2F5C
  5
2F5C
331
2EE2
  5
2EE2
331
18AB
  5
18AB
331
2F1D
  5
2F1D
331
2F58
  5
2F58
331
2EDE
  5
2EDE
331
2F19
  5
2F19
331
2EDA
  5
2EDA
331
2EA6
  5
2EA6
331
30C6
  5
30C0
331
2FD5
  5
2FD8
331
304F
  5
2FFA
331
30C2
  5
30BC
331
2FD1
  5
2FD4
331
2FCD
  5
2FD0
331
30BE
  5
30B8
331
3086
  5
3080
331
30FD
  5
2FC1
331
30F9
  5
30F3
331
2FC9
  5
2FCC
331
30BA
  5
30B4
331
3082
  5
307C
331
2F15
  5
2F15
331
2ED6
  5
2ED6
331
2F11
  5
2F11
331
2ED2
  5
2ED2
331
1893
  5
1893
331
2F0D
  5
2F0D
331
2ECE
  5
2ECE
331
2F09
  5
2F09
331
2F44
  5
2F44
331
2ECA
  5
2ECA
331
2F40
  5
2F40
331
2DD9
  5
2DDA
331
30F5
  5
30EF
331
2FC5
  5
2FC8
331
30B6
  5
30B0
331
307E
  5
3078
331
30F1
  5
30EB
331
2FC1
  5
2FC4
331
30B2
  5
30AC
331
307A
  5
3074
331
2FFC
  5
3103
331
30ED
  5
30E7
331
30AE
  5
30A8
331
3076
  5
3070
331
2FBD
  5
2FBD
331
30E9
  5
30E3
331
30AA
  5
30A4
331
3072
  5
306C
331
1814
  5
1814
331
2F05
  5
2F05
331
2EC6
  5
2EC6
331
18EE
  5
18EE
331
2F01
  5
2F01
331
2F3C
  5
2F3C
331
2EC2
  5
2EC2
331
1491
  5
1491
331
1808
  5
1808
331
2EFD
  5
2EFD
331
2F38
  5
2F38
331
2EBE
  5
2EBE
331
2EF9
  5
2EF9
331
2F73
  5
2F73
331
2F34
  5
2F34
331
2EBA
  5
2EBA
331
2F30
  5
2F30
331
2FF4
  5
30F9
331
30E5
  5
30DF
331
30A6
  5
30A0
331
306E
  5
3068
331
30E1
  5
30DB
331
30A2
  5
309C
331
306A
  5
3064
331
30DD
  5
30D7
331
2FEC
  5
2FEF
331
309E
  5
3098
331
3066
  5
3060
331
30D9
  5
30D3
331
2FE8
  5
2FEB
331
309A
  5
3094
331
3062
  5
305C
331
3110
  5
310F
331
1D1C
  5
1D1C
331
1925
  5
1925
331
6E
  5
6E
331
1873
  5
1873
331
17DC
  5
17DC
331
2EF5
  5
2EF5
331
2F6F
  5
2F6F
331
2EB6
  5
2EB6
331
1847
  5
1847
331
2EF1
  5
2EF1
331
2F6B
  5
2F6B
331
2F2C
  5
2F2C
331
2EB2
  5
2EB2
331
2EED
  5
2EED
331
2F67
  5
2F67
331
2F28
  5
2F28
331
2EAE
  5
2EAE
331
2EE9
  5
2EE9
331
2F63
  5
2F63
331
2F24
  5
2F24
331
2EAA
  5
2EAA
331
2F20
  5
2F20
331
30D5
  5
30CF
331
2FE4
  5
2FE7
331
3096
  5
3090
331
305E
  5
3058
331
30D1
  5
30CB
331
2FE0
  5
2FE3
331
3092
  5
308C
331
305A
  5
3054
331
30CD
  5
30C7
331
2FDC
  5
2FDF
331
308E
  5
3088
331
3056
  5
3050
331
30C9
  5
30C3
331
2FD8
  5
2FDB
331
308A
  5
3084
331
3052
  5
304C
331
62
  5
62
331
1399
  5
1399
331
2EE5
  5
2EE5
331
2F5B
  5
2F5B
331
2EE1
  5
2EE1
331
18AA
  5
18AA
331
2F1C
  5
2F1C
331
2F57
  5
2F57
331
2EDD
  5
2EDD
331
2F18
  5
2F18
331
2ED9
  5
2ED9
331
30C5
  5
30BF
331
2FD4
  5
2FD7
331
30C1
  5
30BB
331
2FD0
  5
2FD3
331
30BD
  5
30B7
331
2FCC
  5
2FCF
331
3085
  5
307F
331
30F8
  5
30F2
331
2FC8
  5
2FCB
331
30B9
  5
30B3
331
3081
  5
307B
331
18A2
  5
18A2
331
2F14
  5
2F14
331
2ED5
  5
2ED5
331
2F10
  5
2F10
331
2ED1
  5
2ED1
331
1892
  5
1892
331
2F0C
  5
2F0C
331
2F47
  5
2F47
331
2ECD
  5
2ECD
331
2F08
  5
2F08
331
2F43
  5
2F43
331
2EC9
  5
2EC9
331
2DDC
  5
2DDC
331
2DD8
  5
2DD8
331
30F4
  5
30EE
331
2FC4
  5
2FC7
331
30B5
  5
30AF
331
307D
  5
3077
331
30F0
  5
30EA
331
30B1
  5
30AB
331
3079
  5
3073
331
2FC0
  5
2FC2
331
30EC
  5
30E6
331
30AD
  5
30A7
331
3075
  5
306F
331
30E8
  5
30E2
331
30A9
  5
30A3
331
3071
  5
306B
331
1EB7
  5
1EB7
331
1E9F
  5
1E9F
331
91
  5
91
331
1758
  5
1758
331
188A
  5
188A
331
2F04
  5
2F04
331
2F3F
  5
2F3F
331
2EC5
  5
2EC5
331
18ED
  5
18ED
331
2F00
  5
2F00
331
2F3B
  5
2F3B
331
2EC1
  5
2EC1
331
2EFC
  5
2EFC
331
2F37
  5
2F37
331
2EBD
  5
2EBD
331
2EF8
  5
2EF8
331
2F72
  5
2F72
331
2F33
  5
2F33
331
2EB9
  5
2EB9
331
2FF7
  5
30FC
331
2FF3
  5
30F8
331
30E4
  5
30DE
331
306D
  5
3067
331
30E0
  5
30DA
331
2FEF
  5
2FF3
331
30A1
  5
309B
331
3069
  5
3063
331
30DC
  5
30D6
331
2FEB
  5
2FEE
331
309D
  5
3097
331
3065
  5
305F
331
30D8
  5
30D2
331
3099
  5
3093
331
3061
  5
305B
331
8D
  5
8D
331
89
  5
89
331
1924
  5
1924
331
1807
  5
1807
331
2EF4
  5
2EF4
331
2F6E
  5
2F6E
331
2F2F
  5
2F2F
331
2EB5
  5
2EB5
331
18BD
  5
18BD
331
2EF0
  5
2EF0
331
2F6A
  5
2F6A
331
2F2B
  5
2F2B
331
2EB1
  5
2EB1
331
13A0
  5
13A0
331
2EEC
  5
2EEC
331
2F66
  5
2F66
331
2F27
  5
2F27
331
2EAD
  5
2EAD
331
2EE8
  5
2EE8
331
2F62
  5
2F62
331
2F23
  5
2F23
331
2EA9
  5
2EA9
331
2FE7
  5
2FEA
331
30D4
  5
30CE
331
2FE3
  5
2FE6
331
3095
  5
308F
331
310F
  5
310D
331
305D
  5
3057
331
30D0
  5
30CA
331
2FDF
  5
2FE2
331
3091
  5
308B
331
310B
  5
310B
331
3059
  5
3053
331
30CC
  5
30C6
331
2FDB
  5
2FDE
331
308D
  5
3087
331
3055
  5
304F
331
30C8
  5
30C2
331
3089
  5
3083
331
3051
  5
304B
331
3103
  5
2FC3
  0
ACDBDETAILVIEWSTYLE
  5
2020
102
{ACAD_XDICTIONARY
360
2089
102
}
102
{ACAD_REACTORS
330
201F
102
}
330
201F
100
AcDbModelDocViewStyle
 70
     0
  3
Imperial24
290
     0
100
AcDbDetailViewStyle
 70
     0
 71
     0
 90
        3
 71
     1
340
11
 40
0.24
340
0
 40
0.24
300

 40
0.36
280
     3
 71
     2
340
15
 90
       25
 71
     3
340
11
 40
0.24
 90
        1
 40
0.75
 90
        1
300
%<\AcVar ViewType \f "%tc1">% %<\AcVar ViewDetailId>%\PSCALE %<\AcVar ViewScale \f "%sn">%
 71
     4
340
15
 90
       25
340
15
 90
       25
280
     0
  0
LAYOUT
  5
21
102
{ACAD_XDICTIONARY
360
3216
102
}
102
{ACAD_REACTORS
330
19
102
}
330
19
100
AcDbPlotSettings
  1

  2
PrimoPDF
  4
A4
  6
HYOU
 40
3.174999952316283
 41
3.174999952316283
 42
3.175003051757812
 43
3.17498779296875
 44
210.0156707763672
 45
297.0106506347656
 46
-1.0
 47
10.0
 48
0.0
 49
0.0
140
0.0
141
0.0
142
1.0
143
1.458272291292898
 70
 11952
 72
     1
 73
     1
 74
     2
  7
monochrome.ctb
 75
     0
147
0.6857429891323
148
0.0
149
0.0
100
AcDbLayout
  1
Model
 70
     1
 71
     0
 10
0.0
 20
0.0
 11
12.0
 21
9.0
 12
0.0
 22
0.0
 32
0.0
 14
0.0
 24
0.0
 34
0.0
 15
0.0
 25
0.0
 35
0.0
146
0.0
 13
0.0
 23
0.0
 33
0.0
 16
1.0
 26
0.0
 36
0.0
 17
0.0
 27
1.0
 37
0.0
 76
     0
330
1E
331
1FCB
1001
ACAD_PSEXT
1000
FX DocuPrint 205
1000
FX DocuPrint 205
1000
USB001
1000

1070
     0
  0
LAYOUT
  5
1D
102
{ACAD_XDICTIONARY
360
3214
102
}
102
{ACAD_REACTORS
330
19
102
}
330
19
100
AcDbPlotSettings
  1

  2
EPSON LP-1500S
  4

  6

 40
0.0
 41
0.0
 42
0.0
 43
0.0
 44
0.0
 45
0.0
 46
0.0
 47
0.0
 48
0.0
 49
0.0
140
0.0
141
0.0
142
1.0
143
1.0
 70
   688
 72
     0
 73
     0
 74
     5
  7
monochrome.ctb
 75
    16
147
1.0
148
0.0
149
0.0
100
AcDbLayout
  1
ﾚｲｱｳﾄ1
 70
     0
 71
     1
 10
0.0
 20
0.0
 11
12.0
 21
9.0
 12
0.0
 22
0.0
 32
0.0
 14
1.000000000000000E+20
 24
1.000000000000000E+20
 34
1.000000000000000E+20
 15
-1.000000000000000E+20
 25
-1.000000000000000E+20
 35
-1.000000000000000E+20
146
0.0
 13
0.0
 23
0.0
 33
0.0
 16
1.0
 26
0.0
 36
0.0
 17
0.0
 27
1.0
 37
0.0
 76
     0
330
1A
  0
MATERIAL
  5
1FE0
102
{ACAD_XDICTIONARY
360
1FE1
102
}
102
{ACAD_REACTORS
330
1792
102
}
330
1792
100
AcDbMaterial
  1
ByBlock
 72
     0
 43
0.0208333333333333
 43
0.0
 43
0.0
 43
0.0
 43
0.0
 43
0.0208333333333333
 43
0.0
 43
0.0
 43
0.0
 43
0.0
 43
1.0
 43
0.0
 43
0.0
 43
0.0
 43
0.0
 43
1.0
 77
     0
 47
0.0208333333333333
 47
0.0
 47
0.0
 47
0.0
 47
0.0
 47
0.0208333333333333
 47
0.0
 47
0.0
 47
0.0
 47
0.0
 47
1.0
 47
0.0
 47
0.0
 47
0.0
 47
0.0
 47
1.0
171
     0
 49
0.0208333333333333
 49
0.0
 49
0.0
 49
0.0
 49
0.0
 49
0.0208333333333333
 49
0.0
 49
0.0
 49
0.0
 49
0.0
 49
1.0
 49
0.0
 49
0.0
 49
0.0
 49
0.0
 49
1.0
175
     0
142
0.0208333333333333
142
0.0
142
0.0
142
0.0
142
0.0
142
0.0208333333333333
142
0.0
142
0.0
142
0.0
142
0.0
142
1.0
142
0.0
142
0.0
142
0.0
142
0.0
142
1.0
179
     0
144
0.0208333333333333
144
0.0
144
0.0
144
0.0
144
0.0
144
0.0208333333333333
144
0.0
144
0.0
144
0.0
144
0.0
144
1.0
144
0.0
144
0.0
144
0.0
144
0.0
144
1.0
147
0.0208333333333333
147
0.0
147
0.0
147
0.0
147
0.0
147
0.0208333333333333
147
0.0
147
0.0
147
0.0
147
0.0
147
1.0
147
0.0
147
0.0
147
0.0
147
0.0
147
1.0
  0
MATERIAL
  5
1FD8
102
{ACAD_XDICTIONARY
360
1FD9
102
}
102
{ACAD_REACTORS
330
1792
102
}
330
1792
100
AcDbMaterial
  1
ByLayer
 72
     0
 43
0.0208333333333333
 43
0.0
 43
0.0
 43
0.0
 43
0.0
 43
0.0208333333333333
 43
0.0
 43
0.0
 43
0.0
 43
0.0
 43
1.0
 43
0.0
 43
0.0
 43
0.0
 43
0.0
 43
1.0
 77
     0
 47
0.0208333333333333
 47
0.0
 47
0.0
 47
0.0
 47
0.0
 47
0.0208333333333333
 47
0.0
 47
0.0
 47
0.0
 47
0.0
 47
1.0
 47
0.0
 47
0.0
 47
0.0
 47
0.0
 47
1.0
171
     0
 49
0.0208333333333333
 49
0.0
 49
0.0
 49
0.0
 49
0.0
 49
0.0208333333333333
 49
0.0
 49
0.0
 49
0.0
 49
0.0
 49
1.0
 49
0.0
 49
0.0
 49
0.0
 49
0.0
 49
1.0
175
     0
142
0.0208333333333333
142
0.0
142
0.0
142
0.0
142
0.0
142
0.0208333333333333
142
0.0
142
0.0
142
0.0
142
0.0
142
1.0
142
0.0
142
0.0
142
0.0
142
0.0
142
1.0
179
     0
144
0.0208333333333333
144
0.0
144
0.0
144
0.0
144
0.0
144
0.0208333333333333
144
0.0
144
0.0
144
0.0
144
0.0
144
1.0
144
0.0
144
0.0
144
0.0
144
0.0
144
1.0
147
0.0208333333333333
147
0.0
147
0.0
147
0.0
147
0.0
147
0.0208333333333333
147
0.0
147
0.0
147
0.0
147
0.0
147
1.0
147
0.0
147
0.0
147
0.0
147
0.0
147
1.0
  0
MATERIAL
  5
1FE8
102
{ACAD_XDICTIONARY
360
1FE9
102
}
102
{ACAD_REACTORS
330
1792
102
}
330
1792
100
AcDbMaterial
  1
Global
 72
     0
 43
0.0208333333333333
 43
0.0
 43
0.0
 43
0.0
 43
0.0
 43
0.0208333333333333
 43
0.0
 43
0.0
 43
0.0
 43
0.0
 43
1.0
 43
0.0
 43
0.0
 43
0.0
 43
0.0
 43
1.0
 77
     0
 47
0.0208333333333333
 47
0.0
 47
0.0
 47
0.0
 47
0.0
 47
0.0208333333333333
 47
0.0
 47
0.0
 47
0.0
 47
0.0
 47
1.0
 47
0.0
 47
0.0
 47
0.0
 47
0.0
 47
1.0
171
     0
 49
0.0208333333333333
 49
0.0
 49
0.0
 49
0.0
 49
0.0
 49
0.0208333333333333
 49
0.0
 49
0.0
 49
0.0
 49
0.0
 49
1.0
 49
0.0
 49
0.0
 49
0.0
 49
0.0
 49
1.0
175
     0
142
0.0208333333333333
142
0.0
142
0.0
142
0.0
142
0.0
142
0.0208333333333333
142
0.0
142
0.0
142
0.0
142
0.0
142
1.0
142
0.0
142
0.0
142
0.0
142
0.0
142
1.0
179
     0
144
0.0208333333333333
144
0.0
144
0.0
144
0.0
144
0.0
144
0.0208333333333333
144
0.0
144
0.0
144
0.0
144
0.0
144
1.0
144
0.0
144
0.0
144
0.0
144
0.0
144
1.0
147
0.0208333333333333
147
0.0
147
0.0
147
0.0
147
0.0
147
0.0208333333333333
147
0.0
147
0.0
147
0.0
147
0.0
147
1.0
147
0.0
147
0.0
147
0.0
147
0.0
147
1.0
  0
MLEADERSTYLE
  5
201C
102
{ACAD_REACTORS
330
201B
102
}
330
201B
100
AcDbMLeaderStyle
170
     2
171
     1
172
     0
 90
        2
 40
0.0
 41
0.0
173
     1
 91
-1056964608
340
13
 92
       -2
290
     1
 42
0.09
291
     1
 43
0.36
  3
Standard
 44
0.18
300

342
11
174
     1
178
     6
175
     1
176
     0
 93
-1056964608
 45
0.18
292
     0
297
     0
 46
0.18
 94
-1056964608
 47
1.0
 49
1.0
140
1.0
293
     1
141
0.0
294
     1
177
     0
142
1.0
295
     0
296
     0
143
0.125
1001
ACAD_MLEADERVER
1070
     2
  0
MLINESTYLE
  5
17
102
{ACAD_REACTORS
330
16
102
}
330
16
100
AcDbMlineStyle
  2
STANDARD
 70
     0
  3

 62
   256
 51
90.0
 52
90.0
 71
     2
 49
0.5
 62
   256
  6
BYLAYER
 49
-0.5
 62
   256
  6
BYLAYER
  0
ACDBPLACEHOLDER
  5
F
102
{ACAD_REACTORS
330
E
102
}
330
E
  0
SCALE
  5
200A
102
{ACAD_REACTORS
330
2009
102
}
330
2009
100
AcDbScale
 70
     0
300
1:1
140
1.0
141
1.0
290
     1
  0
SCALE
  5
200B
102
{ACAD_REACTORS
330
2009
102
}
330
2009
100
AcDbScale
 70
     0
300
1/128" = 1'-0"
140
0.0078125
141
12.0
290
     0
  0
SCALE
  5
200C
102
{ACAD_REACTORS
330
2009
102
}
330
2009
100
AcDbScale
 70
     0
300
1/64" = 1'-0"
140
0.015625
141
12.0
290
     0
  0
SCALE
  5
200D
102
{ACAD_REACTORS
330
2009
102
}
330
2009
100
AcDbScale
 70
     0
300
1/32" = 1'-0"
140
0.03125
141
12.0
290
     0
  0
SCALE
  5
200E
102
{ACAD_REACTORS
330
2009
102
}
330
2009
100
AcDbScale
 70
     0
300
1/16" = 1'-0"
140
0.0625
141
12.0
290
     0
  0
SCALE
  5
200F
102
{ACAD_REACTORS
330
2009
102
}
330
2009
100
AcDbScale
 70
     0
300
3/32" = 1'-0"
140
0.09375
141
12.0
290
     0
  0
SCALE
  5
2010
102
{ACAD_REACTORS
330
2009
102
}
330
2009
100
AcDbScale
 70
     0
300
1/8" = 1'-0"
140
0.125
141
12.0
290
     0
  0
SCALE
  5
2011
102
{ACAD_REACTORS
330
2009
102
}
330
2009
100
AcDbScale
 70
     0
300
3/16" = 1'-0"
140
0.1875
141
12.0
290
     0
  0
SCALE
  5
2012
102
{ACAD_REACTORS
330
2009
102
}
330
2009
100
AcDbScale
 70
     0
300
1/4" = 1'-0"
140
0.25
141
12.0
290
     0
  0
SCALE
  5
2013
102
{ACAD_REACTORS
330
2009
102
}
330
2009
100
AcDbScale
 70
     0
300
3/8" = 1'-0"
140
0.375
141
12.0
290
     0
  0
SCALE
  5
2014
102
{ACAD_REACTORS
330
2009
102
}
330
2009
100
AcDbScale
 70
     0
300
1/2" = 1'-0"
140
0.5
141
12.0
290
     0
  0
SCALE
  5
2015
102
{ACAD_REACTORS
330
2009
102
}
330
2009
100
AcDbScale
 70
     0
300
3/4" = 1'-0"
140
0.75
141
12.0
290
     0
  0
SCALE
  5
2016
102
{ACAD_REACTORS
330
2009
102
}
330
2009
100
AcDbScale
 70
     0
300
1" = 1'-0"
140
1.0
141
12.0
290
     0
  0
SCALE
  5
2017
102
{ACAD_REACTORS
330
2009
102
}
330
2009
100
AcDbScale
 70
     0
300
1-1/2" = 1'-0"
140
1.5
141
12.0
290
     0
  0
SCALE
  5
2018
102
{ACAD_REACTORS
330
2009
102
}
330
2009
100
AcDbScale
 70
     0
300
3" = 1'-0"
140
3.0
141
12.0
290
     0
  0
SCALE
  5
2019
102
{ACAD_REACTORS
330
2009
102
}
330
2009
100
AcDbScale
 70
     0
300
6" = 1'-0"
140
6.0
141
12.0
290
     0
  0
SCALE
  5
201A
102
{ACAD_REACTORS
330
2009
102
}
330
2009
100
AcDbScale
 70
     0
300
1'-0" = 1'-0"
140
12.0
141
12.0
290
     0
  0
ACDBSECTIONVIEWSTYLE
  5
201E
102
{ACAD_XDICTIONARY
360
2087
102
}
102
{ACAD_REACTORS
330
201D
102
}
330
201D
100
AcDbModelDocViewStyle
 70
     0
  3
Imperial24
290
     0
100
AcDbSectionViewStyle
 70
     0
 71
     0
 90
       78
 71
     1
340
11
 40
0.24
340
0
340
0
 40
0.24
300
I, O, Q, S, X, Z
 40
0.48
 90
        3
 40
0.18
 90
        1
 71
     2
340
15
 90
       25
340
15
 90
       50
 40
0.24
 40
0.0
 40
0.24
 71
     3
340
11
 40
0.24
 90
        1
 40
0.75
 90
        1
300
%<\AcVar ViewType \f "%tc1">% %<\AcVar ViewSectionStartId>%-%<\AcVar ViewSectionEndId>%\PSCALE %<\AcVar ViewScale \f "%sn">%
 71
     4
300
ANSI31
 40
1.0
 90
        0
290
     0
290
     0
 90
        6
 40
0.0
 40
1.570796326794896
 40
0.2617993877991494
 40
1.308996938995747
 40
-0.2617993877991494
 40
1.832595714594046
  0
TABLESTYLE
  5
17A6
102
{ACAD_XDICTIONARY
360
3208
102
}
102
{ACAD_REACTORS
330
17A5
102
}
330
17A5
100
AcDbTableStyle
  3
Standard
 70
     0
 71
     0
 40
0.06
 41
0.06
280
     0
281
     0
  7
STANDARD
140
0.18
170
     2
 62
     0
 63
     7
283
     0
274
    -2
284
     1
 64
     0
275
    -2
285
     1
 65
     0
276
    -2
286
     1
 66
     0
277
    -2
287
     1
 67
     0
278
    -2
288
     1
 68
     0
279
    -2
289
     1
 69
     0
  7
STANDARD
140
0.25
170
     5
 62
     0
 63
     7
283
     0
274
    -2
284
     1
 64
     0
275
    -2
285
     1
 65
     0
276
    -2
286
     1
 66
     0
277
    -2
287
     1
 67
     0
278
    -2
288
     1
 68
     0
279
    -2
289
     1
 69
     0
  7
STANDARD
140
0.18
170
     5
 62
     0
 63
     7
283
     0
274
    -2
284
     1
 64
     0
275
    -2
285
     1
 65
     0
276
    -2
286
     1
 66
     0
277
    -2
287
     1
 67
     0
278
    -2
288
     1
 68
     0
279
    -2
289
     1
 69
     0
1001
ACAD
1000
AcRTDxfName
1000
TABLESTYLE
  0
VISUALSTYLE
  5
1FF6
102
{ACAD_XDICTIONARY
360
3226
102
}
102
{ACAD_REACTORS
330
1FF0
102
}
330
1FF0
100
AcDbVisualStyle
  2
2dWireframe
 70
     4
 71
     0
 72
     2
 73
     0
 90
        0
 40
-0.6
 41
-30.0
 62
     5
 63
     7
 74
     1
 91
        4
 64
     7
 65
   257
 75
     1
175
     1
 42
1.0
 92
        0
 66
   257
 43
1.0
 76
     1
 77
     6
 78
     2
 67
     7
 79
     5
170
     0
171
     0
290
     0
174
     0
 93
        1
 44
0.0
173
     0
291
     0
 45
0.0
1001
ACAD
1000
AcDbSavedByObjectVersion
1070
     0
  0
VISUALSTYLE
  5
1FF5
102
{ACAD_XDICTIONARY
360
3224
102
}
102
{ACAD_REACTORS
330
1FF0
102
}
330
1FF0
100
AcDbVisualStyle
  2
Basic
 70
     7
 71
     1
 72
     0
 73
     1
 90
        0
 40
-0.6
 41
-30.0
 62
     5
 63
     7
 74
     0
 91
        4
 64
     7
 65
   257
 75
     1
175
     1
 42
1.0
 92
        8
 66
     7
 43
1.0
 76
     1
 77
     6
 78
     2
 67
     7
 79
     5
170
     0
171
     0
290
     0
174
     0
 93
        1
 44
0.0
173
     0
291
     1
 45
0.0
1001
ACAD
1000
AcDbSavedByObjectVersion
1070
     0
  0
VISUALSTYLE
  5
1FFC
102
{ACAD_XDICTIONARY
360
3232
102
}
102
{ACAD_REACTORS
330
1FF0
102
}
330
1FF0
100
AcDbVisualStyle
  2
Brighten
 70
    12
 71
     2
 72
     2
 73
     0
 90
        0
 40
-0.6
 41
-30.0
 62
     5
 63
     7
 74
     1
 91
        4
 64
     7
 65
   257
 75
     1
175
     1
 42
1.0
 92
        8
 66
     7
 43
1.0
 76
     1
 77
     6
 78
     2
 67
     7
 79
     5
170
     0
171
     0
290
     0
174
     0
 93
        1
 44
50.0
173
     0
291
     1
 45
0.0
1001
ACAD
1000
AcDbSavedByObjectVersion
1070
     0
  0
VISUALSTYLE
  5
2000
102
{ACAD_XDICTIONARY
360
323A
102
}
102
{ACAD_REACTORS
330
1FF0
102
}
330
1FF0
100
AcDbVisualStyle
  2
ColorChange
 70
    16
 71
     2
 72
     2
 73
     3
 90
        0
 40
-0.6
 41
-30.0
 62
     5
 63
     8
 74
     1
 91
        4
 64
     7
 65
   257
 75
     1
175
     1
 42
1.0
 92
        8
 66
     8
 43
1.0
 76
     1
 77
     6
 78
     2
 67
     7
 79
     5
170
     0
171
     0
290
     0
174
     0
 93
        1
 44
0.0
173
     0
291
     1
 45
0.0
1001
ACAD
1000
AcDbSavedByObjectVersion
1070
     0
  0
VISUALSTYLE
  5
1FF9
102
{ACAD_XDICTIONARY
360
322C
102
}
102
{ACAD_REACTORS
330
1FF0
102
}
330
1FF0
100
AcDbVisualStyle
  2
Conceptual
 70
     9
 71
     3
 72
     2
 73
     0
 90
        0
 40
-0.6
 41
-30.0
 62
     5
 63
     7
 74
     2
 91
        2
 64
     7
 65
   257
 75
     1
175
     1
 42
179.0
 92
        8
 66
     7
 43
1.0
 76
     1
 77
     6
 78
     2
 67
     7
 79
     3
170
     0
171
     0
290
     0
174
     0
 93
        1
 44
0.0
173
     0
291
     0
 45
0.0
1001
ACAD
1000
AcDbSavedByObjectVersion
1070
     0
  0
VISUALSTYLE
  5
1FFB
102
{ACAD_XDICTIONARY
360
3230
102
}
102
{ACAD_REACTORS
330
1FF0
102
}
330
1FF0
100
AcDbVisualStyle
  2
Dim
 70
    11
 71
     2
 72
     2
 73
     0
 90
        0
 40
-0.6
 41
-30.0
 62
     5
 63
     7
 74
     1
 91
        4
 64
     7
 65
   257
 75
     1
175
     1
 42
1.0
 92
        8
 66
     7
 43
1.0
 76
     1
 77
     6
 78
     2
 67
     7
 79
     5
170
     0
171
     0
290
     0
174
     0
 93
        1
 44
-50.0
173
     0
291
     1
 45
0.0
1001
ACAD
1000
AcDbSavedByObjectVersion
1070
     0
  0
VISUALSTYLE
  5
2008
102
{ACAD_XDICTIONARY
360
324A
102
}
102
{ACAD_REACTORS
330
1FF0
102
}
330
1FF0
100
AcDbVisualStyle
  2
EdgeColorOff
 70
    22
 71
     2
 72
     2
 73
     0
 90
        0
 40
-0.6
 41
-30.0
 62
     5
 63
     7
 74
     1
 91
        4
 64
     7
 65
   257
 75
     1
175
     1
 42
1.0
 92
        8
 66
     7
 43
1.0
 76
     1
 77
     6
 78
     2
 67
     7
 79
     5
170
     0
171
     0
290
     0
174
     0
 93
        1
 44
0.0
173
     0
291
     1
 45
0.0
1001
ACAD
1000
AcDbSavedByObjectVersion
1070
     0
  0
VISUALSTYLE
  5
1FFF
102
{ACAD_XDICTIONARY
360
3238
102
}
102
{ACAD_REACTORS
330
1FF0
102
}
330
1FF0
100
AcDbVisualStyle
  2
Facepattern
 70
    15
 71
     2
 72
     2
 73
     0
 90
        0
 40
-0.6
 41
-30.0
 62
     5
 63
     7
 74
     1
 91
        4
 64
     7
 65
   257
 75
     1
175
     1
 42
1.0
 92
        8
 66
     7
 43
1.0
 76
     1
 77
     6
 78
     2
 67
     7
 79
     5
170
     0
171
     0
290
     0
174
     0
 93
        1
 44
0.0
173
     0
291
     1
 45
0.0
1001
ACAD
1000
AcDbSavedByObjectVersion
1070
     0
  0
VISUALSTYLE
  5
1FF1
102
{ACAD_XDICTIONARY
360
321C
102
}
102
{ACAD_REACTORS
330
1FF0
102
}
330
1FF0
100
AcDbVisualStyle
  2
Flat
 70
     0
 71
     2
 72
     1
 73
     1
 90
        2
 40
-0.6
 41
30.0
 62
     5
 63
     7
 74
     0
 91
        0
 64
     7
 65
   257
 75
     1
175
     1
 42
1.0
 92
        8
 66
     7
 43
1.0
 76
     1
 77
     6
 78
     2
 67
     7
 79
     5
170
     0
171
     0
290
     0
174
     0
 93
       13
 44
0.0
173
     0
291
     1
 45
0.0
1001
ACAD
1000
AcDbSavedByObjectVersion
1070
     0
  0
VISUALSTYLE
  5
1FF2
102
{ACAD_XDICTIONARY
360
321E
102
}
102
{ACAD_REACTORS
330
1FF0
102
}
330
1FF0
100
AcDbVisualStyle
  2
FlatWithEdges
 70
     1
 71
     2
 72
     1
 73
     1
 90
        2
 40
-0.6
 41
30.0
 62
     5
 63
     7
 74
     1
 91
        0
 64
     7
 65
   257
 75
     1
175
     1
 42
1.0
 92
        0
 66
   257
 43
1.0
 76
     1
 77
     6
 78
     2
 67
     7
 79
     5
170
     0
171
     0
290
     0
174
     0
 93
       13
 44
0.0
173
     0
291
     1
 45
0.0
1001
ACAD
1000
AcDbSavedByObjectVersion
1070
     0
  0
VISUALSTYLE
  5
1FF3
102
{ACAD_XDICTIONARY
360
3220
102
}
102
{ACAD_REACTORS
330
1FF0
102
}
330
1FF0
100
AcDbVisualStyle
  2
Gouraud
 70
     2
 71
     2
 72
     2
 73
     1
 90
        2
 40
-0.6
 41
30.0
 62
     5
 63
     7
 74
     0
 91
        0
 64
     7
 65
   257
 75
     1
175
     1
 42
1.0
 92
        0
 66
     7
 43
1.0
 76
     1
 77
     6
 78
     2
 67
     7
 79
     5
170
     0
171
     0
290
     0
174
     0
 93
       13
 44
0.0
173
     0
291
     1
 45
0.0
1001
ACAD
1000
AcDbSavedByObjectVersion
1070
     0
  0
VISUALSTYLE
  5
1FF4
102
{ACAD_XDICTIONARY
360
3222
102
}
102
{ACAD_REACTORS
330
1FF0
102
}
330
1FF0
100
AcDbVisualStyle
  2
GouraudWithEdges
 70
     3
 71
     2
 72
     2
 73
     1
 90
        2
 40
-0.6
 41
30.0
 62
     5
 63
     7
 74
     1
 91
        0
 64
     7
 65
   257
 75
     1
175
     1
 42
1.0
 92
        0
 66
   257
 43
1.0
 76
     1
 77
     6
 78
     2
 67
     7
 79
     5
170
     0
171
     0
290
     0
174
     0
 93
       13
 44
0.0
173
     0
291
     1
 45
0.0
1001
ACAD
1000
AcDbSavedByObjectVersion
1070
     0
  0
VISUALSTYLE
  5
1FF8
102
{ACAD_XDICTIONARY
360
322A
102
}
102
{ACAD_REACTORS
330
1FF0
102
}
330
1FF0
100
AcDbVisualStyle
  2
Hidden
 70
     6
 71
     1
 72
     2
 73
     2
 90
        0
 40
-0.6
 41
-30.0
 62
     5
 63
     7
 74
     2
 91
        2
 64
     7
 65
   257
 75
     2
175
     1
 42
40.0
 92
        0
 66
   257
 43
1.0
 76
     1
 77
     6
 78
     2
 67
     7
 79
     3
170
     0
171
     0
290
     0
174
     0
 93
        1
 44
0.0
173
     0
291
     0
 45
0.0
1001
ACAD
1000
AcDbSavedByObjectVersion
1070
     0
  0
VISUALSTYLE
  5
2006
102
{ACAD_XDICTIONARY
360
3246
102
}
102
{ACAD_REACTORS
330
1FF0
102
}
330
1FF0
100
AcDbVisualStyle
  2
JitterOff
 70
    20
 71
     2
 72
     2
 73
     0
 90
        0
 40
-0.6
 41
-30.0
 62
     5
 63
     7
 74
     1
 91
        4
 64
     7
 65
   257
 75
     1
175
     1
 42
1.0
 92
       10
 66
     7
 43
1.0
 76
     1
 77
     6
 78
     2
 67
     7
 79
     5
170
     0
171
     0
290
     0
174
     0
 93
        1
 44
0.0
173
     0
291
     1
 45
0.0
1001
ACAD
1000
AcDbSavedByObjectVersion
1070
     0
  0
VISUALSTYLE
  5
1FFE
102
{ACAD_XDICTIONARY
360
3236
102
}
102
{ACAD_REACTORS
330
1FF0
102
}
330
1FF0
100
AcDbVisualStyle
  2
Linepattern
 70
    14
 71
     2
 72
     2
 73
     0
 90
        0
 40
-0.6
 41
-30.0
 62
     5
 63
     7
 74
     1
 91
        4
 64
     7
 65
   257
 75
     7
175
     7
 42
1.0
 92
        8
 66
     7
 43
1.0
 76
     1
 77
     6
 78
     2
 67
     7
 79
     5
170
     0
171
     0
290
     0
174
     0
 93
        1
 44
0.0
173
     0
291
     1
 45
0.0
1001
ACAD
1000
AcDbSavedByObjectVersion
1070
     0
  0
VISUALSTYLE
  5
2007
102
{ACAD_XDICTIONARY
360
3248
102
}
102
{ACAD_REACTORS
330
1FF0
102
}
330
1FF0
100
AcDbVisualStyle
  2
OverhangOff
 70
    21
 71
     2
 72
     2
 73
     0
 90
        0
 40
-0.6
 41
-30.0
 62
     5
 63
     7
 74
     1
 91
        4
 64
     7
 65
   257
 75
     1
175
     1
 42
1.0
 92
        9
 66
     7
 43
1.0
 76
     1
 77
     6
 78
     2
 67
     7
 79
     5
170
     0
171
     0
290
     0
174
     0
 93
        1
 44
0.0
173
     0
291
     1
 45
0.0
1001
ACAD
1000
AcDbSavedByObjectVersion
1070
     0
  0
VISUALSTYLE
  5
1FFA
102
{ACAD_XDICTIONARY
360
322E
102
}
102
{ACAD_REACTORS
330
1FF0
102
}
330
1FF0
100
AcDbVisualStyle
  2
Realistic
 70
     8
 71
     2
 72
     3
 73
     0
 90
        2
 40
-0.6
 41
30.0
 62
     5
 63
     7
 74
     0
 91
        0
 64
     7
 65
   257
 75
     1
175
     1
 42
1.0
 92
        8
 66
   257
 43
1.0
 76
     1
 77
     6
 78
     2
 67
     7
 79
     3
170
     0
171
     0
290
     0
174
     0
 93
       13
 44
0.0
173
     0
291
     0
 45
0.0
1001
ACAD
1000
AcDbSavedByObjectVersion
1070
     0
  0
VISUALSTYLE
  5
2005
102
{ACAD_XDICTIONARY
360
3244
102
}
102
{ACAD_REACTORS
330
1FF0
102
}
330
1FF0
100
AcDbVisualStyle
  2
Shaded
 70
    27
 71
     2
 72
     2
 73
     1
 90
        2
 40
-0.6
 41
30.0
 62
     5
 63
     7
 74
     0
 91
        4
 64
     7
 65
   257
 75
     1
175
     1
 42
1.0
 92
        8
 66
   257
 43
1.0
 76
     1
 77
     6
 78
     2
 67
     8
 79
     3
170
     0
171
     0
290
     0
174
     0
 93
        5
 44
0.0
173
     0
291
     0
 45
0.0
1001
ACAD
1000
AcDbSavedByObjectVersion
1070
     0
  0
VISUALSTYLE
  5
2004
102
{ACAD_XDICTIONARY
360
3242
102
}
102
{ACAD_REACTORS
330
1FF0
102
}
330
1FF0
100
AcDbVisualStyle
  2
Shaded with edges
 70
    26
 71
     2
 72
     2
 73
     1
 90
        2
 40
-0.6
 41
30.0
 62
     5
 63
     7
 74
     1
 91
       10
 64
     7
 65
   257
 75
     2
175
     1
 42
1.0
 92
        8
 66
   257
 43
1.0
 76
     1
 77
     6
 78
     2
 67
     7
 79
     3
170
     0
171
     0
290
     0
174
     0
 93
        5
 44
0.0
173
     0
291
     0
 45
0.0
1001
ACAD
1000
AcDbSavedByObjectVersion
1070
     0
  0
VISUALSTYLE
  5
2001
102
{ACAD_XDICTIONARY
360
323C
102
}
102
{ACAD_REACTORS
330
1FF0
102
}
330
1FF0
100
AcDbVisualStyle
  2
Shades of Gray
 70
    23
 71
     2
 72
     2
 73
     3
 90
        0
 40
-0.6
 41
-30.0
 62
     5
 63
     7
 74
     2
 91
        2
 64
     7
 65
     7
 75
     1
175
     1
 42
40.0
 92
        8
 66
     7
 43
1.0
 76
     1
 77
     6
 78
     2
 67
     7
 79
     3
170
     0
171
     0
290
     0
174
     0
 93
        1
 44
0.0
173
     0
291
     0
 45
0.0
1001
ACAD
1000
AcDbSavedByObjectVersion
1070
     0
  0
VISUALSTYLE
  5
2002
102
{ACAD_XDICTIONARY
360
323E
102
}
102
{ACAD_REACTORS
330
1FF0
102
}
330
1FF0
100
AcDbVisualStyle
  2
Sketchy
 70
    24
 71
     1
 72
     2
 73
     2
 90
        0
 40
-0.6
 41
-30.0
 62
     5
 63
     7
 74
     2
 91
        2
 64
     7
 65
     7
 75
     1
175
     1
 42
40.0
 92
       11
 66
     7
 43
1.0
 76
     1
 77
     6
 78
     2
 67
     7
 79
     6
170
     0
171
     0
290
     0
174
     0
 93
        1
 44
0.0
173
     0
291
     0
 45
0.0
1001
ACAD
1000
AcDbSavedByObjectVersion
1070
     0
  0
VISUALSTYLE
  5
1FFD
102
{ACAD_XDICTIONARY
360
3234
102
}
102
{ACAD_REACTORS
330
1FF0
102
}
330
1FF0
100
AcDbVisualStyle
  2
Thicken
 70
    13
 71
     2
 72
     2
 73
     0
 90
        0
 40
-0.6
 41
-30.0
 62
     5
 63
     7
 74
     1
 91
        4
 64
     7
 65
   257
 75
     1
175
     1
 42
1.0
 92
       12
 66
     7
 43
1.0
 76
     1
 77
     6
 78
     2
 67
     7
 79
     5
170
     0
171
     0
290
     0
174
     0
 93
        1
 44
0.0
173
     0
291
     1
 45
0.0
1001
ACAD
1000
AcDbSavedByObjectVersion
1070
     0
  0
VISUALSTYLE
  5
1FF7
102
{ACAD_XDICTIONARY
360
3228
102
}
102
{ACAD_REACTORS
330
1FF0
102
}
330
1FF0
100
AcDbVisualStyle
  2
Wireframe
 70
     5
 71
     0
 72
     2
 73
     0
 90
        0
 40
-0.6
 41
-30.0
 62
     5
 63
     7
 74
     1
 91
        4
 64
     7
 65
   257
 75
     1
175
     1
 42
1.0
 92
        0
 66
   257
 43
1.0
 76
     1
 77
     6
 78
     2
 67
     7
 79
     3
170
     0
171
     0
290
     0
174
     0
 93
        1
 44
0.0
173
     0
291
     0
 45
0.0
1001
ACAD
1000
AcDbSavedByObjectVersion
1070
     0
  0
VISUALSTYLE
  5
2003
102
{ACAD_XDICTIONARY
360
3240
102
}
102
{ACAD_REACTORS
330
1FF0
102
}
330
1FF0
100
AcDbVisualStyle
  2
X-Ray
 70
    25
 71
     2
 72
     2
 73
     1
 90
        1
 40
0.5
 41
-30.0
 62
     5
 63
     7
 74
     1
 91
        0
 64
     7
 65
   257
 75
     1
175
     1
 42
1.0
 92
        8
 66
     7
 43
1.0
 76
     1
 77
     6
 78
     2
 67
     7
 79
     3
170
     0
171
     0
290
     0
174
     0
 93
       13
 44
0.0
173
     0
291
     0
 45
0.0
1001
ACAD
1000
AcDbSavedByObjectVersion
1070
     0
  0
DICTIONARYVAR
  5
2090
102
{ACAD_REACTORS
330
17B5
102
}
330
17B5
100
DictionaryVariables
280
     0
  1
1:1
  0
DICTIONARYVAR
  5
208C
102
{ACAD_REACTORS
330
17B5
102
}
330
17B5
100
DictionaryVariables
280
     0
  1
STANDARD
  0
DICTIONARYVAR
  5
17B6
102
{ACAD_REACTORS
330
17B5
102
}
330
17B5
100
DictionaryVariables
280
     0
  1
STANDARD
  0
DICTIONARYVAR
  5
208D
102
{ACAD_REACTORS
330
17B5
102
}
330
17B5
100
DictionaryVariables
280
     0
  1
Imperial24
  0
DICTIONARYVAR
  5
208E
102
{ACAD_REACTORS
330
17B5
102
}
330
17B5
100
DictionaryVariables
280
     0
  1
Imperial24
  0
DICTIONARYVAR
  5
1C49
102
{ACAD_REACTORS
330
17B5
102
}
330
17B5
100
DictionaryVariables
280
     0
  1
1
  0
DICTIONARYVAR
  5
31B5
102
{ACAD_REACTORS
330
17B5
102
}
330
17B5
100
DictionaryVariables
280
     0
  1
0
  0
DICTIONARYVAR
  5
2092
102
{ACAD_REACTORS
330
17B5
102
}
330
17B5
100
DictionaryVariables
280
     0
  1
1
  0
DICTIONARYVAR
  5
2093
102
{ACAD_REACTORS
330
17B5
102
}
330
17B5
100
DictionaryVariables
280
     0
  1
15
  0
DICTIONARYVAR
  5
2091
102
{ACAD_REACTORS
330
17B5
102
}
330
17B5
100
DictionaryVariables
280
     0
  1
0
  0
DICTIONARYVAR
  5
208F
102
{ACAD_REACTORS
330
17B5
102
}
330
17B5
100
DictionaryVariables
280
     0
  1
0
  0
DICTIONARYVAR
  5
1C4A
102
{ACAD_REACTORS
330
17B5
102
}
330
17B5
100
DictionaryVariables
280
     0
  1

  0
DICTIONARYVAR
  5
31B4
102
{ACAD_REACTORS
330
17B5
102
}
330
17B5
100
DictionaryVariables
280
     0
  1
127
  0
DICTIONARYVAR
  5
31B6
102
{ACAD_REACTORS
330
17B5
102
}
330
17B5
100
DictionaryVariables
280
     0
  1
2
  0
DICTIONARY
  5
3213
102
{ACAD_REACTORS
330
3211
102
}
330
3211
100
AcDbDictionary
281
     1
  0
DICTIONARY
  5
3212
102
{ACAD_REACTORS
330
3211
102
}
330
3211
100
AcDbDictionary
281
     1
  3
8796086843840
350
320C
  3
8796086843856
350
320D
  3
8796086843872
350
320E
  3
8796086843888
350
320F
  3
8796086843904
350
3210
  0
DICTIONARY
  5
2089
330
2020
100
AcDbDictionary
280
     1
281
     1
  3
ACAD_XREC_ROUNDTRIP
360
324E
  0
DICTIONARY
  5
3216
330
21
100
AcDbDictionary
280
     1
281
     1
  3
ACAD_XREC_ROUNDTRIP
360
3217
  0
DICTIONARY
  5
3214
330
1D
100
AcDbDictionary
280
     1
281
     1
  3
ACAD_XREC_ROUNDTRIP
360
3215
  0
DICTIONARY
  5
1FE1
330
1FE0
100
AcDbDictionary
280
     1
281
     1
  3
ACAD_XREC_ROUNDTRIP
360
321A
  3
BUMPTILE
360
1FE3
  3
DIFFUSETILE
360
1FE2
  3
OPACITYTILE
360
1FE6
  3
REFLECTIONTILE
360
1FE5
  3
REFRACTIONTILE
360
1FE7
  3
SPECULARTILE
360
1FE4
  0
DICTIONARY
  5
1FD9
330
1FD8
100
AcDbDictionary
280
     1
281
     1
  3
ACAD_XREC_ROUNDTRIP
360
3219
  3
BUMPTILE
360
1FDB
  3
DIFFUSETILE
360
1FDA
  3
OPACITYTILE
360
1FDE
  3
REFLECTIONTILE
360
1FDD
  3
REFRACTIONTILE
360
1FDF
  3
SPECULARTILE
360
1FDC
  0
DICTIONARY
  5
1FE9
330
1FE8
100
AcDbDictionary
280
     1
281
     1
  3
ACAD_XREC_ROUNDTRIP
360
321B
  3
BUMPTILE
360
1FEB
  3
DIFFUSETILE
360
1FEA
  3
OPACITYTILE
360
1FEE
  3
REFLECTIONTILE
360
1FED
  3
REFRACTIONTILE
360
1FEF
  3
SPECULARTILE
360
1FEC
  0
DICTIONARY
  5
2087
330
201E
100
AcDbDictionary
280
     1
281
     1
  3
ACAD_XREC_ROUNDTRIP
360
324D
  0
DICTIONARY
  5
3208
330
17A6
100
AcDbDictionary
280
     1
281
     1
  3
ACAD_ROUNDTRIP_2008_TABLESTYLE_CELLSTYLEMAP
360
3209
  3
ACAD_XREC_ROUNDTRIP
360
3218
  0
DICTIONARY
  5
3226
330
1FF6
100
AcDbDictionary
280
     1
281
     1
  3
ACAD_XREC_ROUNDTRIP
360
3227
  0
DICTIONARY
  5
3224
330
1FF5
100
AcDbDictionary
280
     1
281
     1
  3
ACAD_XREC_ROUNDTRIP
360
3225
  0
DICTIONARY
  5
3232
330
1FFC
100
AcDbDictionary
280
     1
281
     1
  3
ACAD_XREC_ROUNDTRIP
360
3233
  0
DICTIONARY
  5
323A
330
2000
100
AcDbDictionary
280
     1
281
     1
  3
ACAD_XREC_ROUNDTRIP
360
323B
  0
DICTIONARY
  5
322C
330
1FF9
100
AcDbDictionary
280
     1
281
     1
  3
ACAD_XREC_ROUNDTRIP
360
322D
  0
DICTIONARY
  5
3230
330
1FFB
100
AcDbDictionary
280
     1
281
     1
  3
ACAD_XREC_ROUNDTRIP
360
3231
  0
DICTIONARY
  5
324A
330
2008
100
AcDbDictionary
280
     1
281
     1
  3
ACAD_XREC_ROUNDTRIP
360
324B
  0
DICTIONARY
  5
3238
330
1FFF
100
AcDbDictionary
280
     1
281
     1
  3
ACAD_XREC_ROUNDTRIP
360
3239
  0
DICTIONARY
  5
321C
330
1FF1
100
AcDbDictionary
280
     1
281
     1
  3
ACAD_XREC_ROUNDTRIP
360
321D
  0
DICTIONARY
  5
321E
330
1FF2
100
AcDbDictionary
280
     1
281
     1
  3
ACAD_XREC_ROUNDTRIP
360
321F
  0
DICTIONARY
  5
3220
330
1FF3
100
AcDbDictionary
280
     1
281
     1
  3
ACAD_XREC_ROUNDTRIP
360
3221
  0
DICTIONARY
  5
3222
330
1FF4
100
AcDbDictionary
280
     1
281
     1
  3
ACAD_XREC_ROUNDTRIP
360
3223
  0
DICTIONARY
  5
322A
330
1FF8
100
AcDbDictionary
280
     1
281
     1
  3
ACAD_XREC_ROUNDTRIP
360
322B
  0
DICTIONARY
  5
3246
330
2006
100
AcDbDictionary
280
     1
281
     1
  3
ACAD_XREC_ROUNDTRIP
360
3247
  0
DICTIONARY
  5
3236
330
1FFE
100
AcDbDictionary
280
     1
281
     1
  3
ACAD_XREC_ROUNDTRIP
360
3237
  0
DICTIONARY
  5
3248
330
2007
100
AcDbDictionary
280
     1
281
     1
  3
ACAD_XREC_ROUNDTRIP
360
3249
  0
DICTIONARY
  5
322E
330
1FFA
100
AcDbDictionary
280
     1
281
     1
  3
ACAD_XREC_ROUNDTRIP
360
322F
  0
DICTIONARY
  5
3244
330
2005
100
AcDbDictionary
280
     1
281
     1
  3
ACAD_XREC_ROUNDTRIP
360
3245
  0
DICTIONARY
  5
3242
330
2004
100
AcDbDictionary
280
     1
281
     1
  3
ACAD_XREC_ROUNDTRIP
360
3243
  0
DICTIONARY
  5
323C
330
2001
100
AcDbDictionary
280
     1
281
     1
  3
ACAD_XREC_ROUNDTRIP
360
323D
  0
DICTIONARY
  5
323E
330
2002
100
AcDbDictionary
280
     1
281
     1
  3
ACAD_XREC_ROUNDTRIP
360
323F
  0
DICTIONARY
  5
3234
330
1FFD
100
AcDbDictionary
280
     1
281
     1
  3
ACAD_XREC_ROUNDTRIP
360
3235
  0
DICTIONARY
  5
3228
330
1FF7
100
AcDbDictionary
280
     1
281
     1
  3
ACAD_XREC_ROUNDTRIP
360
3229
  0
DICTIONARY
  5
3240
330
2003
100
AcDbDictionary
280
     1
281
     1
  3
ACAD_XREC_ROUNDTRIP
360
3241
  0
XRECORD
  5
320C
102
{ACAD_REACTORS
330
3212
102
}
330
3212
100
AcDbXrecord
280
     1
  1
AcDb_Thumbnail_Schema
102
{ATTRRECORD
341
320D
  2
AcDbDs::TreatedAsObjectData
280
     1
291
     1
102
ATTRRECORD}
102
{ATTRRECORD
341
320E
  2
AcDbDs::Legacy
280
     1
291
     1
102
ATTRRECORD}
  2
AcDbDs::ID
280
    10
 91
        8
102
{ATTRRECORD
341
320F
  2
AcDs:Indexable
280
     1
291
     1
102
ATTRRECORD}
102
{ATTRRECORD
341
3210
  2
AcDbDs::HandleAttribute
280
     7
282
     1
102
ATTRRECORD}
  2
Thumbnail_Data
280
    15
 91
        0
  0
XRECORD
  5
320D
102
{ACAD_REACTORS
330
3212
102
}
330
3212
100
AcDbXrecord
280
     1
  1
AcDbDs::TreatedAsObjectDataSchema
  2
AcDbDs::TreatedAsObjectData
280
     1
 91
        0
  0
XRECORD
  5
320E
102
{ACAD_REACTORS
330
3212
102
}
330
3212
100
AcDbXrecord
280
     1
  1
AcDbDs::LegacySchema
  2
AcDbDs::Legacy
280
     1
 91
        0
  0
XRECORD
  5
320F
102
{ACAD_REACTORS
330
3212
102
}
330
3212
100
AcDbXrecord
280
     1
  1
AcDbDs::IndexedPropertySchema
  2
AcDs:Indexable
280
     1
 91
        0
  0
XRECORD
  5
3210
102
{ACAD_REACTORS
330
3212
102
}
330
3212
100
AcDbXrecord
280
     1
  1
AcDbDs::HandleAttributeSchema
  2
AcDbDs::HandleAttribute
280
     7
 91
        1
284
     1
  0
XRECORD
  5
324E
102
{ACAD_REACTORS
330
2089
102
}
330
2089
100
AcDbXrecord
280
     1
102
DISPLAYNAME
  1
Imperial24
102
FLAGS
 90
        0
  0
XRECORD
  5
3217
102
{ACAD_REACTORS
330
3216
102
}
330
3216
100
AcDbXrecord
280
     1
102
SHADEPLOT
 70
     0
102
SHADEPLOTRESLEVEL
 70
     2
102
SHADEPLOTCUSTOMDPI
 70
   300
  0
XRECORD
  5
3215
102
{ACAD_REACTORS
330
3214
102
}
330
3214
100
AcDbXrecord
280
     1
102
SHADEPLOT
 70
     0
102
SHADEPLOTRESLEVEL
 70
     2
102
SHADEPLOTCUSTOMDPI
 70
   300
  0
XRECORD
  5
321A
102
{ACAD_REACTORS
330
1FE1
102
}
330
1FE1
100
AcDbXrecord
280
     1
102
MATERIAL
148
0.0
149
0.0
149
0.0
 93
        0
 94
      127
282
     0
 72
     0
 77
     0
171
     0
175
     0
179
     0
273
     0
  0
XRECORD
  5
1FE3
102
{ACAD_REACTORS
330
1FE1
102
}
330
1FE1
100
AcDbXrecord
280
     1
270
     1
271
     1
  0
XRECORD
  5
1FE2
102
{ACAD_REACTORS
330
1FE1
102
}
330
1FE1
100
AcDbXrecord
280
     1
270
     1
271
     1
  0
XRECORD
  5
1FE6
102
{ACAD_REACTORS
330
1FE1
102
}
330
1FE1
100
AcDbXrecord
280
     1
270
     1
271
     1
  0
XRECORD
  5
1FE5
102
{ACAD_REACTORS
330
1FE1
102
}
330
1FE1
100
AcDbXrecord
280
     1
270
     1
271
     1
  0
XRECORD
  5
1FE7
102
{ACAD_REACTORS
330
1FE1
102
}
330
1FE1
100
AcDbXrecord
280
     1
270
     1
271
     1
  0
XRECORD
  5
1FE4
102
{ACAD_REACTORS
330
1FE1
102
}
330
1FE1
100
AcDbXrecord
280
     1
270
     1
271
     1
  0
XRECORD
  5
3219
102
{ACAD_REACTORS
330
1FD9
102
}
330
1FD9
100
AcDbXrecord
280
     1
102
MATERIAL
148
0.0
149
0.0
149
0.0
 93
        0
 94
      127
282
     0
 72
     0
 77
     0
171
     0
175
     0
179
     0
273
     0
  0
XRECORD
  5
1FDB
102
{ACAD_REACTORS
330
1FD9
102
}
330
1FD9
100
AcDbXrecord
280
     1
270
     1
271
     1
  0
XRECORD
  5
1FDA
102
{ACAD_REACTORS
330
1FD9
102
}
330
1FD9
100
AcDbXrecord
280
     1
270
     1
271
     1
  0
XRECORD
  5
1FDE
102
{ACAD_REACTORS
330
1FD9
102
}
330
1FD9
100
AcDbXrecord
280
     1
270
     1
271
     1
  0
XRECORD
  5
1FDD
102
{ACAD_REACTORS
330
1FD9
102
}
330
1FD9
100
AcDbXrecord
280
     1
270
     1
271
     1
  0
XRECORD
  5
1FDF
102
{ACAD_REACTORS
330
1FD9
102
}
330
1FD9
100
AcDbXrecord
280
     1
270
     1
271
     1
  0
XRECORD
  5
1FDC
102
{ACAD_REACTORS
330
1FD9
102
}
330
1FD9
100
AcDbXrecord
280
     1
270
     1
271
     1
  0
XRECORD
  5
321B
102
{ACAD_REACTORS
330
1FE9
102
}
330
1FE9
100
AcDbXrecord
280
     1
102
MATERIAL
148
0.0
149
0.0
149
0.0
 93
        0
 94
      127
282
     0
 72
     0
 77
     0
171
     0
175
     0
179
     0
273
     0
  0
XRECORD
  5
1FEB
102
{ACAD_REACTORS
330
1FE9
102
}
330
1FE9
100
AcDbXrecord
280
     1
270
     1
271
     1
  0
XRECORD
  5
1FEA
102
{ACAD_REACTORS
330
1FE9
102
}
330
1FE9
100
AcDbXrecord
280
     1
270
     1
271
     1
  0
XRECORD
  5
1FEE
102
{ACAD_REACTORS
330
1FE9
102
}
330
1FE9
100
AcDbXrecord
280
     1
270
     1
271
     1
  0
XRECORD
  5
1FED
102
{ACAD_REACTORS
330
1FE9
102
}
330
1FE9
100
AcDbXrecord
280
     1
270
     1
271
     1
  0
XRECORD
  5
1FEF
102
{ACAD_REACTORS
330
1FE9
102
}
330
1FE9
100
AcDbXrecord
280
     1
270
     1
271
     1
  0
XRECORD
  5
1FEC
102
{ACAD_REACTORS
330
1FE9
102
}
330
1FE9
100
AcDbXrecord
280
     1
270
     1
271
     1
  0
XRECORD
  5
324D
102
{ACAD_REACTORS
330
2087
102
}
330
2087
100
AcDbXrecord
280
     1
102
DISPLAYNAME
  1
Imperial24
102
FLAGS
 90
        0
  0
CELLSTYLEMAP
  5
3209
102
{ACAD_REACTORS
330
3208
102
}
330
3208
100
AcDbCellStyleMap
 90
        3
300
CELLSTYLE
  1
TABLEFORMAT_BEGIN
 90
        5
170
     1
 91
        0
 92
    32768
 62
   257
 93
        1
300
CONTENTFORMAT
  1
CONTENTFORMAT_BEGIN
 90
        0
 91
        0
 92
        4
 93
        0
300

 40
0.0
140
1.0
 94
        5
 62
     0
340
11
144
0.25
309
CONTENTFORMAT_END
171
     0
 94
        6
 95
        1
302
GRIDFORMAT
  1
GRIDFORMAT_BEGIN
 90
        0
 91
        1
 62
     0
 92
       -2
340
0
 93
        0
 40
0.045
309
GRIDFORMAT_END
 95
        2
302
GRIDFORMAT
  1
GRIDFORMAT_BEGIN
 90
        0
 91
        1
 62
     0
 92
       -2
340
0
 93
        0
 40
0.045
309
GRIDFORMAT_END
 95
        4
302
GRIDFORMAT
  1
GRIDFORMAT_BEGIN
 90
        0
 91
        1
 62
     0
 92
       -2
340
0
 93
        0
 40
0.045
309
GRIDFORMAT_END
 95
        8
302
GRIDFORMAT
  1
GRIDFORMAT_BEGIN
 90
        0
 91
        1
 62
     0
 92
       -2
340
0
 93
        0
 40
0.045
309
GRIDFORMAT_END
 95
       16
302
GRIDFORMAT
  1
GRIDFORMAT_BEGIN
 90
        0
 91
        1
 62
     0
 92
       -2
340
0
 93
        0
 40
0.045
309
GRIDFORMAT_END
 95
       32
302
GRIDFORMAT
  1
GRIDFORMAT_BEGIN
 90
        0
 91
        1
 62
     0
 92
       -2
340
0
 93
        0
 40
0.045
309
GRIDFORMAT_END
309
TABLEFORMAT_END
  1
CELLSTYLE_BEGIN
 90
        1
 91
        1
300
_TITLE
309
CELLSTYLE_END
300
CELLSTYLE
  1
TABLEFORMAT_BEGIN
 90
        5
170
     1
 91
        0
 92
        0
 62
   257
 93
        1
300
CONTENTFORMAT
  1
CONTENTFORMAT_BEGIN
 90
        0
 91
        0
 92
        4
 93
        0
300

 40
0.0
140
1.0
 94
        5
 62
     0
340
11
144
0.18
309
CONTENTFORMAT_END
171
     0
 94
        6
 95
        1
302
GRIDFORMAT
  1
GRIDFORMAT_BEGIN
 90
        0
 91
        1
 62
     0
 92
       -2
340
0
 93
        0
 40
0.045
309
GRIDFORMAT_END
 95
        2
302
GRIDFORMAT
  1
GRIDFORMAT_BEGIN
 90
        0
 91
        1
 62
     0
 92
       -2
340
0
 93
        0
 40
0.045
309
GRIDFORMAT_END
 95
        4
302
GRIDFORMAT
  1
GRIDFORMAT_BEGIN
 90
        0
 91
        1
 62
     0
 92
       -2
340
0
 93
        0
 40
0.045
309
GRIDFORMAT_END
 95
        8
302
GRIDFORMAT
  1
GRIDFORMAT_BEGIN
 90
        0
 91
        1
 62
     0
 92
       -2
340
0
 93
        0
 40
0.045
309
GRIDFORMAT_END
 95
       16
302
GRIDFORMAT
  1
GRIDFORMAT_BEGIN
 90
        0
 91
        1
 62
     0
 92
       -2
340
0
 93
        0
 40
0.045
309
GRIDFORMAT_END
 95
       32
302
GRIDFORMAT
  1
GRIDFORMAT_BEGIN
 90
        0
 91
        1
 62
     0
 92
       -2
340
0
 93
        0
 40
0.045
309
GRIDFORMAT_END
309
TABLEFORMAT_END
  1
CELLSTYLE_BEGIN
 90
        2
 91
        1
300
_HEADER
309
CELLSTYLE_END
300
CELLSTYLE
  1
TABLEFORMAT_BEGIN
 90
        5
170
     1
 91
        0
 92
        0
 62
   257
 93
        1
300
CONTENTFORMAT
  1
CONTENTFORMAT_BEGIN
 90
        0
 91
        0
 92
        4
 93
        0
300

 40
0.0
140
1.0
 94
        2
 62
     0
340
11
144
0.18
309
CONTENTFORMAT_END
171
     0
 94
        6
 95
        1
302
GRIDFORMAT
  1
GRIDFORMAT_BEGIN
 90
        0
 91
        1
 62
     0
 92
       -2
340
0
 93
        0
 40
0.045
309
GRIDFORMAT_END
 95
        2
302
GRIDFORMAT
  1
GRIDFORMAT_BEGIN
 90
        0
 91
        1
 62
     0
 92
       -2
340
0
 93
        0
 40
0.045
309
GRIDFORMAT_END
 95
        4
302
GRIDFORMAT
  1
GRIDFORMAT_BEGIN
 90
        0
 91
        1
 62
     0
 92
       -2
340
0
 93
        0
 40
0.045
309
GRIDFORMAT_END
 95
        8
302
GRIDFORMAT
  1
GRIDFORMAT_BEGIN
 90
        0
 91
        1
 62
     0
 92
       -2
340
0
 93
        0
 40
0.045
309
GRIDFORMAT_END
 95
       16
302
GRIDFORMAT
  1
GRIDFORMAT_BEGIN
 90
        0
 91
        1
 62
     0
 92
       -2
340
0
 93
        0
 40
0.045
309
GRIDFORMAT_END
 95
       32
302
GRIDFORMAT
  1
GRIDFORMAT_BEGIN
 90
        0
 91
        1
 62
     0
 92
       -2
340
0
 93
        0
 40
0.045
309
GRIDFORMAT_END
309
TABLEFORMAT_END
  1
CELLSTYLE_BEGIN
 90
        3
 91
        2
300
_DATA
309
CELLSTYLE_END
  0
XRECORD
  5
3218
102
{ACAD_REACTORS
330
3208
102
}
330
3208
100
AcDbXrecord
280
     1
102
ACAD_ROUNDTRIP_PRE2007_TABLESTYLE
 90
        4
 91
        0
  1

 92
        4
 93
        0
  2

 94
        4
 95
        0
  3

  0
XRECORD
  5
3227
102
{ACAD_REACTORS
330
3226
102
}
330
3226
100
AcDbXrecord
280
     1
102
RTVSPost2010Prop28
280
     1
102
RTVSPost2010PropOp28
 70
     1
102
RTVSPost2010Prop29
280
     1
102
RTVSPost2010PropOp29
 70
     1
102
RTVSPost2010Prop30
280
     0
102
RTVSPost2010PropOp30
 70
     1
102
RTVSPost2010Prop31
280
     0
102
RTVSPost2010PropOp31
 70
     1
102
RTVSPost2010Prop32
280
     0
102
RTVSPost2010PropOp32
 70
     1
102
RTVSPost2010Prop33
280
     0
102
RTVSPost2010PropOp33
 70
     1
102
RTVSPost2010Prop34
280
     0
102
RTVSPost2010PropOp34
 70
     1
102
RTVSPost2010Prop35
280
     0
102
RTVSPost2010PropOp35
 70
     1
102
RTVSPost2010Prop36
280
     0
102
RTVSPost2010PropOp36
 70
     1
102
RTVSPost2010Prop37
 90
       50
102
RTVSPost2010PropOp37
 70
     1
102
RTVSPost2010Prop38
140
0.0
102
RTVSPost2010PropOp38
 70
     1
102
RTVSPost2010Prop39
140
1.0
102
RTVSPost2010PropOp39
 70
     1
102
RTVSPost2010Prop40
 90
        0
102
RTVSPost2010PropOp40
 70
     1
102
RTVSPost2010Prop41ColorIndex
 90
       18
102
RTVSPost2010Prop41ColorRGB
 90
        0
102
RTVSPost2010PropOp41
 70
     1
102
RTVSPost2010Prop42
 90
       50
102
RTVSPost2010PropOp42
 70
     1
102
RTVSPost2010Prop43
 90
        3
102
RTVSPost2010PropOp43
 70
     1
102
RTVSPost2010Prop44ColorIndex
 90
        5
102
RTVSPost2010Prop44ColorRGB
 90
      255
102
RTVSPost2010PropOp44
 70
     1
102
RTVSPost2010Prop45
280
     0
102
RTVSPost2010PropOp45
 70
     1
102
RTVSPost2010Prop46
 90
       50
102
RTVSPost2010PropOp46
 70
     1
102
RTVSPost2010Prop47
 90
       50
102
RTVSPost2010PropOp47
 70
     1
102
RTVSPost2010Prop48
 90
       50
102
RTVSPost2010PropOp48
 70
     1
102
RTVSPost2010Prop49
280
     0
102
RTVSPost2010PropOp49
 70
     1
102
RTVSPost2010Prop50
 90
       50
102
RTVSPost2010PropOp50
 70
     1
102
RTVSPost2010Prop51ColorIndex
 90
      256
102
RTVSPost2010Prop51ColorRGB
 90
-16777216
102
RTVSPost2010PropOp51
 70
     0
102
RTVSPost2010Prop52
140
1.0
102
RTVSPost2010PropOp52
 70
     0
102
RTVSPost2010Prop53
 90
        2
102
RTVSPost2010PropOp53
 70
     1
102
RTVSPost2010Prop54
  1
strokes_ogs.tif
102
RTVSPost2010PropOp54
 70
     1
102
RTVSPost2010Prop55
280
     0
102
RTVSPost2010PropOp55
 70
     1
102
RTVSPost2010Prop56
140
1.0
102
RTVSPost2010PropOp56
 70
     1
102
RTVSPost2010Prop57
140
1.0
102
RTVSPost2010PropOp57
 70
     1
102
RTVSPropertyOp0
 70
     1
102
RTVSPropertyOp1
 70
     1
102
RTVSPropertyOp2
 70
     1
102
RTVSPropertyOp3
 70
     1
102
RTVSPropertyOp4
 70
     1
102
RTVSPropertyOp5
 70
     1
102
RTVSPropertyOp6
 70
     1
102
RTVSPropertyOp7
 70
     1
102
RTVSPropertyOp8
 70
     1
102
RTVSPropertyOp9
 70
     1
102
RTVSPropertyOp10
 70
     1
102
RTVSPropertyOp11
 70
     1
102
RTVSPropertyOp12
 70
     1
102
RTVSPropertyOp13
 70
     1
102
RTVSPropertyOp14
 70
     1
102
RTVSPropertyOp15
 70
     1
102
RTVSPropertyOp16
 70
     1
102
RTVSPropertyOp17
 70
     1
102
RTVSPropertyOp18
 70
     1
102
RTVSPropertyOp19
 70
     1
102
RTVSPropertyOp20
 70
     1
102
RTVSPropertyOp21
 70
     1
102
RTVSPropertyOp22
 70
     1
102
RTVSPropertyOp23
 70
     1
102
RTVSPropertyOp24
 70
     1
102
RTVSPropertyOp25
 70
     1
102
RTVSPropertyOp26
 70
     1
102
RTVSPropertyOp27
 70
     1
102
RTVSPropertyOp28
 70
     1
102
RTVSPropertyOp29
 70
     1
102
RTVSPropertyOp30
 70
     1
102
RTVSPropertyOp31
 70
     1
102
RTVSPropertyOp32
 70
     1
102
RTVSPropertyOp33
 70
     1
102
RTVSPropertyOp34
 70
     1
102
RTVSPropertyOp35
 70
     1
102
RTVSPropertyOp36
 70
     1
102
RTVSPropertyOp37
 70
     1
102
RTVSPropertyOp38
 70
     1
102
RTVSPropertyOp39
 70
     1
102
RTVSPropertyOp40
 70
     1
102
RTVSPropertyOp41
 70
     1
102
RTVSPropertyOp42
 70
     1
102
RTVSPropertyOp43
 70
     1
102
RTVSPropertyOp44
 70
     1
102
RTVSPropertyOp45
 70
     1
102
RTVSPropertyOp46
 70
     1
102
RTVSPropertyOp47
 70
     1
102
RTVSPropertyOp48
 70
     1
102
RTVSPropertyOp49
 70
     1
102
RTVSPropertyOp50
 70
     1
102
RTVSPropertyOp51
 70
     0
102
RTVSPropertyOp52
 70
     0
102
RTVSPropertyOp53
 70
     1
102
RTVSPropertyOp54
 70
     1
102
RTVSPropertyOp55
 70
     1
102
RTVSPropertyOp56
 70
     1
102
RTVSPropertyOp57
 70
     1
102
RTVSPropertyOp58
 70
     1
102
RTVSPropertyOp59
 70
     1
102
RTVSPropertyOp60
 70
     1
102
RTVSPropertyOp61
 70
     1
102
RTVSPropertyOp62
 70
     1
  0
XRECORD
  5
3225
102
{ACAD_REACTORS
330
3224
102
}
330
3224
100
AcDbXrecord
280
     1
102
RTVSPost2010Prop28
280
     0
102
RTVSPost2010PropOp28
 70
     1
102
RTVSPost2010Prop29
280
     1
102
RTVSPost2010PropOp29
 70
     1
102
RTVSPost2010Prop30
280
     1
102
RTVSPost2010PropOp30
 70
     1
102
RTVSPost2010Prop31
280
     0
102
RTVSPost2010PropOp31
 70
     1
102
RTVSPost2010Prop32
280
     0
102
RTVSPost2010PropOp32
 70
     1
102
RTVSPost2010Prop33
280
     0
102
RTVSPost2010PropOp33
 70
     1
102
RTVSPost2010Prop34
280
     0
102
RTVSPost2010PropOp34
 70
     1
102
RTVSPost2010Prop35
280
     0
102
RTVSPost2010PropOp35
 70
     1
102
RTVSPost2010Prop36
280
     0
102
RTVSPost2010PropOp36
 70
     1
102
RTVSPost2010Prop37
 90
       50
102
RTVSPost2010PropOp37
 70
     1
102
RTVSPost2010Prop38
140
0.0
102
RTVSPost2010PropOp38
 70
     1
102
RTVSPost2010Prop39
140
1.0
102
RTVSPost2010PropOp39
 70
     1
102
RTVSPost2010Prop40
 90
        0
102
RTVSPost2010PropOp40
 70
     1
102
RTVSPost2010Prop41ColorIndex
 90
       18
102
RTVSPost2010Prop41ColorRGB
 90
        0
102
RTVSPost2010PropOp41
 70
     1
102
RTVSPost2010Prop42
 90
       50
102
RTVSPost2010PropOp42
 70
     1
102
RTVSPost2010Prop43
 90
        3
102
RTVSPost2010PropOp43
 70
     1
102
RTVSPost2010Prop44ColorIndex
 90
        5
102
RTVSPost2010Prop44ColorRGB
 90
      255
102
RTVSPost2010PropOp44
 70
     1
102
RTVSPost2010Prop45
280
     0
102
RTVSPost2010PropOp45
 70
     1
102
RTVSPost2010Prop46
 90
       50
102
RTVSPost2010PropOp46
 70
     1
102
RTVSPost2010Prop47
 90
       50
102
RTVSPost2010PropOp47
 70
     1
102
RTVSPost2010Prop48
 90
       50
102
RTVSPost2010PropOp48
 70
     1
102
RTVSPost2010Prop49
280
     0
102
RTVSPost2010PropOp49
 70
     1
102
RTVSPost2010Prop50
 90
       50
102
RTVSPost2010PropOp50
 70
     1
102
RTVSPost2010Prop51ColorIndex
 90
      256
102
RTVSPost2010Prop51ColorRGB
 90
-16777216
102
RTVSPost2010PropOp51
 70
     0
102
RTVSPost2010Prop52
140
1.0
102
RTVSPost2010PropOp52
 70
     0
102
RTVSPost2010Prop53
 90
        2
102
RTVSPost2010PropOp53
 70
     1
102
RTVSPost2010Prop54
  1
strokes_ogs.tif
102
RTVSPost2010PropOp54
 70
     1
102
RTVSPost2010Prop55
280
     0
102
RTVSPost2010PropOp55
 70
     1
102
RTVSPost2010Prop56
140
1.0
102
RTVSPost2010PropOp56
 70
     1
102
RTVSPost2010Prop57
140
1.0
102
RTVSPost2010PropOp57
 70
     1
102
RTVSPropertyOp0
 70
     1
102
RTVSPropertyOp1
 70
     1
102
RTVSPropertyOp2
 70
     1
102
RTVSPropertyOp3
 70
     1
102
RTVSPropertyOp4
 70
     1
102
RTVSPropertyOp5
 70
     1
102
RTVSPropertyOp6
 70
     1
102
RTVSPropertyOp7
 70
     1
102
RTVSPropertyOp8
 70
     1
102
RTVSPropertyOp9
 70
     1
102
RTVSPropertyOp10
 70
     1
102
RTVSPropertyOp11
 70
     1
102
RTVSPropertyOp12
 70
     1
102
RTVSPropertyOp13
 70
     1
102
RTVSPropertyOp14
 70
     1
102
RTVSPropertyOp15
 70
     1
102
RTVSPropertyOp16
 70
     1
102
RTVSPropertyOp17
 70
     1
102
RTVSPropertyOp18
 70
     1
102
RTVSPropertyOp19
 70
     1
102
RTVSPropertyOp20
 70
     1
102
RTVSPropertyOp21
 70
     1
102
RTVSPropertyOp22
 70
     1
102
RTVSPropertyOp23
 70
     1
102
RTVSPropertyOp24
 70
     1
102
RTVSPropertyOp25
 70
     1
102
RTVSPropertyOp26
 70
     1
102
RTVSPropertyOp27
 70
     1
102
RTVSPropertyOp28
 70
     1
102
RTVSPropertyOp29
 70
     1
102
RTVSPropertyOp30
 70
     1
102
RTVSPropertyOp31
 70
     1
102
RTVSPropertyOp32
 70
     1
102
RTVSPropertyOp33
 70
     1
102
RTVSPropertyOp34
 70
     1
102
RTVSPropertyOp35
 70
     1
102
RTVSPropertyOp36
 70
     1
102
RTVSPropertyOp37
 70
     1
102
RTVSPropertyOp38
 70
     1
102
RTVSPropertyOp39
 70
     1
102
RTVSPropertyOp40
 70
     1
102
RTVSPropertyOp41
 70
     1
102
RTVSPropertyOp42
 70
     1
102
RTVSPropertyOp43
 70
     1
102
RTVSPropertyOp44
 70
     1
102
RTVSPropertyOp45
 70
     1
102
RTVSPropertyOp46
 70
     1
102
RTVSPropertyOp47
 70
     1
102
RTVSPropertyOp48
 70
     1
102
RTVSPropertyOp49
 70
     1
102
RTVSPropertyOp50
 70
     1
102
RTVSPropertyOp51
 70
     0
102
RTVSPropertyOp52
 70
     0
102
RTVSPropertyOp53
 70
     1
102
RTVSPropertyOp54
 70
     1
102
RTVSPropertyOp55
 70
     1
102
RTVSPropertyOp56
 70
     1
102
RTVSPropertyOp57
 70
     1
102
RTVSPropertyOp58
 70
     1
102
RTVSPropertyOp59
 70
     1
102
RTVSPropertyOp60
 70
     1
102
RTVSPropertyOp61
 70
     1
102
RTVSPropertyOp62
 70
     1
  0
XRECORD
  5
3233
102
{ACAD_REACTORS
330
3232
102
}
330
3232
100
AcDbXrecord
280
     1
102
RTVSPost2010Prop28
280
     0
102
RTVSPost2010PropOp28
 70
     1
102
RTVSPost2010Prop29
280
     1
102
RTVSPost2010PropOp29
 70
     1
102
RTVSPost2010Prop30
280
     1
102
RTVSPost2010PropOp30
 70
     1
102
RTVSPost2010Prop31
280
     0
102
RTVSPost2010PropOp31
 70
     1
102
RTVSPost2010Prop32
280
     0
102
RTVSPost2010PropOp32
 70
     1
102
RTVSPost2010Prop33
280
     0
102
RTVSPost2010PropOp33
 70
     1
102
RTVSPost2010Prop34
280
     0
102
RTVSPost2010PropOp34
 70
     1
102
RTVSPost2010Prop35
280
     0
102
RTVSPost2010PropOp35
 70
     1
102
RTVSPost2010Prop36
280
     0
102
RTVSPost2010PropOp36
 70
     1
102
RTVSPost2010Prop37
 90
       50
102
RTVSPost2010PropOp37
 70
     1
102
RTVSPost2010Prop38
140
0.0
102
RTVSPost2010PropOp38
 70
     1
102
RTVSPost2010Prop39
140
1.0
102
RTVSPost2010PropOp39
 70
     1
102
RTVSPost2010Prop40
 90
        0
102
RTVSPost2010PropOp40
 70
     1
102
RTVSPost2010Prop41ColorIndex
 90
       18
102
RTVSPost2010Prop41ColorRGB
 90
        0
102
RTVSPost2010PropOp41
 70
     1
102
RTVSPost2010Prop42
 90
       50
102
RTVSPost2010PropOp42
 70
     1
102
RTVSPost2010Prop43
 90
        3
102
RTVSPost2010PropOp43
 70
     1
102
RTVSPost2010Prop44ColorIndex
 90
        5
102
RTVSPost2010Prop44ColorRGB
 90
      255
102
RTVSPost2010PropOp44
 70
     1
102
RTVSPost2010Prop45
280
     0
102
RTVSPost2010PropOp45
 70
     1
102
RTVSPost2010Prop46
 90
       50
102
RTVSPost2010PropOp46
 70
     1
102
RTVSPost2010Prop47
 90
       50
102
RTVSPost2010PropOp47
 70
     1
102
RTVSPost2010Prop48
 90
       50
102
RTVSPost2010PropOp48
 70
     1
102
RTVSPost2010Prop49
280
     0
102
RTVSPost2010PropOp49
 70
     1
102
RTVSPost2010Prop50
 90
       50
102
RTVSPost2010PropOp50
 70
     1
102
RTVSPost2010Prop51ColorIndex
 90
      256
102
RTVSPost2010Prop51ColorRGB
 90
-16777216
102
RTVSPost2010PropOp51
 70
     0
102
RTVSPost2010Prop52
140
1.0
102
RTVSPost2010PropOp52
 70
     0
102
RTVSPost2010Prop53
 90
        2
102
RTVSPost2010PropOp53
 70
     1
102
RTVSPost2010Prop54
  1
strokes_ogs.tif
102
RTVSPost2010PropOp54
 70
     1
102
RTVSPost2010Prop55
280
     0
102
RTVSPost2010PropOp55
 70
     1
102
RTVSPost2010Prop56
140
1.0
102
RTVSPost2010PropOp56
 70
     1
102
RTVSPost2010Prop57
140
1.0
102
RTVSPost2010PropOp57
 70
     1
102
RTVSPropertyOp0
 70
     1
102
RTVSPropertyOp1
 70
     1
102
RTVSPropertyOp2
 70
     1
102
RTVSPropertyOp3
 70
     1
102
RTVSPropertyOp4
 70
     1
102
RTVSPropertyOp5
 70
     1
102
RTVSPropertyOp6
 70
     1
102
RTVSPropertyOp7
 70
     1
102
RTVSPropertyOp8
 70
     1
102
RTVSPropertyOp9
 70
     1
102
RTVSPropertyOp10
 70
     1
102
RTVSPropertyOp11
 70
     1
102
RTVSPropertyOp12
 70
     1
102
RTVSPropertyOp13
 70
     1
102
RTVSPropertyOp14
 70
     1
102
RTVSPropertyOp15
 70
     1
102
RTVSPropertyOp16
 70
     1
102
RTVSPropertyOp17
 70
     1
102
RTVSPropertyOp18
 70
     1
102
RTVSPropertyOp19
 70
     1
102
RTVSPropertyOp20
 70
     1
102
RTVSPropertyOp21
 70
     1
102
RTVSPropertyOp22
 70
     1
102
RTVSPropertyOp23
 70
     1
102
RTVSPropertyOp24
 70
     1
102
RTVSPropertyOp25
 70
     1
102
RTVSPropertyOp26
 70
     1
102
RTVSPropertyOp27
 70
     1
102
RTVSPropertyOp28
 70
     1
102
RTVSPropertyOp29
 70
     1
102
RTVSPropertyOp30
 70
     1
102
RTVSPropertyOp31
 70
     1
102
RTVSPropertyOp32
 70
     1
102
RTVSPropertyOp33
 70
     1
102
RTVSPropertyOp34
 70
     1
102
RTVSPropertyOp35
 70
     1
102
RTVSPropertyOp36
 70
     1
102
RTVSPropertyOp37
 70
     1
102
RTVSPropertyOp38
 70
     1
102
RTVSPropertyOp39
 70
     1
102
RTVSPropertyOp40
 70
     1
102
RTVSPropertyOp41
 70
     1
102
RTVSPropertyOp42
 70
     1
102
RTVSPropertyOp43
 70
     1
102
RTVSPropertyOp44
 70
     1
102
RTVSPropertyOp45
 70
     1
102
RTVSPropertyOp46
 70
     1
102
RTVSPropertyOp47
 70
     1
102
RTVSPropertyOp48
 70
     1
102
RTVSPropertyOp49
 70
     1
102
RTVSPropertyOp50
 70
     1
102
RTVSPropertyOp51
 70
     0
102
RTVSPropertyOp52
 70
     0
102
RTVSPropertyOp53
 70
     1
102
RTVSPropertyOp54
 70
     1
102
RTVSPropertyOp55
 70
     1
102
RTVSPropertyOp56
 70
     1
102
RTVSPropertyOp57
 70
     1
102
RTVSPropertyOp58
 70
     1
102
RTVSPropertyOp59
 70
     1
102
RTVSPropertyOp60
 70
     1
102
RTVSPropertyOp61
 70
     1
102
RTVSPropertyOp62
 70
     1
  0
XRECORD
  5
323B
102
{ACAD_REACTORS
330
323A
102
}
330
323A
100
AcDbXrecord
280
     1
102
RTVSPost2010Prop28
280
     0
102
RTVSPost2010PropOp28
 70
     1
102
RTVSPost2010Prop29
280
     1
102
RTVSPost2010PropOp29
 70
     1
102
RTVSPost2010Prop30
280
     1
102
RTVSPost2010PropOp30
 70
     1
102
RTVSPost2010Prop31
280
     0
102
RTVSPost2010PropOp31
 70
     1
102
RTVSPost2010Prop32
280
     0
102
RTVSPost2010PropOp32
 70
     1
102
RTVSPost2010Prop33
280
     0
102
RTVSPost2010PropOp33
 70
     1
102
RTVSPost2010Prop34
280
     0
102
RTVSPost2010PropOp34
 70
     1
102
RTVSPost2010Prop35
280
     0
102
RTVSPost2010PropOp35
 70
     1
102
RTVSPost2010Prop36
280
     0
102
RTVSPost2010PropOp36
 70
     1
102
RTVSPost2010Prop37
 90
       50
102
RTVSPost2010PropOp37
 70
     1
102
RTVSPost2010Prop38
140
0.0
102
RTVSPost2010PropOp38
 70
     1
102
RTVSPost2010Prop39
140
1.0
102
RTVSPost2010PropOp39
 70
     1
102
RTVSPost2010Prop40
 90
        0
102
RTVSPost2010PropOp40
 70
     1
102
RTVSPost2010Prop41ColorIndex
 90
       18
102
RTVSPost2010Prop41ColorRGB
 90
        0
102
RTVSPost2010PropOp41
 70
     1
102
RTVSPost2010Prop42
 90
       50
102
RTVSPost2010PropOp42
 70
     1
102
RTVSPost2010Prop43
 90
        3
102
RTVSPost2010PropOp43
 70
     1
102
RTVSPost2010Prop44ColorIndex
 90
        5
102
RTVSPost2010Prop44ColorRGB
 90
      255
102
RTVSPost2010PropOp44
 70
     1
102
RTVSPost2010Prop45
280
     0
102
RTVSPost2010PropOp45
 70
     1
102
RTVSPost2010Prop46
 90
       50
102
RTVSPost2010PropOp46
 70
     1
102
RTVSPost2010Prop47
 90
       50
102
RTVSPost2010PropOp47
 70
     1
102
RTVSPost2010Prop48
 90
       50
102
RTVSPost2010PropOp48
 70
     1
102
RTVSPost2010Prop49
280
     0
102
RTVSPost2010PropOp49
 70
     1
102
RTVSPost2010Prop50
 90
       50
102
RTVSPost2010PropOp50
 70
     1
102
RTVSPost2010Prop51ColorIndex
 90
      256
102
RTVSPost2010Prop51ColorRGB
 90
-16777216
102
RTVSPost2010PropOp51
 70
     0
102
RTVSPost2010Prop52
140
1.0
102
RTVSPost2010PropOp52
 70
     0
102
RTVSPost2010Prop53
 90
        2
102
RTVSPost2010PropOp53
 70
     1
102
RTVSPost2010Prop54
  1
strokes_ogs.tif
102
RTVSPost2010PropOp54
 70
     1
102
RTVSPost2010Prop55
280
     0
102
RTVSPost2010PropOp55
 70
     1
102
RTVSPost2010Prop56
140
1.0
102
RTVSPost2010PropOp56
 70
     1
102
RTVSPost2010Prop57
140
1.0
102
RTVSPost2010PropOp57
 70
     1
102
RTVSPropertyOp0
 70
     1
102
RTVSPropertyOp1
 70
     1
102
RTVSPropertyOp2
 70
     1
102
RTVSPropertyOp3
 70
     1
102
RTVSPropertyOp4
 70
     1
102
RTVSPropertyOp5
 70
     1
102
RTVSPropertyOp6
 70
     1
102
RTVSPropertyOp7
 70
     1
102
RTVSPropertyOp8
 70
     1
102
RTVSPropertyOp9
 70
     1
102
RTVSPropertyOp10
 70
     1
102
RTVSPropertyOp11
 70
     1
102
RTVSPropertyOp12
 70
     1
102
RTVSPropertyOp13
 70
     1
102
RTVSPropertyOp14
 70
     1
102
RTVSPropertyOp15
 70
     1
102
RTVSPropertyOp16
 70
     1
102
RTVSPropertyOp17
 70
     1
102
RTVSPropertyOp18
 70
     1
102
RTVSPropertyOp19
 70
     1
102
RTVSPropertyOp20
 70
     1
102
RTVSPropertyOp21
 70
     1
102
RTVSPropertyOp22
 70
     1
102
RTVSPropertyOp23
 70
     1
102
RTVSPropertyOp24
 70
     1
102
RTVSPropertyOp25
 70
     1
102
RTVSPropertyOp26
 70
     1
102
RTVSPropertyOp27
 70
     1
102
RTVSPropertyOp28
 70
     1
102
RTVSPropertyOp29
 70
     1
102
RTVSPropertyOp30
 70
     1
102
RTVSPropertyOp31
 70
     1
102
RTVSPropertyOp32
 70
     1
102
RTVSPropertyOp33
 70
     1
102
RTVSPropertyOp34
 70
     1
102
RTVSPropertyOp35
 70
     1
102
RTVSPropertyOp36
 70
     1
102
RTVSPropertyOp37
 70
     1
102
RTVSPropertyOp38
 70
     1
102
RTVSPropertyOp39
 70
     1
102
RTVSPropertyOp40
 70
     1
102
RTVSPropertyOp41
 70
     1
102
RTVSPropertyOp42
 70
     1
102
RTVSPropertyOp43
 70
     1
102
RTVSPropertyOp44
 70
     1
102
RTVSPropertyOp45
 70
     1
102
RTVSPropertyOp46
 70
     1
102
RTVSPropertyOp47
 70
     1
102
RTVSPropertyOp48
 70
     1
102
RTVSPropertyOp49
 70
     1
102
RTVSPropertyOp50
 70
     1
102
RTVSPropertyOp51
 70
     0
102
RTVSPropertyOp52
 70
     0
102
RTVSPropertyOp53
 70
     1
102
RTVSPropertyOp54
 70
     1
102
RTVSPropertyOp55
 70
     1
102
RTVSPropertyOp56
 70
     1
102
RTVSPropertyOp57
 70
     1
102
RTVSPropertyOp58
 70
     1
102
RTVSPropertyOp59
 70
     1
102
RTVSPropertyOp60
 70
     1
102
RTVSPropertyOp61
 70
     1
102
RTVSPropertyOp62
 70
     1
  0
XRECORD
  5
322D
102
{ACAD_REACTORS
330
322C
102
}
330
322C
100
AcDbXrecord
280
     1
102
RTVSPost2010Prop28
280
     0
102
RTVSPost2010PropOp28
 70
     1
102
RTVSPost2010Prop29
280
     1
102
RTVSPost2010PropOp29
 70
     1
102
RTVSPost2010Prop30
280
     1
102
RTVSPost2010PropOp30
 70
     1
102
RTVSPost2010Prop31
280
     0
102
RTVSPost2010PropOp31
 70
     1
102
RTVSPost2010Prop32
280
     0
102
RTVSPost2010PropOp32
 70
     1
102
RTVSPost2010Prop33
280
     0
102
RTVSPost2010PropOp33
 70
     1
102
RTVSPost2010Prop34
280
     0
102
RTVSPost2010PropOp34
 70
     1
102
RTVSPost2010Prop35
280
     0
102
RTVSPost2010PropOp35
 70
     1
102
RTVSPost2010Prop36
280
     0
102
RTVSPost2010PropOp36
 70
     1
102
RTVSPost2010Prop37
 90
       50
102
RTVSPost2010PropOp37
 70
     1
102
RTVSPost2010Prop38
140
0.0
102
RTVSPost2010PropOp38
 70
     1
102
RTVSPost2010Prop39
140
1.0
102
RTVSPost2010PropOp39
 70
     1
102
RTVSPost2010Prop40
 90
        0
102
RTVSPost2010PropOp40
 70
     1
102
RTVSPost2010Prop41ColorIndex
 90
       18
102
RTVSPost2010Prop41ColorRGB
 90
        0
102
RTVSPost2010PropOp41
 70
     1
102
RTVSPost2010Prop42
 90
       50
102
RTVSPost2010PropOp42
 70
     1
102
RTVSPost2010Prop43
 90
        3
102
RTVSPost2010PropOp43
 70
     1
102
RTVSPost2010Prop44ColorIndex
 90
        5
102
RTVSPost2010Prop44ColorRGB
 90
      255
102
RTVSPost2010PropOp44
 70
     1
102
RTVSPost2010Prop45
280
     0
102
RTVSPost2010PropOp45
 70
     1
102
RTVSPost2010Prop46
 90
       50
102
RTVSPost2010PropOp46
 70
     1
102
RTVSPost2010Prop47
 90
       50
102
RTVSPost2010PropOp47
 70
     1
102
RTVSPost2010Prop48
 90
       50
102
RTVSPost2010PropOp48
 70
     1
102
RTVSPost2010Prop49
280
     0
102
RTVSPost2010PropOp49
 70
     1
102
RTVSPost2010Prop50
 90
       50
102
RTVSPost2010PropOp50
 70
     1
102
RTVSPost2010Prop51ColorIndex
 90
      256
102
RTVSPost2010Prop51ColorRGB
 90
-16777216
102
RTVSPost2010PropOp51
 70
     0
102
RTVSPost2010Prop52
140
1.0
102
RTVSPost2010PropOp52
 70
     0
102
RTVSPost2010Prop53
 90
        2
102
RTVSPost2010PropOp53
 70
     1
102
RTVSPost2010Prop54
  1
strokes_ogs.tif
102
RTVSPost2010PropOp54
 70
     1
102
RTVSPost2010Prop55
280
     0
102
RTVSPost2010PropOp55
 70
     1
102
RTVSPost2010Prop56
140
1.0
102
RTVSPost2010PropOp56
 70
     1
102
RTVSPost2010Prop57
140
1.0
102
RTVSPost2010PropOp57
 70
     1
102
RTVSPropertyOp0
 70
     1
102
RTVSPropertyOp1
 70
     1
102
RTVSPropertyOp2
 70
     1
102
RTVSPropertyOp3
 70
     1
102
RTVSPropertyOp4
 70
     1
102
RTVSPropertyOp5
 70
     1
102
RTVSPropertyOp6
 70
     1
102
RTVSPropertyOp7
 70
     1
102
RTVSPropertyOp8
 70
     1
102
RTVSPropertyOp9
 70
     1
102
RTVSPropertyOp10
 70
     1
102
RTVSPropertyOp11
 70
     1
102
RTVSPropertyOp12
 70
     1
102
RTVSPropertyOp13
 70
     1
102
RTVSPropertyOp14
 70
     1
102
RTVSPropertyOp15
 70
     1
102
RTVSPropertyOp16
 70
     1
102
RTVSPropertyOp17
 70
     1
102
RTVSPropertyOp18
 70
     1
102
RTVSPropertyOp19
 70
     1
102
RTVSPropertyOp20
 70
     1
102
RTVSPropertyOp21
 70
     1
102
RTVSPropertyOp22
 70
     1
102
RTVSPropertyOp23
 70
     1
102
RTVSPropertyOp24
 70
     1
102
RTVSPropertyOp25
 70
     1
102
RTVSPropertyOp26
 70
     1
102
RTVSPropertyOp27
 70
     1
102
RTVSPropertyOp28
 70
     1
102
RTVSPropertyOp29
 70
     1
102
RTVSPropertyOp30
 70
     1
102
RTVSPropertyOp31
 70
     1
102
RTVSPropertyOp32
 70
     1
102
RTVSPropertyOp33
 70
     1
102
RTVSPropertyOp34
 70
     1
102
RTVSPropertyOp35
 70
     1
102
RTVSPropertyOp36
 70
     1
102
RTVSPropertyOp37
 70
     1
102
RTVSPropertyOp38
 70
     1
102
RTVSPropertyOp39
 70
     1
102
RTVSPropertyOp40
 70
     1
102
RTVSPropertyOp41
 70
     1
102
RTVSPropertyOp42
 70
     1
102
RTVSPropertyOp43
 70
     1
102
RTVSPropertyOp44
 70
     1
102
RTVSPropertyOp45
 70
     1
102
RTVSPropertyOp46
 70
     1
102
RTVSPropertyOp47
 70
     1
102
RTVSPropertyOp48
 70
     1
102
RTVSPropertyOp49
 70
     1
102
RTVSPropertyOp50
 70
     1
102
RTVSPropertyOp51
 70
     0
102
RTVSPropertyOp52
 70
     0
102
RTVSPropertyOp53
 70
     1
102
RTVSPropertyOp54
 70
     1
102
RTVSPropertyOp55
 70
     1
102
RTVSPropertyOp56
 70
     1
102
RTVSPropertyOp57
 70
     1
102
RTVSPropertyOp58
 70
     1
102
RTVSPropertyOp59
 70
     1
102
RTVSPropertyOp60
 70
     1
102
RTVSPropertyOp61
 70
     1
102
RTVSPropertyOp62
 70
     1
  0
XRECORD
  5
3231
102
{ACAD_REACTORS
330
3230
102
}
330
3230
100
AcDbXrecord
280
     1
102
RTVSPost2010Prop28
280
     0
102
RTVSPost2010PropOp28
 70
     1
102
RTVSPost2010Prop29
280
     1
102
RTVSPost2010PropOp29
 70
     1
102
RTVSPost2010Prop30
280
     1
102
RTVSPost2010PropOp30
 70
     1
102
RTVSPost2010Prop31
280
     0
102
RTVSPost2010PropOp31
 70
     1
102
RTVSPost2010Prop32
280
     0
102
RTVSPost2010PropOp32
 70
     1
102
RTVSPost2010Prop33
280
     0
102
RTVSPost2010PropOp33
 70
     1
102
RTVSPost2010Prop34
280
     0
102
RTVSPost2010PropOp34
 70
     1
102
RTVSPost2010Prop35
280
     0
102
RTVSPost2010PropOp35
 70
     1
102
RTVSPost2010Prop36
280
     0
102
RTVSPost2010PropOp36
 70
     1
102
RTVSPost2010Prop37
 90
       50
102
RTVSPost2010PropOp37
 70
     1
102
RTVSPost2010Prop38
140
0.0
102
RTVSPost2010PropOp38
 70
     1
102
RTVSPost2010Prop39
140
1.0
102
RTVSPost2010PropOp39
 70
     1
102
RTVSPost2010Prop40
 90
        0
102
RTVSPost2010PropOp40
 70
     1
102
RTVSPost2010Prop41ColorIndex
 90
       18
102
RTVSPost2010Prop41ColorRGB
 90
        0
102
RTVSPost2010PropOp41
 70
     1
102
RTVSPost2010Prop42
 90
       50
102
RTVSPost2010PropOp42
 70
     1
102
RTVSPost2010Prop43
 90
        3
102
RTVSPost2010PropOp43
 70
     1
102
RTVSPost2010Prop44ColorIndex
 90
        5
102
RTVSPost2010Prop44ColorRGB
 90
      255
102
RTVSPost2010PropOp44
 70
     1
102
RTVSPost2010Prop45
280
     0
102
RTVSPost2010PropOp45
 70
     1
102
RTVSPost2010Prop46
 90
       50
102
RTVSPost2010PropOp46
 70
     1
102
RTVSPost2010Prop47
 90
       50
102
RTVSPost2010PropOp47
 70
     1
102
RTVSPost2010Prop48
 90
       50
102
RTVSPost2010PropOp48
 70
     1
102
RTVSPost2010Prop49
280
     0
102
RTVSPost2010PropOp49
 70
     1
102
RTVSPost2010Prop50
 90
       50
102
RTVSPost2010PropOp50
 70
     1
102
RTVSPost2010Prop51ColorIndex
 90
      256
102
RTVSPost2010Prop51ColorRGB
 90
-16777216
102
RTVSPost2010PropOp51
 70
     0
102
RTVSPost2010Prop52
140
1.0
102
RTVSPost2010PropOp52
 70
     0
102
RTVSPost2010Prop53
 90
        2
102
RTVSPost2010PropOp53
 70
     1
102
RTVSPost2010Prop54
  1
strokes_ogs.tif
102
RTVSPost2010PropOp54
 70
     1
102
RTVSPost2010Prop55
280
     0
102
RTVSPost2010PropOp55
 70
     1
102
RTVSPost2010Prop56
140
1.0
102
RTVSPost2010PropOp56
 70
     1
102
RTVSPost2010Prop57
140
1.0
102
RTVSPost2010PropOp57
 70
     1
102
RTVSPropertyOp0
 70
     1
102
RTVSPropertyOp1
 70
     1
102
RTVSPropertyOp2
 70
     1
102
RTVSPropertyOp3
 70
     1
102
RTVSPropertyOp4
 70
     1
102
RTVSPropertyOp5
 70
     1
102
RTVSPropertyOp6
 70
     1
102
RTVSPropertyOp7
 70
     1
102
RTVSPropertyOp8
 70
     1
102
RTVSPropertyOp9
 70
     1
102
RTVSPropertyOp10
 70
     1
102
RTVSPropertyOp11
 70
     1
102
RTVSPropertyOp12
 70
     1
102
RTVSPropertyOp13
 70
     1
102
RTVSPropertyOp14
 70
     1
102
RTVSPropertyOp15
 70
     1
102
RTVSPropertyOp16
 70
     1
102
RTVSPropertyOp17
 70
     1
102
RTVSPropertyOp18
 70
     1
102
RTVSPropertyOp19
 70
     1
102
RTVSPropertyOp20
 70
     1
102
RTVSPropertyOp21
 70
     1
102
RTVSPropertyOp22
 70
     1
102
RTVSPropertyOp23
 70
     1
102
RTVSPropertyOp24
 70
     1
102
RTVSPropertyOp25
 70
     1
102
RTVSPropertyOp26
 70
     1
102
RTVSPropertyOp27
 70
     1
102
RTVSPropertyOp28
 70
     1
102
RTVSPropertyOp29
 70
     1
102
RTVSPropertyOp30
 70
     1
102
RTVSPropertyOp31
 70
     1
102
RTVSPropertyOp32
 70
     1
102
RTVSPropertyOp33
 70
     1
102
RTVSPropertyOp34
 70
     1
102
RTVSPropertyOp35
 70
     1
102
RTVSPropertyOp36
 70
     1
102
RTVSPropertyOp37
 70
     1
102
RTVSPropertyOp38
 70
     1
102
RTVSPropertyOp39
 70
     1
102
RTVSPropertyOp40
 70
     1
102
RTVSPropertyOp41
 70
     1
102
RTVSPropertyOp42
 70
     1
102
RTVSPropertyOp43
 70
     1
102
RTVSPropertyOp44
 70
     1
102
RTVSPropertyOp45
 70
     1
102
RTVSPropertyOp46
 70
     1
102
RTVSPropertyOp47
 70
     1
102
RTVSPropertyOp48
 70
     1
102
RTVSPropertyOp49
 70
     1
102
RTVSPropertyOp50
 70
     1
102
RTVSPropertyOp51
 70
     0
102
RTVSPropertyOp52
 70
     0
102
RTVSPropertyOp53
 70
     1
102
RTVSPropertyOp54
 70
     1
102
RTVSPropertyOp55
 70
     1
102
RTVSPropertyOp56
 70
     1
102
RTVSPropertyOp57
 70
     1
102
RTVSPropertyOp58
 70
     1
102
RTVSPropertyOp59
 70
     1
102
RTVSPropertyOp60
 70
     1
102
RTVSPropertyOp61
 70
     1
102
RTVSPropertyOp62
 70
     1
  0
XRECORD
  5
324B
102
{ACAD_REACTORS
330
324A
102
}
330
324A
100
AcDbXrecord
280
     1
102
RTVSPost2010Prop28
280
     0
102
RTVSPost2010PropOp28
 70
     1
102
RTVSPost2010Prop29
280
     1
102
RTVSPost2010PropOp29
 70
     1
102
RTVSPost2010Prop30
280
     1
102
RTVSPost2010PropOp30
 70
     1
102
RTVSPost2010Prop31
280
     0
102
RTVSPost2010PropOp31
 70
     1
102
RTVSPost2010Prop32
280
     0
102
RTVSPost2010PropOp32
 70
     1
102
RTVSPost2010Prop33
280
     0
102
RTVSPost2010PropOp33
 70
     1
102
RTVSPost2010Prop34
280
     0
102
RTVSPost2010PropOp34
 70
     1
102
RTVSPost2010Prop35
280
     0
102
RTVSPost2010PropOp35
 70
     1
102
RTVSPost2010Prop36
280
     0
102
RTVSPost2010PropOp36
 70
     1
102
RTVSPost2010Prop37
 90
       50
102
RTVSPost2010PropOp37
 70
     0
102
RTVSPost2010Prop38
140
0.0
102
RTVSPost2010PropOp38
 70
     0
102
RTVSPost2010Prop39
140
1.0
102
RTVSPost2010PropOp39
 70
     0
102
RTVSPost2010Prop40
 90
        0
102
RTVSPost2010PropOp40
 70
     0
102
RTVSPost2010Prop41ColorIndex
 90
       18
102
RTVSPost2010Prop41ColorRGB
 90
        0
102
RTVSPost2010PropOp41
 70
     0
102
RTVSPost2010Prop42
 90
       50
102
RTVSPost2010PropOp42
 70
     0
102
RTVSPost2010Prop43
 90
        3
102
RTVSPost2010PropOp43
 70
     0
102
RTVSPost2010Prop44ColorIndex
 90
        5
102
RTVSPost2010Prop44ColorRGB
 90
      255
102
RTVSPost2010PropOp44
 70
     0
102
RTVSPost2010Prop45
280
     0
102
RTVSPost2010PropOp45
 70
     1
102
RTVSPost2010Prop46
 90
       50
102
RTVSPost2010PropOp46
 70
     0
102
RTVSPost2010Prop47
 90
       50
102
RTVSPost2010PropOp47
 70
     0
102
RTVSPost2010Prop48
 90
       50
102
RTVSPost2010PropOp48
 70
     0
102
RTVSPost2010Prop49
280
     0
102
RTVSPost2010PropOp49
 70
     1
102
RTVSPost2010Prop50
 90
       50
102
RTVSPost2010PropOp50
 70
     0
102
RTVSPost2010Prop51ColorIndex
 90
      256
102
RTVSPost2010Prop51ColorRGB
 90
-16777216
102
RTVSPost2010PropOp51
 70
     0
102
RTVSPost2010Prop52
140
1.0
102
RTVSPost2010PropOp52
 70
     0
102
RTVSPost2010Prop53
 90
        2
102
RTVSPost2010PropOp53
 70
     0
102
RTVSPost2010Prop54
  1
strokes_ogs.tif
102
RTVSPost2010PropOp54
 70
     0
102
RTVSPost2010Prop55
280
     0
102
RTVSPost2010PropOp55
 70
     1
102
RTVSPost2010Prop56
140
1.0
102
RTVSPost2010PropOp56
 70
     0
102
RTVSPost2010Prop57
140
1.0
102
RTVSPost2010PropOp57
 70
     0
102
RTVSPropertyOp0
 70
     0
102
RTVSPropertyOp1
 70
     0
102
RTVSPropertyOp2
 70
     0
102
RTVSPropertyOp3
 70
     0
102
RTVSPropertyOp4
 70
     0
102
RTVSPropertyOp5
 70
     0
102
RTVSPropertyOp6
 70
     0
102
RTVSPropertyOp7
 70
     0
102
RTVSPropertyOp8
 70
     0
102
RTVSPropertyOp9
 70
     0
102
RTVSPropertyOp10
 70
     0
102
RTVSPropertyOp11
 70
     0
102
RTVSPropertyOp12
 70
     0
102
RTVSPropertyOp13
 70
     0
102
RTVSPropertyOp14
 70
     2
102
RTVSPropertyOp15
 70
     0
102
RTVSPropertyOp16
 70
     0
102
RTVSPropertyOp17
 70
     0
102
RTVSPropertyOp18
 70
     0
102
RTVSPropertyOp19
 70
     0
102
RTVSPropertyOp20
 70
     0
102
RTVSPropertyOp21
 70
     0
102
RTVSPropertyOp22
 70
     0
102
RTVSPropertyOp23
 70
     0
102
RTVSPropertyOp24
 70
     0
102
RTVSPropertyOp25
 70
     0
102
RTVSPropertyOp26
 70
     0
102
RTVSPropertyOp27
 70
     0
102
RTVSPropertyOp28
 70
     1
102
RTVSPropertyOp29
 70
     1
102
RTVSPropertyOp30
 70
     1
102
RTVSPropertyOp31
 70
     1
102
RTVSPropertyOp32
 70
     1
102
RTVSPropertyOp33
 70
     1
102
RTVSPropertyOp34
 70
     1
102
RTVSPropertyOp35
 70
     1
102
RTVSPropertyOp36
 70
     1
102
RTVSPropertyOp37
 70
     0
102
RTVSPropertyOp38
 70
     0
102
RTVSPropertyOp39
 70
     0
102
RTVSPropertyOp40
 70
     0
102
RTVSPropertyOp41
 70
     0
102
RTVSPropertyOp42
 70
     0
102
RTVSPropertyOp43
 70
     0
102
RTVSPropertyOp44
 70
     0
102
RTVSPropertyOp45
 70
     1
102
RTVSPropertyOp46
 70
     0
102
RTVSPropertyOp47
 70
     0
102
RTVSPropertyOp48
 70
     0
102
RTVSPropertyOp49
 70
     1
102
RTVSPropertyOp50
 70
     0
102
RTVSPropertyOp51
 70
     0
102
RTVSPropertyOp52
 70
     0
102
RTVSPropertyOp53
 70
     0
102
RTVSPropertyOp54
 70
     0
102
RTVSPropertyOp55
 70
     1
102
RTVSPropertyOp56
 70
     0
102
RTVSPropertyOp57
 70
     0
102
RTVSPropertyOp58
 70
     1
102
RTVSPropertyOp59
 70
     1
102
RTVSPropertyOp60
 70
     1
102
RTVSPropertyOp61
 70
     1
102
RTVSPropertyOp62
 70
     1
  0
XRECORD
  5
3239
102
{ACAD_REACTORS
330
3238
102
}
330
3238
100
AcDbXrecord
280
     1
102
RTVSPost2010Prop28
280
     0
102
RTVSPost2010PropOp28
 70
     1
102
RTVSPost2010Prop29
280
     1
102
RTVSPost2010PropOp29
 70
     1
102
RTVSPost2010Prop30
280
     1
102
RTVSPost2010PropOp30
 70
     1
102
RTVSPost2010Prop31
280
     0
102
RTVSPost2010PropOp31
 70
     1
102
RTVSPost2010Prop32
280
     0
102
RTVSPost2010PropOp32
 70
     1
102
RTVSPost2010Prop33
280
     0
102
RTVSPost2010PropOp33
 70
     1
102
RTVSPost2010Prop34
280
     0
102
RTVSPost2010PropOp34
 70
     1
102
RTVSPost2010Prop35
280
     0
102
RTVSPost2010PropOp35
 70
     1
102
RTVSPost2010Prop36
280
     0
102
RTVSPost2010PropOp36
 70
     1
102
RTVSPost2010Prop37
 90
       50
102
RTVSPost2010PropOp37
 70
     1
102
RTVSPost2010Prop38
140
0.0
102
RTVSPost2010PropOp38
 70
     1
102
RTVSPost2010Prop39
140
1.0
102
RTVSPost2010PropOp39
 70
     1
102
RTVSPost2010Prop40
 90
        0
102
RTVSPost2010PropOp40
 70
     1
102
RTVSPost2010Prop41ColorIndex
 90
       18
102
RTVSPost2010Prop41ColorRGB
 90
        0
102
RTVSPost2010PropOp41
 70
     1
102
RTVSPost2010Prop42
 90
       50
102
RTVSPost2010PropOp42
 70
     1
102
RTVSPost2010Prop43
 90
        3
102
RTVSPost2010PropOp43
 70
     1
102
RTVSPost2010Prop44ColorIndex
 90
        5
102
RTVSPost2010Prop44ColorRGB
 90
      255
102
RTVSPost2010PropOp44
 70
     1
102
RTVSPost2010Prop45
280
     0
102
RTVSPost2010PropOp45
 70
     1
102
RTVSPost2010Prop46
 90
       50
102
RTVSPost2010PropOp46
 70
     1
102
RTVSPost2010Prop47
 90
       50
102
RTVSPost2010PropOp47
 70
     1
102
RTVSPost2010Prop48
 90
       50
102
RTVSPost2010PropOp48
 70
     1
102
RTVSPost2010Prop49
280
     0
102
RTVSPost2010PropOp49
 70
     1
102
RTVSPost2010Prop50
 90
       50
102
RTVSPost2010PropOp50
 70
     1
102
RTVSPost2010Prop51ColorIndex
 90
      256
102
RTVSPost2010Prop51ColorRGB
 90
-16777216
102
RTVSPost2010PropOp51
 70
     0
102
RTVSPost2010Prop52
140
1.0
102
RTVSPost2010PropOp52
 70
     0
102
RTVSPost2010Prop53
 90
        2
102
RTVSPost2010PropOp53
 70
     1
102
RTVSPost2010Prop54
  1
strokes_ogs.tif
102
RTVSPost2010PropOp54
 70
     1
102
RTVSPost2010Prop55
280
     0
102
RTVSPost2010PropOp55
 70
     1
102
RTVSPost2010Prop56
140
1.0
102
RTVSPost2010PropOp56
 70
     1
102
RTVSPost2010Prop57
140
1.0
102
RTVSPost2010PropOp57
 70
     1
102
RTVSPropertyOp0
 70
     1
102
RTVSPropertyOp1
 70
     1
102
RTVSPropertyOp2
 70
     1
102
RTVSPropertyOp3
 70
     1
102
RTVSPropertyOp4
 70
     1
102
RTVSPropertyOp5
 70
     1
102
RTVSPropertyOp6
 70
     1
102
RTVSPropertyOp7
 70
     1
102
RTVSPropertyOp8
 70
     1
102
RTVSPropertyOp9
 70
     1
102
RTVSPropertyOp10
 70
     1
102
RTVSPropertyOp11
 70
     1
102
RTVSPropertyOp12
 70
     1
102
RTVSPropertyOp13
 70
     1
102
RTVSPropertyOp14
 70
     1
102
RTVSPropertyOp15
 70
     1
102
RTVSPropertyOp16
 70
     1
102
RTVSPropertyOp17
 70
     1
102
RTVSPropertyOp18
 70
     1
102
RTVSPropertyOp19
 70
     1
102
RTVSPropertyOp20
 70
     1
102
RTVSPropertyOp21
 70
     1
102
RTVSPropertyOp22
 70
     1
102
RTVSPropertyOp23
 70
     1
102
RTVSPropertyOp24
 70
     1
102
RTVSPropertyOp25
 70
     1
102
RTVSPropertyOp26
 70
     1
102
RTVSPropertyOp27
 70
     1
102
RTVSPropertyOp28
 70
     1
102
RTVSPropertyOp29
 70
     1
102
RTVSPropertyOp30
 70
     1
102
RTVSPropertyOp31
 70
     1
102
RTVSPropertyOp32
 70
     1
102
RTVSPropertyOp33
 70
     1
102
RTVSPropertyOp34
 70
     1
102
RTVSPropertyOp35
 70
     1
102
RTVSPropertyOp36
 70
     1
102
RTVSPropertyOp37
 70
     1
102
RTVSPropertyOp38
 70
     1
102
RTVSPropertyOp39
 70
     1
102
RTVSPropertyOp40
 70
     1
102
RTVSPropertyOp41
 70
     1
102
RTVSPropertyOp42
 70
     1
102
RTVSPropertyOp43
 70
     1
102
RTVSPropertyOp44
 70
     1
102
RTVSPropertyOp45
 70
     1
102
RTVSPropertyOp46
 70
     1
102
RTVSPropertyOp47
 70
     1
102
RTVSPropertyOp48
 70
     1
102
RTVSPropertyOp49
 70
     1
102
RTVSPropertyOp50
 70
     1
102
RTVSPropertyOp51
 70
     0
102
RTVSPropertyOp52
 70
     0
102
RTVSPropertyOp53
 70
     1
102
RTVSPropertyOp54
 70
     1
102
RTVSPropertyOp55
 70
     1
102
RTVSPropertyOp56
 70
     1
102
RTVSPropertyOp57
 70
     1
102
RTVSPropertyOp58
 70
     1
102
RTVSPropertyOp59
 70
     1
102
RTVSPropertyOp60
 70
     1
102
RTVSPropertyOp61
 70
     1
102
RTVSPropertyOp62
 70
     1
  0
XRECORD
  5
321D
102
{ACAD_REACTORS
330
321C
102
}
330
321C
100
AcDbXrecord
280
     1
102
RTVSPost2010Prop28
280
     0
102
RTVSPost2010PropOp28
 70
     1
102
RTVSPost2010Prop29
280
     1
102
RTVSPost2010PropOp29
 70
     1
102
RTVSPost2010Prop30
280
     1
102
RTVSPost2010PropOp30
 70
     1
102
RTVSPost2010Prop31
280
     0
102
RTVSPost2010PropOp31
 70
     1
102
RTVSPost2010Prop32
280
     0
102
RTVSPost2010PropOp32
 70
     1
102
RTVSPost2010Prop33
280
     0
102
RTVSPost2010PropOp33
 70
     1
102
RTVSPost2010Prop34
280
     0
102
RTVSPost2010PropOp34
 70
     1
102
RTVSPost2010Prop35
280
     0
102
RTVSPost2010PropOp35
 70
     1
102
RTVSPost2010Prop36
280
     0
102
RTVSPost2010PropOp36
 70
     1
102
RTVSPost2010Prop37
 90
       50
102
RTVSPost2010PropOp37
 70
     1
102
RTVSPost2010Prop38
140
0.0
102
RTVSPost2010PropOp38
 70
     1
102
RTVSPost2010Prop39
140
1.0
102
RTVSPost2010PropOp39
 70
     1
102
RTVSPost2010Prop40
 90
        0
102
RTVSPost2010PropOp40
 70
     1
102
RTVSPost2010Prop41ColorIndex
 90
       18
102
RTVSPost2010Prop41ColorRGB
 90
        0
102
RTVSPost2010PropOp41
 70
     1
102
RTVSPost2010Prop42
 90
       50
102
RTVSPost2010PropOp42
 70
     1
102
RTVSPost2010Prop43
 90
        3
102
RTVSPost2010PropOp43
 70
     1
102
RTVSPost2010Prop44ColorIndex
 90
        5
102
RTVSPost2010Prop44ColorRGB
 90
      255
102
RTVSPost2010PropOp44
 70
     1
102
RTVSPost2010Prop45
280
     0
102
RTVSPost2010PropOp45
 70
     1
102
RTVSPost2010Prop46
 90
       50
102
RTVSPost2010PropOp46
 70
     1
102
RTVSPost2010Prop47
 90
       50
102
RTVSPost2010PropOp47
 70
     1
102
RTVSPost2010Prop48
 90
       50
102
RTVSPost2010PropOp48
 70
     1
102
RTVSPost2010Prop49
280
     0
102
RTVSPost2010PropOp49
 70
     1
102
RTVSPost2010Prop50
 90
       50
102
RTVSPost2010PropOp50
 70
     1
102
RTVSPost2010Prop51ColorIndex
 90
      256
102
RTVSPost2010Prop51ColorRGB
 90
-16777216
102
RTVSPost2010PropOp51
 70
     0
102
RTVSPost2010Prop52
140
1.0
102
RTVSPost2010PropOp52
 70
     0
102
RTVSPost2010Prop53
 90
        2
102
RTVSPost2010PropOp53
 70
     1
102
RTVSPost2010Prop54
  1
strokes_ogs.tif
102
RTVSPost2010PropOp54
 70
     1
102
RTVSPost2010Prop55
280
     0
102
RTVSPost2010PropOp55
 70
     1
102
RTVSPost2010Prop56
140
1.0
102
RTVSPost2010PropOp56
 70
     1
102
RTVSPost2010Prop57
140
1.0
102
RTVSPost2010PropOp57
 70
     1
102
RTVSPropertyOp0
 70
     1
102
RTVSPropertyOp1
 70
     1
102
RTVSPropertyOp2
 70
     1
102
RTVSPropertyOp3
 70
     1
102
RTVSPropertyOp4
 70
     1
102
RTVSPropertyOp5
 70
     1
102
RTVSPropertyOp6
 70
     1
102
RTVSPropertyOp7
 70
     1
102
RTVSPropertyOp8
 70
     1
102
RTVSPropertyOp9
 70
     1
102
RTVSPropertyOp10
 70
     1
102
RTVSPropertyOp11
 70
     1
102
RTVSPropertyOp12
 70
     1
102
RTVSPropertyOp13
 70
     1
102
RTVSPropertyOp14
 70
     1
102
RTVSPropertyOp15
 70
     1
102
RTVSPropertyOp16
 70
     1
102
RTVSPropertyOp17
 70
     1
102
RTVSPropertyOp18
 70
     1
102
RTVSPropertyOp19
 70
     1
102
RTVSPropertyOp20
 70
     1
102
RTVSPropertyOp21
 70
     1
102
RTVSPropertyOp22
 70
     1
102
RTVSPropertyOp23
 70
     1
102
RTVSPropertyOp24
 70
     1
102
RTVSPropertyOp25
 70
     1
102
RTVSPropertyOp26
 70
     1
102
RTVSPropertyOp27
 70
     1
102
RTVSPropertyOp28
 70
     1
102
RTVSPropertyOp29
 70
     1
102
RTVSPropertyOp30
 70
     1
102
RTVSPropertyOp31
 70
     1
102
RTVSPropertyOp32
 70
     1
102
RTVSPropertyOp33
 70
     1
102
RTVSPropertyOp34
 70
     1
102
RTVSPropertyOp35
 70
     1
102
RTVSPropertyOp36
 70
     1
102
RTVSPropertyOp37
 70
     1
102
RTVSPropertyOp38
 70
     1
102
RTVSPropertyOp39
 70
     1
102
RTVSPropertyOp40
 70
     1
102
RTVSPropertyOp41
 70
     1
102
RTVSPropertyOp42
 70
     1
102
RTVSPropertyOp43
 70
     1
102
RTVSPropertyOp44
 70
     1
102
RTVSPropertyOp45
 70
     1
102
RTVSPropertyOp46
 70
     1
102
RTVSPropertyOp47
 70
     1
102
RTVSPropertyOp48
 70
     1
102
RTVSPropertyOp49
 70
     1
102
RTVSPropertyOp50
 70
     1
102
RTVSPropertyOp51
 70
     0
102
RTVSPropertyOp52
 70
     0
102
RTVSPropertyOp53
 70
     1
102
RTVSPropertyOp54
 70
     1
102
RTVSPropertyOp55
 70
     1
102
RTVSPropertyOp56
 70
     1
102
RTVSPropertyOp57
 70
     1
102
RTVSPropertyOp58
 70
     1
102
RTVSPropertyOp59
 70
     1
102
RTVSPropertyOp60
 70
     1
102
RTVSPropertyOp61
 70
     1
102
RTVSPropertyOp62
 70
     1
  0
XRECORD
  5
321F
102
{ACAD_REACTORS
330
321E
102
}
330
321E
100
AcDbXrecord
280
     1
102
RTVSPost2010Prop28
280
     0
102
RTVSPost2010PropOp28
 70
     1
102
RTVSPost2010Prop29
280
     1
102
RTVSPost2010PropOp29
 70
     1
102
RTVSPost2010Prop30
280
     1
102
RTVSPost2010PropOp30
 70
     1
102
RTVSPost2010Prop31
280
     0
102
RTVSPost2010PropOp31
 70
     1
102
RTVSPost2010Prop32
280
     0
102
RTVSPost2010PropOp32
 70
     1
102
RTVSPost2010Prop33
280
     0
102
RTVSPost2010PropOp33
 70
     1
102
RTVSPost2010Prop34
280
     0
102
RTVSPost2010PropOp34
 70
     1
102
RTVSPost2010Prop35
280
     0
102
RTVSPost2010PropOp35
 70
     1
102
RTVSPost2010Prop36
280
     0
102
RTVSPost2010PropOp36
 70
     1
102
RTVSPost2010Prop37
 90
       50
102
RTVSPost2010PropOp37
 70
     1
102
RTVSPost2010Prop38
140
0.0
102
RTVSPost2010PropOp38
 70
     1
102
RTVSPost2010Prop39
140
1.0
102
RTVSPost2010PropOp39
 70
     1
102
RTVSPost2010Prop40
 90
        0
102
RTVSPost2010PropOp40
 70
     1
102
RTVSPost2010Prop41ColorIndex
 90
       18
102
RTVSPost2010Prop41ColorRGB
 90
        0
102
RTVSPost2010PropOp41
 70
     1
102
RTVSPost2010Prop42
 90
       50
102
RTVSPost2010PropOp42
 70
     1
102
RTVSPost2010Prop43
 90
        3
102
RTVSPost2010PropOp43
 70
     1
102
RTVSPost2010Prop44ColorIndex
 90
        5
102
RTVSPost2010Prop44ColorRGB
 90
      255
102
RTVSPost2010PropOp44
 70
     1
102
RTVSPost2010Prop45
280
     0
102
RTVSPost2010PropOp45
 70
     1
102
RTVSPost2010Prop46
 90
       50
102
RTVSPost2010PropOp46
 70
     1
102
RTVSPost2010Prop47
 90
       50
102
RTVSPost2010PropOp47
 70
     1
102
RTVSPost2010Prop48
 90
       50
102
RTVSPost2010PropOp48
 70
     1
102
RTVSPost2010Prop49
280
     0
102
RTVSPost2010PropOp49
 70
     1
102
RTVSPost2010Prop50
 90
       50
102
RTVSPost2010PropOp50
 70
     1
102
RTVSPost2010Prop51ColorIndex
 90
      256
102
RTVSPost2010Prop51ColorRGB
 90
-16777216
102
RTVSPost2010PropOp51
 70
     0
102
RTVSPost2010Prop52
140
1.0
102
RTVSPost2010PropOp52
 70
     0
102
RTVSPost2010Prop53
 90
        2
102
RTVSPost2010PropOp53
 70
     1
102
RTVSPost2010Prop54
  1
strokes_ogs.tif
102
RTVSPost2010PropOp54
 70
     1
102
RTVSPost2010Prop55
280
     0
102
RTVSPost2010PropOp55
 70
     1
102
RTVSPost2010Prop56
140
1.0
102
RTVSPost2010PropOp56
 70
     1
102
RTVSPost2010Prop57
140
1.0
102
RTVSPost2010PropOp57
 70
     1
102
RTVSPropertyOp0
 70
     1
102
RTVSPropertyOp1
 70
     1
102
RTVSPropertyOp2
 70
     1
102
RTVSPropertyOp3
 70
     1
102
RTVSPropertyOp4
 70
     1
102
RTVSPropertyOp5
 70
     1
102
RTVSPropertyOp6
 70
     1
102
RTVSPropertyOp7
 70
     1
102
RTVSPropertyOp8
 70
     1
102
RTVSPropertyOp9
 70
     1
102
RTVSPropertyOp10
 70
     1
102
RTVSPropertyOp11
 70
     1
102
RTVSPropertyOp12
 70
     1
102
RTVSPropertyOp13
 70
     1
102
RTVSPropertyOp14
 70
     1
102
RTVSPropertyOp15
 70
     1
102
RTVSPropertyOp16
 70
     1
102
RTVSPropertyOp17
 70
     1
102
RTVSPropertyOp18
 70
     1
102
RTVSPropertyOp19
 70
     1
102
RTVSPropertyOp20
 70
     1
102
RTVSPropertyOp21
 70
     1
102
RTVSPropertyOp22
 70
     1
102
RTVSPropertyOp23
 70
     1
102
RTVSPropertyOp24
 70
     1
102
RTVSPropertyOp25
 70
     1
102
RTVSPropertyOp26
 70
     1
102
RTVSPropertyOp27
 70
     1
102
RTVSPropertyOp28
 70
     1
102
RTVSPropertyOp29
 70
     1
102
RTVSPropertyOp30
 70
     1
102
RTVSPropertyOp31
 70
     1
102
RTVSPropertyOp32
 70
     1
102
RTVSPropertyOp33
 70
     1
102
RTVSPropertyOp34
 70
     1
102
RTVSPropertyOp35
 70
     1
102
RTVSPropertyOp36
 70
     1
102
RTVSPropertyOp37
 70
     1
102
RTVSPropertyOp38
 70
     1
102
RTVSPropertyOp39
 70
     1
102
RTVSPropertyOp40
 70
     1
102
RTVSPropertyOp41
 70
     1
102
RTVSPropertyOp42
 70
     1
102
RTVSPropertyOp43
 70
     1
102
RTVSPropertyOp44
 70
     1
102
RTVSPropertyOp45
 70
     1
102
RTVSPropertyOp46
 70
     1
102
RTVSPropertyOp47
 70
     1
102
RTVSPropertyOp48
 70
     1
102
RTVSPropertyOp49
 70
     1
102
RTVSPropertyOp50
 70
     1
102
RTVSPropertyOp51
 70
     0
102
RTVSPropertyOp52
 70
     0
102
RTVSPropertyOp53
 70
     1
102
RTVSPropertyOp54
 70
     1
102
RTVSPropertyOp55
 70
     1
102
RTVSPropertyOp56
 70
     1
102
RTVSPropertyOp57
 70
     1
102
RTVSPropertyOp58
 70
     1
102
RTVSPropertyOp59
 70
     1
102
RTVSPropertyOp60
 70
     1
102
RTVSPropertyOp61
 70
     1
102
RTVSPropertyOp62
 70
     1
  0
XRECORD
  5
3221
102
{ACAD_REACTORS
330
3220
102
}
330
3220
100
AcDbXrecord
280
     1
102
RTVSPost2010Prop28
280
     0
102
RTVSPost2010PropOp28
 70
     1
102
RTVSPost2010Prop29
280
     1
102
RTVSPost2010PropOp29
 70
     1
102
RTVSPost2010Prop30
280
     1
102
RTVSPost2010PropOp30
 70
     1
102
RTVSPost2010Prop31
280
     0
102
RTVSPost2010PropOp31
 70
     1
102
RTVSPost2010Prop32
280
     0
102
RTVSPost2010PropOp32
 70
     1
102
RTVSPost2010Prop33
280
     0
102
RTVSPost2010PropOp33
 70
     1
102
RTVSPost2010Prop34
280
     0
102
RTVSPost2010PropOp34
 70
     1
102
RTVSPost2010Prop35
280
     0
102
RTVSPost2010PropOp35
 70
     1
102
RTVSPost2010Prop36
280
     0
102
RTVSPost2010PropOp36
 70
     1
102
RTVSPost2010Prop37
 90
       50
102
RTVSPost2010PropOp37
 70
     1
102
RTVSPost2010Prop38
140
0.0
102
RTVSPost2010PropOp38
 70
     1
102
RTVSPost2010Prop39
140
1.0
102
RTVSPost2010PropOp39
 70
     1
102
RTVSPost2010Prop40
 90
        0
102
RTVSPost2010PropOp40
 70
     1
102
RTVSPost2010Prop41ColorIndex
 90
       18
102
RTVSPost2010Prop41ColorRGB
 90
        0
102
RTVSPost2010PropOp41
 70
     1
102
RTVSPost2010Prop42
 90
       50
102
RTVSPost2010PropOp42
 70
     1
102
RTVSPost2010Prop43
 90
        3
102
RTVSPost2010PropOp43
 70
     1
102
RTVSPost2010Prop44ColorIndex
 90
        5
102
RTVSPost2010Prop44ColorRGB
 90
      255
102
RTVSPost2010PropOp44
 70
     1
102
RTVSPost2010Prop45
280
     0
102
RTVSPost2010PropOp45
 70
     1
102
RTVSPost2010Prop46
 90
       50
102
RTVSPost2010PropOp46
 70
     1
102
RTVSPost2010Prop47
 90
       50
102
RTVSPost2010PropOp47
 70
     1
102
RTVSPost2010Prop48
 90
       50
102
RTVSPost2010PropOp48
 70
     1
102
RTVSPost2010Prop49
280
     0
102
RTVSPost2010PropOp49
 70
     1
102
RTVSPost2010Prop50
 90
       50
102
RTVSPost2010PropOp50
 70
     1
102
RTVSPost2010Prop51ColorIndex
 90
      256
102
RTVSPost2010Prop51ColorRGB
 90
-16777216
102
RTVSPost2010PropOp51
 70
     0
102
RTVSPost2010Prop52
140
1.0
102
RTVSPost2010PropOp52
 70
     0
102
RTVSPost2010Prop53
 90
        2
102
RTVSPost2010PropOp53
 70
     1
102
RTVSPost2010Prop54
  1
strokes_ogs.tif
102
RTVSPost2010PropOp54
 70
     1
102
RTVSPost2010Prop55
280
     0
102
RTVSPost2010PropOp55
 70
     1
102
RTVSPost2010Prop56
140
1.0
102
RTVSPost2010PropOp56
 70
     1
102
RTVSPost2010Prop57
140
1.0
102
RTVSPost2010PropOp57
 70
     1
102
RTVSPropertyOp0
 70
     1
102
RTVSPropertyOp1
 70
     1
102
RTVSPropertyOp2
 70
     1
102
RTVSPropertyOp3
 70
     1
102
RTVSPropertyOp4
 70
     1
102
RTVSPropertyOp5
 70
     1
102
RTVSPropertyOp6
 70
     1
102
RTVSPropertyOp7
 70
     1
102
RTVSPropertyOp8
 70
     1
102
RTVSPropertyOp9
 70
     1
102
RTVSPropertyOp10
 70
     1
102
RTVSPropertyOp11
 70
     1
102
RTVSPropertyOp12
 70
     1
102
RTVSPropertyOp13
 70
     1
102
RTVSPropertyOp14
 70
     1
102
RTVSPropertyOp15
 70
     1
102
RTVSPropertyOp16
 70
     1
102
RTVSPropertyOp17
 70
     1
102
RTVSPropertyOp18
 70
     1
102
RTVSPropertyOp19
 70
     1
102
RTVSPropertyOp20
 70
     1
102
RTVSPropertyOp21
 70
     1
102
RTVSPropertyOp22
 70
     1
102
RTVSPropertyOp23
 70
     1
102
RTVSPropertyOp24
 70
     1
102
RTVSPropertyOp25
 70
     1
102
RTVSPropertyOp26
 70
     1
102
RTVSPropertyOp27
 70
     1
102
RTVSPropertyOp28
 70
     1
102
RTVSPropertyOp29
 70
     1
102
RTVSPropertyOp30
 70
     1
102
RTVSPropertyOp31
 70
     1
102
RTVSPropertyOp32
 70
     1
102
RTVSPropertyOp33
 70
     1
102
RTVSPropertyOp34
 70
     1
102
RTVSPropertyOp35
 70
     1
102
RTVSPropertyOp36
 70
     1
102
RTVSPropertyOp37
 70
     1
102
RTVSPropertyOp38
 70
     1
102
RTVSPropertyOp39
 70
     1
102
RTVSPropertyOp40
 70
     1
102
RTVSPropertyOp41
 70
     1
102
RTVSPropertyOp42
 70
     1
102
RTVSPropertyOp43
 70
     1
102
RTVSPropertyOp44
 70
     1
102
RTVSPropertyOp45
 70
     1
102
RTVSPropertyOp46
 70
     1
102
RTVSPropertyOp47
 70
     1
102
RTVSPropertyOp48
 70
     1
102
RTVSPropertyOp49
 70
     1
102
RTVSPropertyOp50
 70
     1
102
RTVSPropertyOp51
 70
     0
102
RTVSPropertyOp52
 70
     0
102
RTVSPropertyOp53
 70
     1
102
RTVSPropertyOp54
 70
     1
102
RTVSPropertyOp55
 70
     1
102
RTVSPropertyOp56
 70
     1
102
RTVSPropertyOp57
 70
     1
102
RTVSPropertyOp58
 70
     1
102
RTVSPropertyOp59
 70
     1
102
RTVSPropertyOp60
 70
     1
102
RTVSPropertyOp61
 70
     1
102
RTVSPropertyOp62
 70
     1
  0
XRECORD
  5
3223
102
{ACAD_REACTORS
330
3222
102
}
330
3222
100
AcDbXrecord
280
     1
102
RTVSPost2010Prop28
280
     0
102
RTVSPost2010PropOp28
 70
     1
102
RTVSPost2010Prop29
280
     1
102
RTVSPost2010PropOp29
 70
     1
102
RTVSPost2010Prop30
280
     1
102
RTVSPost2010PropOp30
 70
     1
102
RTVSPost2010Prop31
280
     0
102
RTVSPost2010PropOp31
 70
     1
102
RTVSPost2010Prop32
280
     0
102
RTVSPost2010PropOp32
 70
     1
102
RTVSPost2010Prop33
280
     0
102
RTVSPost2010PropOp33
 70
     1
102
RTVSPost2010Prop34
280
     0
102
RTVSPost2010PropOp34
 70
     1
102
RTVSPost2010Prop35
280
     0
102
RTVSPost2010PropOp35
 70
     1
102
RTVSPost2010Prop36
280
     0
102
RTVSPost2010PropOp36
 70
     1
102
RTVSPost2010Prop37
 90
       50
102
RTVSPost2010PropOp37
 70
     1
102
RTVSPost2010Prop38
140
0.0
102
RTVSPost2010PropOp38
 70
     1
102
RTVSPost2010Prop39
140
1.0
102
RTVSPost2010PropOp39
 70
     1
102
RTVSPost2010Prop40
 90
        0
102
RTVSPost2010PropOp40
 70
     1
102
RTVSPost2010Prop41ColorIndex
 90
       18
102
RTVSPost2010Prop41ColorRGB
 90
        0
102
RTVSPost2010PropOp41
 70
     1
102
RTVSPost2010Prop42
 90
       50
102
RTVSPost2010PropOp42
 70
     1
102
RTVSPost2010Prop43
 90
        3
102
RTVSPost2010PropOp43
 70
     1
102
RTVSPost2010Prop44ColorIndex
 90
        5
102
RTVSPost2010Prop44ColorRGB
 90
      255
102
RTVSPost2010PropOp44
 70
     1
102
RTVSPost2010Prop45
280
     0
102
RTVSPost2010PropOp45
 70
     1
102
RTVSPost2010Prop46
 90
       50
102
RTVSPost2010PropOp46
 70
     1
102
RTVSPost2010Prop47
 90
       50
102
RTVSPost2010PropOp47
 70
     1
102
RTVSPost2010Prop48
 90
       50
102
RTVSPost2010PropOp48
 70
     1
102
RTVSPost2010Prop49
280
     0
102
RTVSPost2010PropOp49
 70
     1
102
RTVSPost2010Prop50
 90
       50
102
RTVSPost2010PropOp50
 70
     1
102
RTVSPost2010Prop51ColorIndex
 90
      256
102
RTVSPost2010Prop51ColorRGB
 90
-16777216
102
RTVSPost2010PropOp51
 70
     0
102
RTVSPost2010Prop52
140
1.0
102
RTVSPost2010PropOp52
 70
     0
102
RTVSPost2010Prop53
 90
        2
102
RTVSPost2010PropOp53
 70
     1
102
RTVSPost2010Prop54
  1
strokes_ogs.tif
102
RTVSPost2010PropOp54
 70
     1
102
RTVSPost2010Prop55
280
     0
102
RTVSPost2010PropOp55
 70
     1
102
RTVSPost2010Prop56
140
1.0
102
RTVSPost2010PropOp56
 70
     1
102
RTVSPost2010Prop57
140
1.0
102
RTVSPost2010PropOp57
 70
     1
102
RTVSPropertyOp0
 70
     1
102
RTVSPropertyOp1
 70
     1
102
RTVSPropertyOp2
 70
     1
102
RTVSPropertyOp3
 70
     1
102
RTVSPropertyOp4
 70
     1
102
RTVSPropertyOp5
 70
     1
102
RTVSPropertyOp6
 70
     1
102
RTVSPropertyOp7
 70
     1
102
RTVSPropertyOp8
 70
     1
102
RTVSPropertyOp9
 70
     1
102
RTVSPropertyOp10
 70
     1
102
RTVSPropertyOp11
 70
     1
102
RTVSPropertyOp12
 70
     1
102
RTVSPropertyOp13
 70
     1
102
RTVSPropertyOp14
 70
     1
102
RTVSPropertyOp15
 70
     1
102
RTVSPropertyOp16
 70
     1
102
RTVSPropertyOp17
 70
     1
102
RTVSPropertyOp18
 70
     1
102
RTVSPropertyOp19
 70
     1
102
RTVSPropertyOp20
 70
     1
102
RTVSPropertyOp21
 70
     1
102
RTVSPropertyOp22
 70
     1
102
RTVSPropertyOp23
 70
     1
102
RTVSPropertyOp24
 70
     1
102
RTVSPropertyOp25
 70
     1
102
RTVSPropertyOp26
 70
     1
102
RTVSPropertyOp27
 70
     1
102
RTVSPropertyOp28
 70
     1
102
RTVSPropertyOp29
 70
     1
102
RTVSPropertyOp30
 70
     1
102
RTVSPropertyOp31
 70
     1
102
RTVSPropertyOp32
 70
     1
102
RTVSPropertyOp33
 70
     1
102
RTVSPropertyOp34
 70
     1
102
RTVSPropertyOp35
 70
     1
102
RTVSPropertyOp36
 70
     1
102
RTVSPropertyOp37
 70
     1
102
RTVSPropertyOp38
 70
     1
102
RTVSPropertyOp39
 70
     1
102
RTVSPropertyOp40
 70
     1
102
RTVSPropertyOp41
 70
     1
102
RTVSPropertyOp42
 70
     1
102
RTVSPropertyOp43
 70
     1
102
RTVSPropertyOp44
 70
     1
102
RTVSPropertyOp45
 70
     1
102
RTVSPropertyOp46
 70
     1
102
RTVSPropertyOp47
 70
     1
102
RTVSPropertyOp48
 70
     1
102
RTVSPropertyOp49
 70
     1
102
RTVSPropertyOp50
 70
     1
102
RTVSPropertyOp51
 70
     0
102
RTVSPropertyOp52
 70
     0
102
RTVSPropertyOp53
 70
     1
102
RTVSPropertyOp54
 70
     1
102
RTVSPropertyOp55
 70
     1
102
RTVSPropertyOp56
 70
     1
102
RTVSPropertyOp57
 70
     1
102
RTVSPropertyOp58
 70
     1
102
RTVSPropertyOp59
 70
     1
102
RTVSPropertyOp60
 70
     1
102
RTVSPropertyOp61
 70
     1
102
RTVSPropertyOp62
 70
     1
  0
XRECORD
  5
322B
102
{ACAD_REACTORS
330
322A
102
}
330
322A
100
AcDbXrecord
280
     1
102
RTVSPost2010Prop28
280
     0
102
RTVSPost2010PropOp28
 70
     1
102
RTVSPost2010Prop29
280
     1
102
RTVSPost2010PropOp29
 70
     1
102
RTVSPost2010Prop30
280
     1
102
RTVSPost2010PropOp30
 70
     1
102
RTVSPost2010Prop31
280
     0
102
RTVSPost2010PropOp31
 70
     1
102
RTVSPost2010Prop32
280
     0
102
RTVSPost2010PropOp32
 70
     1
102
RTVSPost2010Prop33
280
     0
102
RTVSPost2010PropOp33
 70
     1
102
RTVSPost2010Prop34
280
     0
102
RTVSPost2010PropOp34
 70
     1
102
RTVSPost2010Prop35
280
     0
102
RTVSPost2010PropOp35
 70
     1
102
RTVSPost2010Prop36
280
     0
102
RTVSPost2010PropOp36
 70
     1
102
RTVSPost2010Prop37
 90
       50
102
RTVSPost2010PropOp37
 70
     1
102
RTVSPost2010Prop38
140
0.0
102
RTVSPost2010PropOp38
 70
     1
102
RTVSPost2010Prop39
140
1.0
102
RTVSPost2010PropOp39
 70
     1
102
RTVSPost2010Prop40
 90
        0
102
RTVSPost2010PropOp40
 70
     1
102
RTVSPost2010Prop41ColorIndex
 90
       18
102
RTVSPost2010Prop41ColorRGB
 90
        0
102
RTVSPost2010PropOp41
 70
     1
102
RTVSPost2010Prop42
 90
       50
102
RTVSPost2010PropOp42
 70
     1
102
RTVSPost2010Prop43
 90
        3
102
RTVSPost2010PropOp43
 70
     1
102
RTVSPost2010Prop44ColorIndex
 90
        5
102
RTVSPost2010Prop44ColorRGB
 90
      255
102
RTVSPost2010PropOp44
 70
     1
102
RTVSPost2010Prop45
280
     0
102
RTVSPost2010PropOp45
 70
     1
102
RTVSPost2010Prop46
 90
       50
102
RTVSPost2010PropOp46
 70
     1
102
RTVSPost2010Prop47
 90
       50
102
RTVSPost2010PropOp47
 70
     1
102
RTVSPost2010Prop48
 90
       50
102
RTVSPost2010PropOp48
 70
     1
102
RTVSPost2010Prop49
280
     0
102
RTVSPost2010PropOp49
 70
     1
102
RTVSPost2010Prop50
 90
       50
102
RTVSPost2010PropOp50
 70
     1
102
RTVSPost2010Prop51ColorIndex
 90
      256
102
RTVSPost2010Prop51ColorRGB
 90
-16777216
102
RTVSPost2010PropOp51
 70
     0
102
RTVSPost2010Prop52
140
1.0
102
RTVSPost2010PropOp52
 70
     0
102
RTVSPost2010Prop53
 90
        2
102
RTVSPost2010PropOp53
 70
     1
102
RTVSPost2010Prop54
  1
strokes_ogs.tif
102
RTVSPost2010PropOp54
 70
     1
102
RTVSPost2010Prop55
280
     0
102
RTVSPost2010PropOp55
 70
     1
102
RTVSPost2010Prop56
140
1.0
102
RTVSPost2010PropOp56
 70
     1
102
RTVSPost2010Prop57
140
1.0
102
RTVSPost2010PropOp57
 70
     1
102
RTVSPropertyOp0
 70
     1
102
RTVSPropertyOp1
 70
     1
102
RTVSPropertyOp2
 70
     1
102
RTVSPropertyOp3
 70
     1
102
RTVSPropertyOp4
 70
     1
102
RTVSPropertyOp5
 70
     1
102
RTVSPropertyOp6
 70
     1
102
RTVSPropertyOp7
 70
     1
102
RTVSPropertyOp8
 70
     1
102
RTVSPropertyOp9
 70
     1
102
RTVSPropertyOp10
 70
     1
102
RTVSPropertyOp11
 70
     1
102
RTVSPropertyOp12
 70
     1
102
RTVSPropertyOp13
 70
     1
102
RTVSPropertyOp14
 70
     1
102
RTVSPropertyOp15
 70
     1
102
RTVSPropertyOp16
 70
     1
102
RTVSPropertyOp17
 70
     1
102
RTVSPropertyOp18
 70
     1
102
RTVSPropertyOp19
 70
     1
102
RTVSPropertyOp20
 70
     1
102
RTVSPropertyOp21
 70
     1
102
RTVSPropertyOp22
 70
     1
102
RTVSPropertyOp23
 70
     1
102
RTVSPropertyOp24
 70
     1
102
RTVSPropertyOp25
 70
     1
102
RTVSPropertyOp26
 70
     1
102
RTVSPropertyOp27
 70
     1
102
RTVSPropertyOp28
 70
     1
102
RTVSPropertyOp29
 70
     1
102
RTVSPropertyOp30
 70
     1
102
RTVSPropertyOp31
 70
     1
102
RTVSPropertyOp32
 70
     1
102
RTVSPropertyOp33
 70
     1
102
RTVSPropertyOp34
 70
     1
102
RTVSPropertyOp35
 70
     1
102
RTVSPropertyOp36
 70
     1
102
RTVSPropertyOp37
 70
     1
102
RTVSPropertyOp38
 70
     1
102
RTVSPropertyOp39
 70
     1
102
RTVSPropertyOp40
 70
     1
102
RTVSPropertyOp41
 70
     1
102
RTVSPropertyOp42
 70
     1
102
RTVSPropertyOp43
 70
     1
102
RTVSPropertyOp44
 70
     1
102
RTVSPropertyOp45
 70
     1
102
RTVSPropertyOp46
 70
     1
102
RTVSPropertyOp47
 70
     1
102
RTVSPropertyOp48
 70
     1
102
RTVSPropertyOp49
 70
     1
102
RTVSPropertyOp50
 70
     1
102
RTVSPropertyOp51
 70
     0
102
RTVSPropertyOp52
 70
     0
102
RTVSPropertyOp53
 70
     1
102
RTVSPropertyOp54
 70
     1
102
RTVSPropertyOp55
 70
     1
102
RTVSPropertyOp56
 70
     1
102
RTVSPropertyOp57
 70
     1
102
RTVSPropertyOp58
 70
     1
102
RTVSPropertyOp59
 70
     1
102
RTVSPropertyOp60
 70
     1
102
RTVSPropertyOp61
 70
     1
102
RTVSPropertyOp62
 70
     1
  0
XRECORD
  5
3247
102
{ACAD_REACTORS
330
3246
102
}
330
3246
100
AcDbXrecord
280
     1
102
RTVSPost2010Prop28
280
     0
102
RTVSPost2010PropOp28
 70
     1
102
RTVSPost2010Prop29
280
     1
102
RTVSPost2010PropOp29
 70
     1
102
RTVSPost2010Prop30
280
     1
102
RTVSPost2010PropOp30
 70
     1
102
RTVSPost2010Prop31
280
     0
102
RTVSPost2010PropOp31
 70
     1
102
RTVSPost2010Prop32
280
     0
102
RTVSPost2010PropOp32
 70
     1
102
RTVSPost2010Prop33
280
     0
102
RTVSPost2010PropOp33
 70
     1
102
RTVSPost2010Prop34
280
     0
102
RTVSPost2010PropOp34
 70
     1
102
RTVSPost2010Prop35
280
     0
102
RTVSPost2010PropOp35
 70
     1
102
RTVSPost2010Prop36
280
     0
102
RTVSPost2010PropOp36
 70
     1
102
RTVSPost2010Prop37
 90
       50
102
RTVSPost2010PropOp37
 70
     0
102
RTVSPost2010Prop38
140
0.0
102
RTVSPost2010PropOp38
 70
     0
102
RTVSPost2010Prop39
140
1.0
102
RTVSPost2010PropOp39
 70
     0
102
RTVSPost2010Prop40
 90
        0
102
RTVSPost2010PropOp40
 70
     0
102
RTVSPost2010Prop41ColorIndex
 90
       18
102
RTVSPost2010Prop41ColorRGB
 90
        0
102
RTVSPost2010PropOp41
 70
     0
102
RTVSPost2010Prop42
 90
       50
102
RTVSPost2010PropOp42
 70
     0
102
RTVSPost2010Prop43
 90
        3
102
RTVSPost2010PropOp43
 70
     0
102
RTVSPost2010Prop44ColorIndex
 90
        5
102
RTVSPost2010Prop44ColorRGB
 90
      255
102
RTVSPost2010PropOp44
 70
     0
102
RTVSPost2010Prop45
280
     0
102
RTVSPost2010PropOp45
 70
     1
102
RTVSPost2010Prop46
 90
       50
102
RTVSPost2010PropOp46
 70
     0
102
RTVSPost2010Prop47
 90
       50
102
RTVSPost2010PropOp47
 70
     0
102
RTVSPost2010Prop48
 90
       50
102
RTVSPost2010PropOp48
 70
     0
102
RTVSPost2010Prop49
280
     0
102
RTVSPost2010PropOp49
 70
     1
102
RTVSPost2010Prop50
 90
       50
102
RTVSPost2010PropOp50
 70
     0
102
RTVSPost2010Prop51ColorIndex
 90
      256
102
RTVSPost2010Prop51ColorRGB
 90
-16777216
102
RTVSPost2010PropOp51
 70
     0
102
RTVSPost2010Prop52
140
1.0
102
RTVSPost2010PropOp52
 70
     0
102
RTVSPost2010Prop53
 90
        2
102
RTVSPost2010PropOp53
 70
     0
102
RTVSPost2010Prop54
  1
strokes_ogs.tif
102
RTVSPost2010PropOp54
 70
     0
102
RTVSPost2010Prop55
280
     0
102
RTVSPost2010PropOp55
 70
     1
102
RTVSPost2010Prop56
140
1.0
102
RTVSPost2010PropOp56
 70
     0
102
RTVSPost2010Prop57
140
1.0
102
RTVSPost2010PropOp57
 70
     0
102
RTVSPropertyOp0
 70
     0
102
RTVSPropertyOp1
 70
     0
102
RTVSPropertyOp2
 70
     0
102
RTVSPropertyOp3
 70
     0
102
RTVSPropertyOp4
 70
     0
102
RTVSPropertyOp5
 70
     0
102
RTVSPropertyOp6
 70
     0
102
RTVSPropertyOp7
 70
     0
102
RTVSPropertyOp8
 70
     0
102
RTVSPropertyOp9
 70
     0
102
RTVSPropertyOp10
 70
     0
102
RTVSPropertyOp11
 70
     0
102
RTVSPropertyOp12
 70
     0
102
RTVSPropertyOp13
 70
     0
102
RTVSPropertyOp14
 70
     2
102
RTVSPropertyOp15
 70
     0
102
RTVSPropertyOp16
 70
     0
102
RTVSPropertyOp17
 70
     0
102
RTVSPropertyOp18
 70
     0
102
RTVSPropertyOp19
 70
     0
102
RTVSPropertyOp20
 70
     0
102
RTVSPropertyOp21
 70
     0
102
RTVSPropertyOp22
 70
     0
102
RTVSPropertyOp23
 70
     0
102
RTVSPropertyOp24
 70
     0
102
RTVSPropertyOp25
 70
     0
102
RTVSPropertyOp26
 70
     0
102
RTVSPropertyOp27
 70
     0
102
RTVSPropertyOp28
 70
     1
102
RTVSPropertyOp29
 70
     1
102
RTVSPropertyOp30
 70
     1
102
RTVSPropertyOp31
 70
     1
102
RTVSPropertyOp32
 70
     1
102
RTVSPropertyOp33
 70
     1
102
RTVSPropertyOp34
 70
     1
102
RTVSPropertyOp35
 70
     1
102
RTVSPropertyOp36
 70
     1
102
RTVSPropertyOp37
 70
     0
102
RTVSPropertyOp38
 70
     0
102
RTVSPropertyOp39
 70
     0
102
RTVSPropertyOp40
 70
     0
102
RTVSPropertyOp41
 70
     0
102
RTVSPropertyOp42
 70
     0
102
RTVSPropertyOp43
 70
     0
102
RTVSPropertyOp44
 70
     0
102
RTVSPropertyOp45
 70
     1
102
RTVSPropertyOp46
 70
     0
102
RTVSPropertyOp47
 70
     0
102
RTVSPropertyOp48
 70
     0
102
RTVSPropertyOp49
 70
     1
102
RTVSPropertyOp50
 70
     0
102
RTVSPropertyOp51
 70
     0
102
RTVSPropertyOp52
 70
     0
102
RTVSPropertyOp53
 70
     0
102
RTVSPropertyOp54
 70
     0
102
RTVSPropertyOp55
 70
     1
102
RTVSPropertyOp56
 70
     0
102
RTVSPropertyOp57
 70
     0
102
RTVSPropertyOp58
 70
     1
102
RTVSPropertyOp59
 70
     1
102
RTVSPropertyOp60
 70
     1
102
RTVSPropertyOp61
 70
     1
102
RTVSPropertyOp62
 70
     1
  0
XRECORD
  5
3237
102
{ACAD_REACTORS
330
3236
102
}
330
3236
100
AcDbXrecord
280
     1
102
RTVSPost2010Prop28
280
     0
102
RTVSPost2010PropOp28
 70
     1
102
RTVSPost2010Prop29
280
     1
102
RTVSPost2010PropOp29
 70
     1
102
RTVSPost2010Prop30
280
     1
102
RTVSPost2010PropOp30
 70
     1
102
RTVSPost2010Prop31
280
     0
102
RTVSPost2010PropOp31
 70
     1
102
RTVSPost2010Prop32
280
     0
102
RTVSPost2010PropOp32
 70
     1
102
RTVSPost2010Prop33
280
     0
102
RTVSPost2010PropOp33
 70
     1
102
RTVSPost2010Prop34
280
     0
102
RTVSPost2010PropOp34
 70
     1
102
RTVSPost2010Prop35
280
     0
102
RTVSPost2010PropOp35
 70
     1
102
RTVSPost2010Prop36
280
     0
102
RTVSPost2010PropOp36
 70
     1
102
RTVSPost2010Prop37
 90
       50
102
RTVSPost2010PropOp37
 70
     1
102
RTVSPost2010Prop38
140
0.0
102
RTVSPost2010PropOp38
 70
     1
102
RTVSPost2010Prop39
140
1.0
102
RTVSPost2010PropOp39
 70
     1
102
RTVSPost2010Prop40
 90
        0
102
RTVSPost2010PropOp40
 70
     1
102
RTVSPost2010Prop41ColorIndex
 90
       18
102
RTVSPost2010Prop41ColorRGB
 90
        0
102
RTVSPost2010PropOp41
 70
     1
102
RTVSPost2010Prop42
 90
       50
102
RTVSPost2010PropOp42
 70
     1
102
RTVSPost2010Prop43
 90
        3
102
RTVSPost2010PropOp43
 70
     1
102
RTVSPost2010Prop44ColorIndex
 90
        5
102
RTVSPost2010Prop44ColorRGB
 90
      255
102
RTVSPost2010PropOp44
 70
     1
102
RTVSPost2010Prop45
280
     0
102
RTVSPost2010PropOp45
 70
     1
102
RTVSPost2010Prop46
 90
       50
102
RTVSPost2010PropOp46
 70
     1
102
RTVSPost2010Prop47
 90
       50
102
RTVSPost2010PropOp47
 70
     1
102
RTVSPost2010Prop48
 90
       50
102
RTVSPost2010PropOp48
 70
     1
102
RTVSPost2010Prop49
280
     0
102
RTVSPost2010PropOp49
 70
     1
102
RTVSPost2010Prop50
 90
       50
102
RTVSPost2010PropOp50
 70
     1
102
RTVSPost2010Prop51ColorIndex
 90
      256
102
RTVSPost2010Prop51ColorRGB
 90
-16777216
102
RTVSPost2010PropOp51
 70
     0
102
RTVSPost2010Prop52
140
1.0
102
RTVSPost2010PropOp52
 70
     0
102
RTVSPost2010Prop53
 90
        2
102
RTVSPost2010PropOp53
 70
     1
102
RTVSPost2010Prop54
  1
strokes_ogs.tif
102
RTVSPost2010PropOp54
 70
     1
102
RTVSPost2010Prop55
280
     0
102
RTVSPost2010PropOp55
 70
     1
102
RTVSPost2010Prop56
140
1.0
102
RTVSPost2010PropOp56
 70
     1
102
RTVSPost2010Prop57
140
1.0
102
RTVSPost2010PropOp57
 70
     1
102
RTVSPropertyOp0
 70
     1
102
RTVSPropertyOp1
 70
     1
102
RTVSPropertyOp2
 70
     1
102
RTVSPropertyOp3
 70
     1
102
RTVSPropertyOp4
 70
     1
102
RTVSPropertyOp5
 70
     1
102
RTVSPropertyOp6
 70
     1
102
RTVSPropertyOp7
 70
     1
102
RTVSPropertyOp8
 70
     1
102
RTVSPropertyOp9
 70
     1
102
RTVSPropertyOp10
 70
     1
102
RTVSPropertyOp11
 70
     1
102
RTVSPropertyOp12
 70
     1
102
RTVSPropertyOp13
 70
     1
102
RTVSPropertyOp14
 70
     1
102
RTVSPropertyOp15
 70
     1
102
RTVSPropertyOp16
 70
     1
102
RTVSPropertyOp17
 70
     1
102
RTVSPropertyOp18
 70
     1
102
RTVSPropertyOp19
 70
     1
102
RTVSPropertyOp20
 70
     1
102
RTVSPropertyOp21
 70
     1
102
RTVSPropertyOp22
 70
     1
102
RTVSPropertyOp23
 70
     1
102
RTVSPropertyOp24
 70
     1
102
RTVSPropertyOp25
 70
     1
102
RTVSPropertyOp26
 70
     1
102
RTVSPropertyOp27
 70
     1
102
RTVSPropertyOp28
 70
     1
102
RTVSPropertyOp29
 70
     1
102
RTVSPropertyOp30
 70
     1
102
RTVSPropertyOp31
 70
     1
102
RTVSPropertyOp32
 70
     1
102
RTVSPropertyOp33
 70
     1
102
RTVSPropertyOp34
 70
     1
102
RTVSPropertyOp35
 70
     1
102
RTVSPropertyOp36
 70
     1
102
RTVSPropertyOp37
 70
     1
102
RTVSPropertyOp38
 70
     1
102
RTVSPropertyOp39
 70
     1
102
RTVSPropertyOp40
 70
     1
102
RTVSPropertyOp41
 70
     1
102
RTVSPropertyOp42
 70
     1
102
RTVSPropertyOp43
 70
     1
102
RTVSPropertyOp44
 70
     1
102
RTVSPropertyOp45
 70
     1
102
RTVSPropertyOp46
 70
     1
102
RTVSPropertyOp47
 70
     1
102
RTVSPropertyOp48
 70
     1
102
RTVSPropertyOp49
 70
     1
102
RTVSPropertyOp50
 70
     1
102
RTVSPropertyOp51
 70
     0
102
RTVSPropertyOp52
 70
     0
102
RTVSPropertyOp53
 70
     1
102
RTVSPropertyOp54
 70
     1
102
RTVSPropertyOp55
 70
     1
102
RTVSPropertyOp56
 70
     1
102
RTVSPropertyOp57
 70
     1
102
RTVSPropertyOp58
 70
     1
102
RTVSPropertyOp59
 70
     1
102
RTVSPropertyOp60
 70
     1
102
RTVSPropertyOp61
 70
     1
102
RTVSPropertyOp62
 70
     1
  0
XRECORD
  5
3249
102
{ACAD_REACTORS
330
3248
102
}
330
3248
100
AcDbXrecord
280
     1
102
RTVSPost2010Prop28
280
     0
102
RTVSPost2010PropOp28
 70
     1
102
RTVSPost2010Prop29
280
     1
102
RTVSPost2010PropOp29
 70
     1
102
RTVSPost2010Prop30
280
     1
102
RTVSPost2010PropOp30
 70
     1
102
RTVSPost2010Prop31
280
     0
102
RTVSPost2010PropOp31
 70
     1
102
RTVSPost2010Prop32
280
     0
102
RTVSPost2010PropOp32
 70
     1
102
RTVSPost2010Prop33
280
     0
102
RTVSPost2010PropOp33
 70
     1
102
RTVSPost2010Prop34
280
     0
102
RTVSPost2010PropOp34
 70
     1
102
RTVSPost2010Prop35
280
     0
102
RTVSPost2010PropOp35
 70
     1
102
RTVSPost2010Prop36
280
     0
102
RTVSPost2010PropOp36
 70
     1
102
RTVSPost2010Prop37
 90
       50
102
RTVSPost2010PropOp37
 70
     0
102
RTVSPost2010Prop38
140
0.0
102
RTVSPost2010PropOp38
 70
     0
102
RTVSPost2010Prop39
140
1.0
102
RTVSPost2010PropOp39
 70
     0
102
RTVSPost2010Prop40
 90
        0
102
RTVSPost2010PropOp40
 70
     0
102
RTVSPost2010Prop41ColorIndex
 90
       18
102
RTVSPost2010Prop41ColorRGB
 90
        0
102
RTVSPost2010PropOp41
 70
     0
102
RTVSPost2010Prop42
 90
       50
102
RTVSPost2010PropOp42
 70
     0
102
RTVSPost2010Prop43
 90
        3
102
RTVSPost2010PropOp43
 70
     0
102
RTVSPost2010Prop44ColorIndex
 90
        5
102
RTVSPost2010Prop44ColorRGB
 90
      255
102
RTVSPost2010PropOp44
 70
     0
102
RTVSPost2010Prop45
280
     0
102
RTVSPost2010PropOp45
 70
     1
102
RTVSPost2010Prop46
 90
       50
102
RTVSPost2010PropOp46
 70
     0
102
RTVSPost2010Prop47
 90
       50
102
RTVSPost2010PropOp47
 70
     0
102
RTVSPost2010Prop48
 90
       50
102
RTVSPost2010PropOp48
 70
     0
102
RTVSPost2010Prop49
280
     0
102
RTVSPost2010PropOp49
 70
     1
102
RTVSPost2010Prop50
 90
       50
102
RTVSPost2010PropOp50
 70
     0
102
RTVSPost2010Prop51ColorIndex
 90
      256
102
RTVSPost2010Prop51ColorRGB
 90
-16777216
102
RTVSPost2010PropOp51
 70
     0
102
RTVSPost2010Prop52
140
1.0
102
RTVSPost2010PropOp52
 70
     0
102
RTVSPost2010Prop53
 90
        2
102
RTVSPost2010PropOp53
 70
     0
102
RTVSPost2010Prop54
  1
strokes_ogs.tif
102
RTVSPost2010PropOp54
 70
     0
102
RTVSPost2010Prop55
280
     0
102
RTVSPost2010PropOp55
 70
     1
102
RTVSPost2010Prop56
140
1.0
102
RTVSPost2010PropOp56
 70
     0
102
RTVSPost2010Prop57
140
1.0
102
RTVSPost2010PropOp57
 70
     0
102
RTVSPropertyOp0
 70
     0
102
RTVSPropertyOp1
 70
     0
102
RTVSPropertyOp2
 70
     0
102
RTVSPropertyOp3
 70
     0
102
RTVSPropertyOp4
 70
     0
102
RTVSPropertyOp5
 70
     0
102
RTVSPropertyOp6
 70
     0
102
RTVSPropertyOp7
 70
     0
102
RTVSPropertyOp8
 70
     0
102
RTVSPropertyOp9
 70
     0
102
RTVSPropertyOp10
 70
     0
102
RTVSPropertyOp11
 70
     0
102
RTVSPropertyOp12
 70
     0
102
RTVSPropertyOp13
 70
     0
102
RTVSPropertyOp14
 70
     2
102
RTVSPropertyOp15
 70
     0
102
RTVSPropertyOp16
 70
     0
102
RTVSPropertyOp17
 70
     0
102
RTVSPropertyOp18
 70
     0
102
RTVSPropertyOp19
 70
     0
102
RTVSPropertyOp20
 70
     0
102
RTVSPropertyOp21
 70
     0
102
RTVSPropertyOp22
 70
     0
102
RTVSPropertyOp23
 70
     0
102
RTVSPropertyOp24
 70
     0
102
RTVSPropertyOp25
 70
     0
102
RTVSPropertyOp26
 70
     0
102
RTVSPropertyOp27
 70
     0
102
RTVSPropertyOp28
 70
     1
102
RTVSPropertyOp29
 70
     1
102
RTVSPropertyOp30
 70
     1
102
RTVSPropertyOp31
 70
     1
102
RTVSPropertyOp32
 70
     1
102
RTVSPropertyOp33
 70
     1
102
RTVSPropertyOp34
 70
     1
102
RTVSPropertyOp35
 70
     1
102
RTVSPropertyOp36
 70
     1
102
RTVSPropertyOp37
 70
     0
102
RTVSPropertyOp38
 70
     0
102
RTVSPropertyOp39
 70
     0
102
RTVSPropertyOp40
 70
     0
102
RTVSPropertyOp41
 70
     0
102
RTVSPropertyOp42
 70
     0
102
RTVSPropertyOp43
 70
     0
102
RTVSPropertyOp44
 70
     0
102
RTVSPropertyOp45
 70
     1
102
RTVSPropertyOp46
 70
     0
102
RTVSPropertyOp47
 70
     0
102
RTVSPropertyOp48
 70
     0
102
RTVSPropertyOp49
 70
     1
102
RTVSPropertyOp50
 70
     0
102
RTVSPropertyOp51
 70
     0
102
RTVSPropertyOp52
 70
     0
102
RTVSPropertyOp53
 70
     0
102
RTVSPropertyOp54
 70
     0
102
RTVSPropertyOp55
 70
     1
102
RTVSPropertyOp56
 70
     0
102
RTVSPropertyOp57
 70
     0
102
RTVSPropertyOp58
 70
     1
102
RTVSPropertyOp59
 70
     1
102
RTVSPropertyOp60
 70
     1
102
RTVSPropertyOp61
 70
     1
102
RTVSPropertyOp62
 70
     1
  0
XRECORD
  5
322F
102
{ACAD_REACTORS
330
322E
102
}
330
322E
100
AcDbXrecord
280
     1
102
RTVSPost2010Prop28
280
     0
102
RTVSPost2010PropOp28
 70
     1
102
RTVSPost2010Prop29
280
     1
102
RTVSPost2010PropOp29
 70
     1
102
RTVSPost2010Prop30
280
     1
102
RTVSPost2010PropOp30
 70
     1
102
RTVSPost2010Prop31
280
     0
102
RTVSPost2010PropOp31
 70
     1
102
RTVSPost2010Prop32
280
     0
102
RTVSPost2010PropOp32
 70
     1
102
RTVSPost2010Prop33
280
     0
102
RTVSPost2010PropOp33
 70
     1
102
RTVSPost2010Prop34
280
     0
102
RTVSPost2010PropOp34
 70
     1
102
RTVSPost2010Prop35
280
     0
102
RTVSPost2010PropOp35
 70
     1
102
RTVSPost2010Prop36
280
     0
102
RTVSPost2010PropOp36
 70
     1
102
RTVSPost2010Prop37
 90
       50
102
RTVSPost2010PropOp37
 70
     1
102
RTVSPost2010Prop38
140
0.0
102
RTVSPost2010PropOp38
 70
     1
102
RTVSPost2010Prop39
140
1.0
102
RTVSPost2010PropOp39
 70
     1
102
RTVSPost2010Prop40
 90
        0
102
RTVSPost2010PropOp40
 70
     1
102
RTVSPost2010Prop41ColorIndex
 90
       18
102
RTVSPost2010Prop41ColorRGB
 90
        0
102
RTVSPost2010PropOp41
 70
     1
102
RTVSPost2010Prop42
 90
       50
102
RTVSPost2010PropOp42
 70
     1
102
RTVSPost2010Prop43
 90
        3
102
RTVSPost2010PropOp43
 70
     1
102
RTVSPost2010Prop44ColorIndex
 90
        5
102
RTVSPost2010Prop44ColorRGB
 90
      255
102
RTVSPost2010PropOp44
 70
     1
102
RTVSPost2010Prop45
280
     0
102
RTVSPost2010PropOp45
 70
     1
102
RTVSPost2010Prop46
 90
       50
102
RTVSPost2010PropOp46
 70
     1
102
RTVSPost2010Prop47
 90
       50
102
RTVSPost2010PropOp47
 70
     1
102
RTVSPost2010Prop48
 90
       50
102
RTVSPost2010PropOp48
 70
     1
102
RTVSPost2010Prop49
280
     0
102
RTVSPost2010PropOp49
 70
     1
102
RTVSPost2010Prop50
 90
       50
102
RTVSPost2010PropOp50
 70
     1
102
RTVSPost2010Prop51ColorIndex
 90
      256
102
RTVSPost2010Prop51ColorRGB
 90
-16777216
102
RTVSPost2010PropOp51
 70
     0
102
RTVSPost2010Prop52
140
1.0
102
RTVSPost2010PropOp52
 70
     0
102
RTVSPost2010Prop53
 90
        2
102
RTVSPost2010PropOp53
 70
     1
102
RTVSPost2010Prop54
  1
strokes_ogs.tif
102
RTVSPost2010PropOp54
 70
     1
102
RTVSPost2010Prop55
280
     0
102
RTVSPost2010PropOp55
 70
     1
102
RTVSPost2010Prop56
140
1.0
102
RTVSPost2010PropOp56
 70
     1
102
RTVSPost2010Prop57
140
1.0
102
RTVSPost2010PropOp57
 70
     1
102
RTVSPropertyOp0
 70
     1
102
RTVSPropertyOp1
 70
     1
102
RTVSPropertyOp2
 70
     1
102
RTVSPropertyOp3
 70
     1
102
RTVSPropertyOp4
 70
     1
102
RTVSPropertyOp5
 70
     1
102
RTVSPropertyOp6
 70
     1
102
RTVSPropertyOp7
 70
     1
102
RTVSPropertyOp8
 70
     1
102
RTVSPropertyOp9
 70
     1
102
RTVSPropertyOp10
 70
     1
102
RTVSPropertyOp11
 70
     1
102
RTVSPropertyOp12
 70
     1
102
RTVSPropertyOp13
 70
     1
102
RTVSPropertyOp14
 70
     1
102
RTVSPropertyOp15
 70
     1
102
RTVSPropertyOp16
 70
     1
102
RTVSPropertyOp17
 70
     1
102
RTVSPropertyOp18
 70
     1
102
RTVSPropertyOp19
 70
     1
102
RTVSPropertyOp20
 70
     1
102
RTVSPropertyOp21
 70
     1
102
RTVSPropertyOp22
 70
     1
102
RTVSPropertyOp23
 70
     1
102
RTVSPropertyOp24
 70
     1
102
RTVSPropertyOp25
 70
     1
102
RTVSPropertyOp26
 70
     1
102
RTVSPropertyOp27
 70
     1
102
RTVSPropertyOp28
 70
     1
102
RTVSPropertyOp29
 70
     1
102
RTVSPropertyOp30
 70
     1
102
RTVSPropertyOp31
 70
     1
102
RTVSPropertyOp32
 70
     1
102
RTVSPropertyOp33
 70
     1
102
RTVSPropertyOp34
 70
     1
102
RTVSPropertyOp35
 70
     1
102
RTVSPropertyOp36
 70
     1
102
RTVSPropertyOp37
 70
     1
102
RTVSPropertyOp38
 70
     1
102
RTVSPropertyOp39
 70
     1
102
RTVSPropertyOp40
 70
     1
102
RTVSPropertyOp41
 70
     1
102
RTVSPropertyOp42
 70
     1
102
RTVSPropertyOp43
 70
     1
102
RTVSPropertyOp44
 70
     1
102
RTVSPropertyOp45
 70
     1
102
RTVSPropertyOp46
 70
     1
102
RTVSPropertyOp47
 70
     1
102
RTVSPropertyOp48
 70
     1
102
RTVSPropertyOp49
 70
     1
102
RTVSPropertyOp50
 70
     1
102
RTVSPropertyOp51
 70
     0
102
RTVSPropertyOp52
 70
     0
102
RTVSPropertyOp53
 70
     1
102
RTVSPropertyOp54
 70
     1
102
RTVSPropertyOp55
 70
     1
102
RTVSPropertyOp56
 70
     1
102
RTVSPropertyOp57
 70
     1
102
RTVSPropertyOp58
 70
     1
102
RTVSPropertyOp59
 70
     1
102
RTVSPropertyOp60
 70
     1
102
RTVSPropertyOp61
 70
     1
102
RTVSPropertyOp62
 70
     1
  0
XRECORD
  5
3245
102
{ACAD_REACTORS
330
3244
102
}
330
3244
100
AcDbXrecord
280
     1
102
RTVSPost2010Prop28
280
     0
102
RTVSPost2010PropOp28
 70
     1
102
RTVSPost2010Prop29
280
     1
102
RTVSPost2010PropOp29
 70
     1
102
RTVSPost2010Prop30
280
     1
102
RTVSPost2010PropOp30
 70
     1
102
RTVSPost2010Prop31
280
     0
102
RTVSPost2010PropOp31
 70
     1
102
RTVSPost2010Prop32
280
     0
102
RTVSPost2010PropOp32
 70
     1
102
RTVSPost2010Prop33
280
     0
102
RTVSPost2010PropOp33
 70
     1
102
RTVSPost2010Prop34
280
     0
102
RTVSPost2010PropOp34
 70
     1
102
RTVSPost2010Prop35
280
     0
102
RTVSPost2010PropOp35
 70
     1
102
RTVSPost2010Prop36
280
     0
102
RTVSPost2010PropOp36
 70
     1
102
RTVSPost2010Prop37
 90
       50
102
RTVSPost2010PropOp37
 70
     1
102
RTVSPost2010Prop38
140
0.0
102
RTVSPost2010PropOp38
 70
     1
102
RTVSPost2010Prop39
140
1.0
102
RTVSPost2010PropOp39
 70
     1
102
RTVSPost2010Prop40
 90
        0
102
RTVSPost2010PropOp40
 70
     1
102
RTVSPost2010Prop41ColorIndex
 90
       18
102
RTVSPost2010Prop41ColorRGB
 90
        0
102
RTVSPost2010PropOp41
 70
     1
102
RTVSPost2010Prop42
 90
       50
102
RTVSPost2010PropOp42
 70
     1
102
RTVSPost2010Prop43
 90
        3
102
RTVSPost2010PropOp43
 70
     1
102
RTVSPost2010Prop44ColorIndex
 90
        5
102
RTVSPost2010Prop44ColorRGB
 90
      255
102
RTVSPost2010PropOp44
 70
     1
102
RTVSPost2010Prop45
280
     0
102
RTVSPost2010PropOp45
 70
     1
102
RTVSPost2010Prop46
 90
       50
102
RTVSPost2010PropOp46
 70
     1
102
RTVSPost2010Prop47
 90
       50
102
RTVSPost2010PropOp47
 70
     1
102
RTVSPost2010Prop48
 90
       50
102
RTVSPost2010PropOp48
 70
     1
102
RTVSPost2010Prop49
280
     0
102
RTVSPost2010PropOp49
 70
     1
102
RTVSPost2010Prop50
 90
       50
102
RTVSPost2010PropOp50
 70
     1
102
RTVSPost2010Prop51ColorIndex
 90
      256
102
RTVSPost2010Prop51ColorRGB
 90
-16777216
102
RTVSPost2010PropOp51
 70
     0
102
RTVSPost2010Prop52
140
1.0
102
RTVSPost2010PropOp52
 70
     0
102
RTVSPost2010Prop53
 90
        2
102
RTVSPost2010PropOp53
 70
     1
102
RTVSPost2010Prop54
  1
strokes_ogs.tif
102
RTVSPost2010PropOp54
 70
     1
102
RTVSPost2010Prop55
280
     0
102
RTVSPost2010PropOp55
 70
     1
102
RTVSPost2010Prop56
140
1.0
102
RTVSPost2010PropOp56
 70
     1
102
RTVSPost2010Prop57
140
1.0
102
RTVSPost2010PropOp57
 70
     1
102
RTVSPropertyOp0
 70
     1
102
RTVSPropertyOp1
 70
     1
102
RTVSPropertyOp2
 70
     1
102
RTVSPropertyOp3
 70
     1
102
RTVSPropertyOp4
 70
     1
102
RTVSPropertyOp5
 70
     1
102
RTVSPropertyOp6
 70
     1
102
RTVSPropertyOp7
 70
     1
102
RTVSPropertyOp8
 70
     1
102
RTVSPropertyOp9
 70
     1
102
RTVSPropertyOp10
 70
     1
102
RTVSPropertyOp11
 70
     1
102
RTVSPropertyOp12
 70
     1
102
RTVSPropertyOp13
 70
     1
102
RTVSPropertyOp14
 70
     1
102
RTVSPropertyOp15
 70
     1
102
RTVSPropertyOp16
 70
     1
102
RTVSPropertyOp17
 70
     1
102
RTVSPropertyOp18
 70
     1
102
RTVSPropertyOp19
 70
     1
102
RTVSPropertyOp20
 70
     1
102
RTVSPropertyOp21
 70
     1
102
RTVSPropertyOp22
 70
     1
102
RTVSPropertyOp23
 70
     1
102
RTVSPropertyOp24
 70
     1
102
RTVSPropertyOp25
 70
     1
102
RTVSPropertyOp26
 70
     1
102
RTVSPropertyOp27
 70
     1
102
RTVSPropertyOp28
 70
     1
102
RTVSPropertyOp29
 70
     1
102
RTVSPropertyOp30
 70
     1
102
RTVSPropertyOp31
 70
     1
102
RTVSPropertyOp32
 70
     1
102
RTVSPropertyOp33
 70
     1
102
RTVSPropertyOp34
 70
     1
102
RTVSPropertyOp35
 70
     1
102
RTVSPropertyOp36
 70
     1
102
RTVSPropertyOp37
 70
     1
102
RTVSPropertyOp38
 70
     1
102
RTVSPropertyOp39
 70
     1
102
RTVSPropertyOp40
 70
     1
102
RTVSPropertyOp41
 70
     1
102
RTVSPropertyOp42
 70
     1
102
RTVSPropertyOp43
 70
     1
102
RTVSPropertyOp44
 70
     1
102
RTVSPropertyOp45
 70
     1
102
RTVSPropertyOp46
 70
     1
102
RTVSPropertyOp47
 70
     1
102
RTVSPropertyOp48
 70
     1
102
RTVSPropertyOp49
 70
     1
102
RTVSPropertyOp50
 70
     1
102
RTVSPropertyOp51
 70
     0
102
RTVSPropertyOp52
 70
     0
102
RTVSPropertyOp53
 70
     1
102
RTVSPropertyOp54
 70
     1
102
RTVSPropertyOp55
 70
     1
102
RTVSPropertyOp56
 70
     1
102
RTVSPropertyOp57
 70
     1
102
RTVSPropertyOp58
 70
     1
102
RTVSPropertyOp59
 70
     1
102
RTVSPropertyOp60
 70
     1
102
RTVSPropertyOp61
 70
     1
102
RTVSPropertyOp62
 70
     1
  0
XRECORD
  5
3243
102
{ACAD_REACTORS
330
3242
102
}
330
3242
100
AcDbXrecord
280
     1
102
RTVSPost2010Prop28
280
     0
102
RTVSPost2010PropOp28
 70
     1
102
RTVSPost2010Prop29
280
     1
102
RTVSPost2010PropOp29
 70
     1
102
RTVSPost2010Prop30
280
     1
102
RTVSPost2010PropOp30
 70
     1
102
RTVSPost2010Prop31
280
     0
102
RTVSPost2010PropOp31
 70
     1
102
RTVSPost2010Prop32
280
     0
102
RTVSPost2010PropOp32
 70
     1
102
RTVSPost2010Prop33
280
     0
102
RTVSPost2010PropOp33
 70
     1
102
RTVSPost2010Prop34
280
     0
102
RTVSPost2010PropOp34
 70
     1
102
RTVSPost2010Prop35
280
     0
102
RTVSPost2010PropOp35
 70
     1
102
RTVSPost2010Prop36
280
     0
102
RTVSPost2010PropOp36
 70
     1
102
RTVSPost2010Prop37
 90
       50
102
RTVSPost2010PropOp37
 70
     1
102
RTVSPost2010Prop38
140
0.0
102
RTVSPost2010PropOp38
 70
     1
102
RTVSPost2010Prop39
140
1.0
102
RTVSPost2010PropOp39
 70
     1
102
RTVSPost2010Prop40
 90
        0
102
RTVSPost2010PropOp40
 70
     1
102
RTVSPost2010Prop41ColorIndex
 90
       18
102
RTVSPost2010Prop41ColorRGB
 90
        0
102
RTVSPost2010PropOp41
 70
     1
102
RTVSPost2010Prop42
 90
       50
102
RTVSPost2010PropOp42
 70
     1
102
RTVSPost2010Prop43
 90
        3
102
RTVSPost2010PropOp43
 70
     1
102
RTVSPost2010Prop44ColorIndex
 90
        5
102
RTVSPost2010Prop44ColorRGB
 90
      255
102
RTVSPost2010PropOp44
 70
     1
102
RTVSPost2010Prop45
280
     0
102
RTVSPost2010PropOp45
 70
     1
102
RTVSPost2010Prop46
 90
       50
102
RTVSPost2010PropOp46
 70
     1
102
RTVSPost2010Prop47
 90
       50
102
RTVSPost2010PropOp47
 70
     1
102
RTVSPost2010Prop48
 90
       50
102
RTVSPost2010PropOp48
 70
     1
102
RTVSPost2010Prop49
280
     0
102
RTVSPost2010PropOp49
 70
     1
102
RTVSPost2010Prop50
 90
       50
102
RTVSPost2010PropOp50
 70
     1
102
RTVSPost2010Prop51ColorIndex
 90
      256
102
RTVSPost2010Prop51ColorRGB
 90
-16777216
102
RTVSPost2010PropOp51
 70
     0
102
RTVSPost2010Prop52
140
1.0
102
RTVSPost2010PropOp52
 70
     0
102
RTVSPost2010Prop53
 90
        2
102
RTVSPost2010PropOp53
 70
     1
102
RTVSPost2010Prop54
  1
strokes_ogs.tif
102
RTVSPost2010PropOp54
 70
     1
102
RTVSPost2010Prop55
280
     0
102
RTVSPost2010PropOp55
 70
     1
102
RTVSPost2010Prop56
140
1.0
102
RTVSPost2010PropOp56
 70
     1
102
RTVSPost2010Prop57
140
1.0
102
RTVSPost2010PropOp57
 70
     1
102
RTVSPropertyOp0
 70
     1
102
RTVSPropertyOp1
 70
     1
102
RTVSPropertyOp2
 70
     1
102
RTVSPropertyOp3
 70
     1
102
RTVSPropertyOp4
 70
     1
102
RTVSPropertyOp5
 70
     1
102
RTVSPropertyOp6
 70
     1
102
RTVSPropertyOp7
 70
     1
102
RTVSPropertyOp8
 70
     1
102
RTVSPropertyOp9
 70
     1
102
RTVSPropertyOp10
 70
     1
102
RTVSPropertyOp11
 70
     1
102
RTVSPropertyOp12
 70
     1
102
RTVSPropertyOp13
 70
     1
102
RTVSPropertyOp14
 70
     1
102
RTVSPropertyOp15
 70
     1
102
RTVSPropertyOp16
 70
     1
102
RTVSPropertyOp17
 70
     1
102
RTVSPropertyOp18
 70
     1
102
RTVSPropertyOp19
 70
     1
102
RTVSPropertyOp20
 70
     1
102
RTVSPropertyOp21
 70
     1
102
RTVSPropertyOp22
 70
     1
102
RTVSPropertyOp23
 70
     1
102
RTVSPropertyOp24
 70
     1
102
RTVSPropertyOp25
 70
     1
102
RTVSPropertyOp26
 70
     1
102
RTVSPropertyOp27
 70
     1
102
RTVSPropertyOp28
 70
     1
102
RTVSPropertyOp29
 70
     1
102
RTVSPropertyOp30
 70
     1
102
RTVSPropertyOp31
 70
     1
102
RTVSPropertyOp32
 70
     1
102
RTVSPropertyOp33
 70
     1
102
RTVSPropertyOp34
 70
     1
102
RTVSPropertyOp35
 70
     1
102
RTVSPropertyOp36
 70
     1
102
RTVSPropertyOp37
 70
     1
102
RTVSPropertyOp38
 70
     1
102
RTVSPropertyOp39
 70
     1
102
RTVSPropertyOp40
 70
     1
102
RTVSPropertyOp41
 70
     1
102
RTVSPropertyOp42
 70
     1
102
RTVSPropertyOp43
 70
     1
102
RTVSPropertyOp44
 70
     1
102
RTVSPropertyOp45
 70
     1
102
RTVSPropertyOp46
 70
     1
102
RTVSPropertyOp47
 70
     1
102
RTVSPropertyOp48
 70
     1
102
RTVSPropertyOp49
 70
     1
102
RTVSPropertyOp50
 70
     1
102
RTVSPropertyOp51
 70
     0
102
RTVSPropertyOp52
 70
     0
102
RTVSPropertyOp53
 70
     1
102
RTVSPropertyOp54
 70
     1
102
RTVSPropertyOp55
 70
     1
102
RTVSPropertyOp56
 70
     1
102
RTVSPropertyOp57
 70
     1
102
RTVSPropertyOp58
 70
     1
102
RTVSPropertyOp59
 70
     1
102
RTVSPropertyOp60
 70
     1
102
RTVSPropertyOp61
 70
     1
102
RTVSPropertyOp62
 70
     1
  0
XRECORD
  5
323D
102
{ACAD_REACTORS
330
323C
102
}
330
323C
100
AcDbXrecord
280
     1
102
RTVSPost2010Prop28
280
     0
102
RTVSPost2010PropOp28
 70
     1
102
RTVSPost2010Prop29
280
     1
102
RTVSPost2010PropOp29
 70
     1
102
RTVSPost2010Prop30
280
     1
102
RTVSPost2010PropOp30
 70
     1
102
RTVSPost2010Prop31
280
     0
102
RTVSPost2010PropOp31
 70
     1
102
RTVSPost2010Prop32
280
     0
102
RTVSPost2010PropOp32
 70
     1
102
RTVSPost2010Prop33
280
     0
102
RTVSPost2010PropOp33
 70
     1
102
RTVSPost2010Prop34
280
     0
102
RTVSPost2010PropOp34
 70
     1
102
RTVSPost2010Prop35
280
     0
102
RTVSPost2010PropOp35
 70
     1
102
RTVSPost2010Prop36
280
     0
102
RTVSPost2010PropOp36
 70
     1
102
RTVSPost2010Prop37
 90
       50
102
RTVSPost2010PropOp37
 70
     1
102
RTVSPost2010Prop38
140
0.0
102
RTVSPost2010PropOp38
 70
     1
102
RTVSPost2010Prop39
140
1.0
102
RTVSPost2010PropOp39
 70
     1
102
RTVSPost2010Prop40
 90
        0
102
RTVSPost2010PropOp40
 70
     1
102
RTVSPost2010Prop41ColorIndex
 90
       18
102
RTVSPost2010Prop41ColorRGB
 90
        0
102
RTVSPost2010PropOp41
 70
     1
102
RTVSPost2010Prop42
 90
       50
102
RTVSPost2010PropOp42
 70
     1
102
RTVSPost2010Prop43
 90
        3
102
RTVSPost2010PropOp43
 70
     1
102
RTVSPost2010Prop44ColorIndex
 90
        5
102
RTVSPost2010Prop44ColorRGB
 90
      255
102
RTVSPost2010PropOp44
 70
     1
102
RTVSPost2010Prop45
280
     0
102
RTVSPost2010PropOp45
 70
     1
102
RTVSPost2010Prop46
 90
       50
102
RTVSPost2010PropOp46
 70
     1
102
RTVSPost2010Prop47
 90
       50
102
RTVSPost2010PropOp47
 70
     1
102
RTVSPost2010Prop48
 90
       50
102
RTVSPost2010PropOp48
 70
     1
102
RTVSPost2010Prop49
280
     0
102
RTVSPost2010PropOp49
 70
     1
102
RTVSPost2010Prop50
 90
       50
102
RTVSPost2010PropOp50
 70
     1
102
RTVSPost2010Prop51ColorIndex
 90
      256
102
RTVSPost2010Prop51ColorRGB
 90
-16777216
102
RTVSPost2010PropOp51
 70
     0
102
RTVSPost2010Prop52
140
1.0
102
RTVSPost2010PropOp52
 70
     0
102
RTVSPost2010Prop53
 90
        2
102
RTVSPost2010PropOp53
 70
     1
102
RTVSPost2010Prop54
  1
strokes_ogs.tif
102
RTVSPost2010PropOp54
 70
     1
102
RTVSPost2010Prop55
280
     0
102
RTVSPost2010PropOp55
 70
     1
102
RTVSPost2010Prop56
140
1.0
102
RTVSPost2010PropOp56
 70
     1
102
RTVSPost2010Prop57
140
1.0
102
RTVSPost2010PropOp57
 70
     1
102
RTVSPropertyOp0
 70
     1
102
RTVSPropertyOp1
 70
     1
102
RTVSPropertyOp2
 70
     1
102
RTVSPropertyOp3
 70
     1
102
RTVSPropertyOp4
 70
     1
102
RTVSPropertyOp5
 70
     1
102
RTVSPropertyOp6
 70
     1
102
RTVSPropertyOp7
 70
     1
102
RTVSPropertyOp8
 70
     1
102
RTVSPropertyOp9
 70
     1
102
RTVSPropertyOp10
 70
     1
102
RTVSPropertyOp11
 70
     1
102
RTVSPropertyOp12
 70
     1
102
RTVSPropertyOp13
 70
     1
102
RTVSPropertyOp14
 70
     1
102
RTVSPropertyOp15
 70
     1
102
RTVSPropertyOp16
 70
     1
102
RTVSPropertyOp17
 70
     1
102
RTVSPropertyOp18
 70
     1
102
RTVSPropertyOp19
 70
     1
102
RTVSPropertyOp20
 70
     1
102
RTVSPropertyOp21
 70
     1
102
RTVSPropertyOp22
 70
     1
102
RTVSPropertyOp23
 70
     1
102
RTVSPropertyOp24
 70
     1
102
RTVSPropertyOp25
 70
     1
102
RTVSPropertyOp26
 70
     1
102
RTVSPropertyOp27
 70
     1
102
RTVSPropertyOp28
 70
     1
102
RTVSPropertyOp29
 70
     1
102
RTVSPropertyOp30
 70
     1
102
RTVSPropertyOp31
 70
     1
102
RTVSPropertyOp32
 70
     1
102
RTVSPropertyOp33
 70
     1
102
RTVSPropertyOp34
 70
     1
102
RTVSPropertyOp35
 70
     1
102
RTVSPropertyOp36
 70
     1
102
RTVSPropertyOp37
 70
     1
102
RTVSPropertyOp38
 70
     1
102
RTVSPropertyOp39
 70
     1
102
RTVSPropertyOp40
 70
     1
102
RTVSPropertyOp41
 70
     1
102
RTVSPropertyOp42
 70
     1
102
RTVSPropertyOp43
 70
     1
102
RTVSPropertyOp44
 70
     1
102
RTVSPropertyOp45
 70
     1
102
RTVSPropertyOp46
 70
     1
102
RTVSPropertyOp47
 70
     1
102
RTVSPropertyOp48
 70
     1
102
RTVSPropertyOp49
 70
     1
102
RTVSPropertyOp50
 70
     1
102
RTVSPropertyOp51
 70
     0
102
RTVSPropertyOp52
 70
     0
102
RTVSPropertyOp53
 70
     1
102
RTVSPropertyOp54
 70
     1
102
RTVSPropertyOp55
 70
     1
102
RTVSPropertyOp56
 70
     1
102
RTVSPropertyOp57
 70
     1
102
RTVSPropertyOp58
 70
     1
102
RTVSPropertyOp59
 70
     1
102
RTVSPropertyOp60
 70
     1
102
RTVSPropertyOp61
 70
     1
102
RTVSPropertyOp62
 70
     1
  0
XRECORD
  5
323F
102
{ACAD_REACTORS
330
323E
102
}
330
323E
100
AcDbXrecord
280
     1
102
RTVSPost2010Prop28
280
     0
102
RTVSPost2010PropOp28
 70
     1
102
RTVSPost2010Prop29
280
     1
102
RTVSPost2010PropOp29
 70
     1
102
RTVSPost2010Prop30
280
     1
102
RTVSPost2010PropOp30
 70
     1
102
RTVSPost2010Prop31
280
     0
102
RTVSPost2010PropOp31
 70
     1
102
RTVSPost2010Prop32
280
     0
102
RTVSPost2010PropOp32
 70
     1
102
RTVSPost2010Prop33
280
     0
102
RTVSPost2010PropOp33
 70
     1
102
RTVSPost2010Prop34
280
     0
102
RTVSPost2010PropOp34
 70
     1
102
RTVSPost2010Prop35
280
     0
102
RTVSPost2010PropOp35
 70
     1
102
RTVSPost2010Prop36
280
     0
102
RTVSPost2010PropOp36
 70
     1
102
RTVSPost2010Prop37
 90
       50
102
RTVSPost2010PropOp37
 70
     1
102
RTVSPost2010Prop38
140
0.0
102
RTVSPost2010PropOp38
 70
     1
102
RTVSPost2010Prop39
140
1.0
102
RTVSPost2010PropOp39
 70
     1
102
RTVSPost2010Prop40
 90
        0
102
RTVSPost2010PropOp40
 70
     1
102
RTVSPost2010Prop41ColorIndex
 90
       18
102
RTVSPost2010Prop41ColorRGB
 90
        0
102
RTVSPost2010PropOp41
 70
     1
102
RTVSPost2010Prop42
 90
       50
102
RTVSPost2010PropOp42
 70
     1
102
RTVSPost2010Prop43
 90
        3
102
RTVSPost2010PropOp43
 70
     1
102
RTVSPost2010Prop44ColorIndex
 90
        5
102
RTVSPost2010Prop44ColorRGB
 90
      255
102
RTVSPost2010PropOp44
 70
     1
102
RTVSPost2010Prop45
280
     0
102
RTVSPost2010PropOp45
 70
     1
102
RTVSPost2010Prop46
 90
       50
102
RTVSPost2010PropOp46
 70
     1
102
RTVSPost2010Prop47
 90
       50
102
RTVSPost2010PropOp47
 70
     1
102
RTVSPost2010Prop48
 90
       50
102
RTVSPost2010PropOp48
 70
     1
102
RTVSPost2010Prop49
280
     0
102
RTVSPost2010PropOp49
 70
     1
102
RTVSPost2010Prop50
 90
       50
102
RTVSPost2010PropOp50
 70
     1
102
RTVSPost2010Prop51ColorIndex
 90
      256
102
RTVSPost2010Prop51ColorRGB
 90
-16777216
102
RTVSPost2010PropOp51
 70
     0
102
RTVSPost2010Prop52
140
1.0
102
RTVSPost2010PropOp52
 70
     0
102
RTVSPost2010Prop53
 90
        2
102
RTVSPost2010PropOp53
 70
     1
102
RTVSPost2010Prop54
  1
strokes_ogs.tif
102
RTVSPost2010PropOp54
 70
     1
102
RTVSPost2010Prop55
280
     0
102
RTVSPost2010PropOp55
 70
     1
102
RTVSPost2010Prop56
140
1.0
102
RTVSPost2010PropOp56
 70
     1
102
RTVSPost2010Prop57
140
1.0
102
RTVSPost2010PropOp57
 70
     1
102
RTVSPropertyOp0
 70
     1
102
RTVSPropertyOp1
 70
     1
102
RTVSPropertyOp2
 70
     1
102
RTVSPropertyOp3
 70
     1
102
RTVSPropertyOp4
 70
     1
102
RTVSPropertyOp5
 70
     1
102
RTVSPropertyOp6
 70
     1
102
RTVSPropertyOp7
 70
     1
102
RTVSPropertyOp8
 70
     1
102
RTVSPropertyOp9
 70
     1
102
RTVSPropertyOp10
 70
     1
102
RTVSPropertyOp11
 70
     1
102
RTVSPropertyOp12
 70
     1
102
RTVSPropertyOp13
 70
     1
102
RTVSPropertyOp14
 70
     1
102
RTVSPropertyOp15
 70
     1
102
RTVSPropertyOp16
 70
     1
102
RTVSPropertyOp17
 70
     1
102
RTVSPropertyOp18
 70
     1
102
RTVSPropertyOp19
 70
     1
102
RTVSPropertyOp20
 70
     1
102
RTVSPropertyOp21
 70
     1
102
RTVSPropertyOp22
 70
     1
102
RTVSPropertyOp23
 70
     1
102
RTVSPropertyOp24
 70
     1
102
RTVSPropertyOp25
 70
     1
102
RTVSPropertyOp26
 70
     1
102
RTVSPropertyOp27
 70
     1
102
RTVSPropertyOp28
 70
     1
102
RTVSPropertyOp29
 70
     1
102
RTVSPropertyOp30
 70
     1
102
RTVSPropertyOp31
 70
     1
102
RTVSPropertyOp32
 70
     1
102
RTVSPropertyOp33
 70
     1
102
RTVSPropertyOp34
 70
     1
102
RTVSPropertyOp35
 70
     1
102
RTVSPropertyOp36
 70
     1
102
RTVSPropertyOp37
 70
     1
102
RTVSPropertyOp38
 70
     1
102
RTVSPropertyOp39
 70
     1
102
RTVSPropertyOp40
 70
     1
102
RTVSPropertyOp41
 70
     1
102
RTVSPropertyOp42
 70
     1
102
RTVSPropertyOp43
 70
     1
102
RTVSPropertyOp44
 70
     1
102
RTVSPropertyOp45
 70
     1
102
RTVSPropertyOp46
 70
     1
102
RTVSPropertyOp47
 70
     1
102
RTVSPropertyOp48
 70
     1
102
RTVSPropertyOp49
 70
     1
102
RTVSPropertyOp50
 70
     1
102
RTVSPropertyOp51
 70
     0
102
RTVSPropertyOp52
 70
     0
102
RTVSPropertyOp53
 70
     1
102
RTVSPropertyOp54
 70
     1
102
RTVSPropertyOp55
 70
     1
102
RTVSPropertyOp56
 70
     1
102
RTVSPropertyOp57
 70
     1
102
RTVSPropertyOp58
 70
     1
102
RTVSPropertyOp59
 70
     1
102
RTVSPropertyOp60
 70
     1
102
RTVSPropertyOp61
 70
     1
102
RTVSPropertyOp62
 70
     1
  0
XRECORD
  5
3235
102
{ACAD_REACTORS
330
3234
102
}
330
3234
100
AcDbXrecord
280
     1
102
RTVSPost2010Prop28
280
     0
102
RTVSPost2010PropOp28
 70
     1
102
RTVSPost2010Prop29
280
     1
102
RTVSPost2010PropOp29
 70
     1
102
RTVSPost2010Prop30
280
     1
102
RTVSPost2010PropOp30
 70
     1
102
RTVSPost2010Prop31
280
     0
102
RTVSPost2010PropOp31
 70
     1
102
RTVSPost2010Prop32
280
     0
102
RTVSPost2010PropOp32
 70
     1
102
RTVSPost2010Prop33
280
     0
102
RTVSPost2010PropOp33
 70
     1
102
RTVSPost2010Prop34
280
     0
102
RTVSPost2010PropOp34
 70
     1
102
RTVSPost2010Prop35
280
     0
102
RTVSPost2010PropOp35
 70
     1
102
RTVSPost2010Prop36
280
     0
102
RTVSPost2010PropOp36
 70
     1
102
RTVSPost2010Prop37
 90
       50
102
RTVSPost2010PropOp37
 70
     1
102
RTVSPost2010Prop38
140
0.0
102
RTVSPost2010PropOp38
 70
     1
102
RTVSPost2010Prop39
140
1.0
102
RTVSPost2010PropOp39
 70
     1
102
RTVSPost2010Prop40
 90
        0
102
RTVSPost2010PropOp40
 70
     1
102
RTVSPost2010Prop41ColorIndex
 90
       18
102
RTVSPost2010Prop41ColorRGB
 90
        0
102
RTVSPost2010PropOp41
 70
     1
102
RTVSPost2010Prop42
 90
       50
102
RTVSPost2010PropOp42
 70
     1
102
RTVSPost2010Prop43
 90
        3
102
RTVSPost2010PropOp43
 70
     1
102
RTVSPost2010Prop44ColorIndex
 90
        5
102
RTVSPost2010Prop44ColorRGB
 90
      255
102
RTVSPost2010PropOp44
 70
     1
102
RTVSPost2010Prop45
280
     0
102
RTVSPost2010PropOp45
 70
     1
102
RTVSPost2010Prop46
 90
       50
102
RTVSPost2010PropOp46
 70
     1
102
RTVSPost2010Prop47
 90
       50
102
RTVSPost2010PropOp47
 70
     1
102
RTVSPost2010Prop48
 90
       50
102
RTVSPost2010PropOp48
 70
     1
102
RTVSPost2010Prop49
280
     0
102
RTVSPost2010PropOp49
 70
     1
102
RTVSPost2010Prop50
 90
       50
102
RTVSPost2010PropOp50
 70
     1
102
RTVSPost2010Prop51ColorIndex
 90
      256
102
RTVSPost2010Prop51ColorRGB
 90
-16777216
102
RTVSPost2010PropOp51
 70
     0
102
RTVSPost2010Prop52
140
1.0
102
RTVSPost2010PropOp52
 70
     0
102
RTVSPost2010Prop53
 90
        2
102
RTVSPost2010PropOp53
 70
     1
102
RTVSPost2010Prop54
  1
strokes_ogs.tif
102
RTVSPost2010PropOp54
 70
     1
102
RTVSPost2010Prop55
280
     0
102
RTVSPost2010PropOp55
 70
     1
102
RTVSPost2010Prop56
140
1.0
102
RTVSPost2010PropOp56
 70
     1
102
RTVSPost2010Prop57
140
1.0
102
RTVSPost2010PropOp57
 70
     1
102
RTVSPropertyOp0
 70
     1
102
RTVSPropertyOp1
 70
     1
102
RTVSPropertyOp2
 70
     1
102
RTVSPropertyOp3
 70
     1
102
RTVSPropertyOp4
 70
     1
102
RTVSPropertyOp5
 70
     1
102
RTVSPropertyOp6
 70
     1
102
RTVSPropertyOp7
 70
     1
102
RTVSPropertyOp8
 70
     1
102
RTVSPropertyOp9
 70
     1
102
RTVSPropertyOp10
 70
     1
102
RTVSPropertyOp11
 70
     1
102
RTVSPropertyOp12
 70
     1
102
RTVSPropertyOp13
 70
     1
102
RTVSPropertyOp14
 70
     1
102
RTVSPropertyOp15
 70
     1
102
RTVSPropertyOp16
 70
     1
102
RTVSPropertyOp17
 70
     1
102
RTVSPropertyOp18
 70
     1
102
RTVSPropertyOp19
 70
     1
102
RTVSPropertyOp20
 70
     1
102
RTVSPropertyOp21
 70
     1
102
RTVSPropertyOp22
 70
     1
102
RTVSPropertyOp23
 70
     1
102
RTVSPropertyOp24
 70
     1
102
RTVSPropertyOp25
 70
     1
102
RTVSPropertyOp26
 70
     1
102
RTVSPropertyOp27
 70
     1
102
RTVSPropertyOp28
 70
     1
102
RTVSPropertyOp29
 70
     1
102
RTVSPropertyOp30
 70
     1
102
RTVSPropertyOp31
 70
     1
102
RTVSPropertyOp32
 70
     1
102
RTVSPropertyOp33
 70
     1
102
RTVSPropertyOp34
 70
     1
102
RTVSPropertyOp35
 70
     1
102
RTVSPropertyOp36
 70
     1
102
RTVSPropertyOp37
 70
     1
102
RTVSPropertyOp38
 70
     1
102
RTVSPropertyOp39
 70
     1
102
RTVSPropertyOp40
 70
     1
102
RTVSPropertyOp41
 70
     1
102
RTVSPropertyOp42
 70
     1
102
RTVSPropertyOp43
 70
     1
102
RTVSPropertyOp44
 70
     1
102
RTVSPropertyOp45
 70
     1
102
RTVSPropertyOp46
 70
     1
102
RTVSPropertyOp47
 70
     1
102
RTVSPropertyOp48
 70
     1
102
RTVSPropertyOp49
 70
     1
102
RTVSPropertyOp50
 70
     1
102
RTVSPropertyOp51
 70
     0
102
RTVSPropertyOp52
 70
     0
102
RTVSPropertyOp53
 70
     1
102
RTVSPropertyOp54
 70
     1
102
RTVSPropertyOp55
 70
     1
102
RTVSPropertyOp56
 70
     1
102
RTVSPropertyOp57
 70
     1
102
RTVSPropertyOp58
 70
     1
102
RTVSPropertyOp59
 70
     1
102
RTVSPropertyOp60
 70
     1
102
RTVSPropertyOp61
 70
     1
102
RTVSPropertyOp62
 70
     1
  0
XRECORD
  5
3229
102
{ACAD_REACTORS
330
3228
102
}
330
3228
100
AcDbXrecord
280
     1
102
RTVSPost2010Prop28
280
     0
102
RTVSPost2010PropOp28
 70
     1
102
RTVSPost2010Prop29
280
     1
102
RTVSPost2010PropOp29
 70
     1
102
RTVSPost2010Prop30
280
     1
102
RTVSPost2010PropOp30
 70
     1
102
RTVSPost2010Prop31
280
     0
102
RTVSPost2010PropOp31
 70
     1
102
RTVSPost2010Prop32
280
     0
102
RTVSPost2010PropOp32
 70
     1
102
RTVSPost2010Prop33
280
     0
102
RTVSPost2010PropOp33
 70
     1
102
RTVSPost2010Prop34
280
     0
102
RTVSPost2010PropOp34
 70
     1
102
RTVSPost2010Prop35
280
     0
102
RTVSPost2010PropOp35
 70
     1
102
RTVSPost2010Prop36
280
     0
102
RTVSPost2010PropOp36
 70
     1
102
RTVSPost2010Prop37
 90
       50
102
RTVSPost2010PropOp37
 70
     1
102
RTVSPost2010Prop38
140
0.0
102
RTVSPost2010PropOp38
 70
     1
102
RTVSPost2010Prop39
140
1.0
102
RTVSPost2010PropOp39
 70
     1
102
RTVSPost2010Prop40
 90
        0
102
RTVSPost2010PropOp40
 70
     1
102
RTVSPost2010Prop41ColorIndex
 90
       18
102
RTVSPost2010Prop41ColorRGB
 90
        0
102
RTVSPost2010PropOp41
 70
     1
102
RTVSPost2010Prop42
 90
       50
102
RTVSPost2010PropOp42
 70
     1
102
RTVSPost2010Prop43
 90
        3
102
RTVSPost2010PropOp43
 70
     1
102
RTVSPost2010Prop44ColorIndex
 90
        5
102
RTVSPost2010Prop44ColorRGB
 90
      255
102
RTVSPost2010PropOp44
 70
     1
102
RTVSPost2010Prop45
280
     0
102
RTVSPost2010PropOp45
 70
     1
102
RTVSPost2010Prop46
 90
       50
102
RTVSPost2010PropOp46
 70
     1
102
RTVSPost2010Prop47
 90
       50
102
RTVSPost2010PropOp47
 70
     1
102
RTVSPost2010Prop48
 90
       50
102
RTVSPost2010PropOp48
 70
     1
102
RTVSPost2010Prop49
280
     0
102
RTVSPost2010PropOp49
 70
     1
102
RTVSPost2010Prop50
 90
       50
102
RTVSPost2010PropOp50
 70
     1
102
RTVSPost2010Prop51ColorIndex
 90
      256
102
RTVSPost2010Prop51ColorRGB
 90
-16777216
102
RTVSPost2010PropOp51
 70
     0
102
RTVSPost2010Prop52
140
1.0
102
RTVSPost2010PropOp52
 70
     0
102
RTVSPost2010Prop53
 90
        2
102
RTVSPost2010PropOp53
 70
     1
102
RTVSPost2010Prop54
  1
strokes_ogs.tif
102
RTVSPost2010PropOp54
 70
     1
102
RTVSPost2010Prop55
280
     0
102
RTVSPost2010PropOp55
 70
     1
102
RTVSPost2010Prop56
140
1.0
102
RTVSPost2010PropOp56
 70
     1
102
RTVSPost2010Prop57
140
1.0
102
RTVSPost2010PropOp57
 70
     1
102
RTVSPropertyOp0
 70
     1
102
RTVSPropertyOp1
 70
     1
102
RTVSPropertyOp2
 70
     1
102
RTVSPropertyOp3
 70
     1
102
RTVSPropertyOp4
 70
     1
102
RTVSPropertyOp5
 70
     1
102
RTVSPropertyOp6
 70
     1
102
RTVSPropertyOp7
 70
     1
102
RTVSPropertyOp8
 70
     1
102
RTVSPropertyOp9
 70
     1
102
RTVSPropertyOp10
 70
     1
102
RTVSPropertyOp11
 70
     1
102
RTVSPropertyOp12
 70
     1
102
RTVSPropertyOp13
 70
     1
102
RTVSPropertyOp14
 70
     1
102
RTVSPropertyOp15
 70
     1
102
RTVSPropertyOp16
 70
     1
102
RTVSPropertyOp17
 70
     1
102
RTVSPropertyOp18
 70
     1
102
RTVSPropertyOp19
 70
     1
102
RTVSPropertyOp20
 70
     1
102
RTVSPropertyOp21
 70
     1
102
RTVSPropertyOp22
 70
     1
102
RTVSPropertyOp23
 70
     1
102
RTVSPropertyOp24
 70
     1
102
RTVSPropertyOp25
 70
     1
102
RTVSPropertyOp26
 70
     1
102
RTVSPropertyOp27
 70
     1
102
RTVSPropertyOp28
 70
     1
102
RTVSPropertyOp29
 70
     1
102
RTVSPropertyOp30
 70
     1
102
RTVSPropertyOp31
 70
     1
102
RTVSPropertyOp32
 70
     1
102
RTVSPropertyOp33
 70
     1
102
RTVSPropertyOp34
 70
     1
102
RTVSPropertyOp35
 70
     1
102
RTVSPropertyOp36
 70
     1
102
RTVSPropertyOp37
 70
     1
102
RTVSPropertyOp38
 70
     1
102
RTVSPropertyOp39
 70
     1
102
RTVSPropertyOp40
 70
     1
102
RTVSPropertyOp41
 70
     1
102
RTVSPropertyOp42
 70
     1
102
RTVSPropertyOp43
 70
     1
102
RTVSPropertyOp44
 70
     1
102
RTVSPropertyOp45
 70
     1
102
RTVSPropertyOp46
 70
     1
102
RTVSPropertyOp47
 70
     1
102
RTVSPropertyOp48
 70
     1
102
RTVSPropertyOp49
 70
     1
102
RTVSPropertyOp50
 70
     1
102
RTVSPropertyOp51
 70
     0
102
RTVSPropertyOp52
 70
     0
102
RTVSPropertyOp53
 70
     1
102
RTVSPropertyOp54
 70
     1
102
RTVSPropertyOp55
 70
     1
102
RTVSPropertyOp56
 70
     1
102
RTVSPropertyOp57
 70
     1
102
RTVSPropertyOp58
 70
     1
102
RTVSPropertyOp59
 70
     1
102
RTVSPropertyOp60
 70
     1
102
RTVSPropertyOp61
 70
     1
102
RTVSPropertyOp62
 70
     1
  0
XRECORD
  5
3241
102
{ACAD_REACTORS
330
3240
102
}
330
3240
100
AcDbXrecord
280
     1
102
RTVSPost2010Prop28
280
     0
102
RTVSPost2010PropOp28
 70
     1
102
RTVSPost2010Prop29
280
     1
102
RTVSPost2010PropOp29
 70
     1
102
RTVSPost2010Prop30
280
     1
102
RTVSPost2010PropOp30
 70
     1
102
RTVSPost2010Prop31
280
     0
102
RTVSPost2010PropOp31
 70
     1
102
RTVSPost2010Prop32
280
     0
102
RTVSPost2010PropOp32
 70
     1
102
RTVSPost2010Prop33
280
     0
102
RTVSPost2010PropOp33
 70
     1
102
RTVSPost2010Prop34
280
     0
102
RTVSPost2010PropOp34
 70
     1
102
RTVSPost2010Prop35
280
     0
102
RTVSPost2010PropOp35
 70
     1
102
RTVSPost2010Prop36
280
     0
102
RTVSPost2010PropOp36
 70
     1
102
RTVSPost2010Prop37
 90
       50
102
RTVSPost2010PropOp37
 70
     1
102
RTVSPost2010Prop38
140
0.0
102
RTVSPost2010PropOp38
 70
     1
102
RTVSPost2010Prop39
140
1.0
102
RTVSPost2010PropOp39
 70
     1
102
RTVSPost2010Prop40
 90
        0
102
RTVSPost2010PropOp40
 70
     1
102
RTVSPost2010Prop41ColorIndex
 90
       18
102
RTVSPost2010Prop41ColorRGB
 90
        0
102
RTVSPost2010PropOp41
 70
     1
102
RTVSPost2010Prop42
 90
       50
102
RTVSPost2010PropOp42
 70
     1
102
RTVSPost2010Prop43
 90
        3
102
RTVSPost2010PropOp43
 70
     1
102
RTVSPost2010Prop44ColorIndex
 90
        5
102
RTVSPost2010Prop44ColorRGB
 90
      255
102
RTVSPost2010PropOp44
 70
     1
102
RTVSPost2010Prop45
280
     0
102
RTVSPost2010PropOp45
 70
     1
102
RTVSPost2010Prop46
 90
       50
102
RTVSPost2010PropOp46
 70
     1
102
RTVSPost2010Prop47
 90
       50
102
RTVSPost2010PropOp47
 70
     1
102
RTVSPost2010Prop48
 90
       50
102
RTVSPost2010PropOp48
 70
     1
102
RTVSPost2010Prop49
280
     0
102
RTVSPost2010PropOp49
 70
     1
102
RTVSPost2010Prop50
 90
       50
102
RTVSPost2010PropOp50
 70
     1
102
RTVSPost2010Prop51ColorIndex
 90
      256
102
RTVSPost2010Prop51ColorRGB
 90
-16777216
102
RTVSPost2010PropOp51
 70
     0
102
RTVSPost2010Prop52
140
1.0
102
RTVSPost2010PropOp52
 70
     0
102
RTVSPost2010Prop53
 90
        2
102
RTVSPost2010PropOp53
 70
     1
102
RTVSPost2010Prop54
  1
strokes_ogs.tif
102
RTVSPost2010PropOp54
 70
     1
102
RTVSPost2010Prop55
280
     0
102
RTVSPost2010PropOp55
 70
     1
102
RTVSPost2010Prop56
140
1.0
102
RTVSPost2010PropOp56
 70
     1
102
RTVSPost2010Prop57
140
1.0
102
RTVSPost2010PropOp57
 70
     1
102
RTVSPropertyOp0
 70
     1
102
RTVSPropertyOp1
 70
     1
102
RTVSPropertyOp2
 70
     1
102
RTVSPropertyOp3
 70
     1
102
RTVSPropertyOp4
 70
     1
102
RTVSPropertyOp5
 70
     1
102
RTVSPropertyOp6
 70
     1
102
RTVSPropertyOp7
 70
     1
102
RTVSPropertyOp8
 70
     1
102
RTVSPropertyOp9
 70
     1
102
RTVSPropertyOp10
 70
     1
102
RTVSPropertyOp11
 70
     1
102
RTVSPropertyOp12
 70
     1
102
RTVSPropertyOp13
 70
     1
102
RTVSPropertyOp14
 70
     1
102
RTVSPropertyOp15
 70
     1
102
RTVSPropertyOp16
 70
     1
102
RTVSPropertyOp17
 70
     1
102
RTVSPropertyOp18
 70
     1
102
RTVSPropertyOp19
 70
     1
102
RTVSPropertyOp20
 70
     1
102
RTVSPropertyOp21
 70
     1
102
RTVSPropertyOp22
 70
     1
102
RTVSPropertyOp23
 70
     1
102
RTVSPropertyOp24
 70
     1
102
RTVSPropertyOp25
 70
     1
102
RTVSPropertyOp26
 70
     1
102
RTVSPropertyOp27
 70
     1
102
RTVSPropertyOp28
 70
     1
102
RTVSPropertyOp29
 70
     1
102
RTVSPropertyOp30
 70
     1
102
RTVSPropertyOp31
 70
     1
102
RTVSPropertyOp32
 70
     1
102
RTVSPropertyOp33
 70
     1
102
RTVSPropertyOp34
 70
     1
102
RTVSPropertyOp35
 70
     1
102
RTVSPropertyOp36
 70
     1
102
RTVSPropertyOp37
 70
     1
102
RTVSPropertyOp38
 70
     1
102
RTVSPropertyOp39
 70
     1
102
RTVSPropertyOp40
 70
     1
102
RTVSPropertyOp41
 70
     1
102
RTVSPropertyOp42
 70
     1
102
RTVSPropertyOp43
 70
     1
102
RTVSPropertyOp44
 70
     1
102
RTVSPropertyOp45
 70
     1
102
RTVSPropertyOp46
 70
     1
102
RTVSPropertyOp47
 70
     1
102
RTVSPropertyOp48
 70
     1
102
RTVSPropertyOp49
 70
     1
102
RTVSPropertyOp50
 70
     1
102
RTVSPropertyOp51
 70
     0
102
RTVSPropertyOp52
 70
     0
102
RTVSPropertyOp53
 70
     1
102
RTVSPropertyOp54
 70
     1
102
RTVSPropertyOp55
 70
     1
102
RTVSPropertyOp56
 70
     1
102
RTVSPropertyOp57
 70
     1
102
RTVSPropertyOp58
 70
     1
102
RTVSPropertyOp59
 70
     1
102
RTVSPropertyOp60
 70
     1
102
RTVSPropertyOp61
 70
     1
102
RTVSPropertyOp62
 70
     1
  0
ENDSEC
  0
EOF
