  0
SECTION
  2
HEADER
  9
$ACADVER
  1
AC1015
  9
$ACADMAINTVER
 70
    20
  9
$DWGCODEPAGE
  3
ANSI_932
  9
$INSBASE
 10
0.0
 20
0.0
 30
0.0
  9
$EXTMIN
 10
3.191529301916716
 20
2.71005318489631
 30
-0.0000000349181948
  9
$EXTMAX
 10
406.6186533060609
 20
294.199310990981
 30
0.0000000814935746
  9
$LIMMIN
 10
0.0
 20
0.0
  9
$LIMMAX
 10
420.0
 20
297.0
  9
$ORTHOMODE
 70
     1
  9
$REGENMODE
 70
     1
  9
$FILLMODE
 70
     1
  9
$QTEXTMODE
 70
     0
  9
$MIRRTEXT
 70
     1
  9
$LTSCALE
 40
12.0
  9
$ATTMODE
 70
     1
  9
$TEXTSIZE
 40
0.2
  9
$TRACEWID
 40
0.3
  9
$TEXTSTYLE
  7
STANDARD
  9
$CLAYER
  8
SA
  9
$CELTYPE
  6
ByLayer
  9
$CECOLOR
 62
   256
  9
$CELTSCALE
 40
1.0
  9
$DISPSILH
 70
     0
  9
$DIMSCALE
 40
1.0
  9
$DIMASZ
 40
2.0
  9
$DIMEXO
 40
0.0625
  9
$DIMDLI
 40
0.38
  9
$DIMRND
 40
0.0
  9
$DIMDLE
 40
0.0
  9
$DIMEXE
 40
0.18
  9
$DIMTP
 40
0.0
  9
$DIMTM
 40
0.0
  9
$DIMTXT
 40
2.0
  9
$DIMCEN
 40
0.09
  9
$DIMTSZ
 40
0.0
  9
$DIMTOL
 70
     0
  9
$DIMLIM
 70
     0
  9
$DIMTIH
 70
     1
  9
$DIMTOH
 70
     1
  9
$DIMSE1
 70
     0
  9
$DIMSE2
 70
     0
  9
$DIMTAD
 70
     0
  9
$DIMZIN
 70
     0
  9
$DIMBLK
  1

  9
$DIMASO
 70
     1
  9
$DIMSHO
 70
     0
  9
$DIMPOST
  1

  9
$DIMAPOST
  1

  9
$DIMALT
 70
     0
  9
$DIMALTD
 70
     2
  9
$DIMALTF
 40
25.4
  9
$DIMLFAC
 40
1.0
  9
$DIMTOFL
 70
     0
  9
$DIMTVP
 40
0.0
  9
$DIMTIX
 70
     0
  9
$DIMSOXD
 70
     0
  9
$DIMSAH
 70
     0
  9
$DIMBLK1
  1

  9
$DIMBLK2
  1

  9
$DIMSTYLE
  2
Standard
  9
$DIMCLRD
 70
     0
  9
$DIMCLRE
 70
     0
  9
$DIMCLRT
 70
     0
  9
$DIMTFAC
 40
1.0
  9
$DIMGAP
 40
0.09
  9
$DIMJUST
 70
     0
  9
$DIMSD1
 70
     0
  9
$DIMSD2
 70
     0
  9
$DIMTOLJ
 70
     1
  9
$DIMTZIN
 70
     0
  9
$DIMALTZ
 70
     0
  9
$DIMALTTZ
 70
     0
  9
$DIMUPT
 70
     0
  9
$DIMDEC
 70
     4
  9
$DIMTDEC
 70
     4
  9
$DIMALTU
 70
     2
  9
$DIMALTTD
 70
     2
  9
$DIMTXSTY
  7
0
  9
$DIMAUNIT
 70
     0
  9
$DIMADEC
 70
     0
  9
$DIMALTRND
 40
0.0
  9
$DIMAZIN
 70
     0
  9
$DIMDSEP
 70
    46
  9
$DIMATFIT
 70
     3
  9
$DIMFRAC
 70
     0
  9
$DIMLDRBLK
  1

  9
$DIMLUNIT
 70
     2
  9
$DIMLWD
 70
    -2
  9
$DIMLWE
 70
    -2
  9
$DIMTMOVE
 70
     0
  9
$LUNITS
 70
     2
  9
$LUPREC
 70
     4
  9
$SKETCHINC
 40
0.1
  9
$FILLETRAD
 40
0.0
  9
$AUNITS
 70
     0
  9
$AUPREC
 70
     1
  9
$MENU
  1
ACAD
  9
$ELEVATION
 40
0.0
  9
$PELEVATION
 40
0.0
  9
$THICKNESS
 40
0.0
  9
$LIMCHECK
 70
     0
  9
$CHAMFERA
 40
0.0
  9
$CHAMFERB
 40
0.0
  9
$CHAMFERC
 40
0.0
  9
$CHAMFERD
 40
0.0
  9
$SKPOLY
 70
     0
  9
$TDCREATE
 40
2450808.702418171
  9
$TDUCREATE
 40
2450808.327418172
  9
$TDUPDATE
 40
2458717.773402199
  9
$TDUUPDATE
 40
2458717.398402199
  9
$TDINDWG
 40
2.1225171412
  9
$TDUSRTIMER
 40
2.1225170718
  9
$USRTIMER
 70
     1
  9
$ANGBASE
 50
0.0
  9
$ANGDIR
 70
     0
  9
$PDMODE
 70
     0
  9
$PDSIZE
 40
0.0
  9
$PLINEWID
 40
1.0
  9
$SPLFRAME
 70
     0
  9
$SPLINETYPE
 70
     6
  9
$SPLINESEGS
 70
     8
  9
$HANDSEED
  5
32FA
  9
$SURFTAB1
 70
     6
  9
$SURFTAB2
 70
     6
  9
$SURFTYPE
 70
     6
  9
$SURFU
 70
     6
  9
$SURFV
 70
     6
  9
$UCSBASE
  2

  9
$UCSNAME
  2

  9
$UCSORG
 10
0.0
 20
0.0
 30
0.0
  9
$UCSXDIR
 10
1.0
 20
0.0
 30
0.0
  9
$UCSYDIR
 10
0.0
 20
1.0
 30
0.0
  9
$UCSORTHOREF
  2

  9
$UCSORTHOVIEW
 70
     0
  9
$UCSORGTOP
 10
0.0
 20
0.0
 30
0.0
  9
$UCSORGBOTTOM
 10
0.0
 20
0.0
 30
0.0
  9
$UCSORGLEFT
 10
0.0
 20
0.0
 30
0.0
  9
$UCSORGRIGHT
 10
0.0
 20
0.0
 30
0.0
  9
$UCSORGFRONT
 10
0.0
 20
0.0
 30
0.0
  9
$UCSORGBACK
 10
0.0
 20
0.0
 30
0.0
  9
$PUCSBASE
  2

  9
$PUCSNAME
  2

  9
$PUCSORG
 10
0.0
 20
0.0
 30
0.0
  9
$PUCSXDIR
 10
1.0
 20
0.0
 30
0.0
  9
$PUCSYDIR
 10
0.0
 20
1.0
 30
0.0
  9
$PUCSORTHOREF
  2

  9
$PUCSORTHOVIEW
 70
     0
  9
$PUCSORGTOP
 10
0.0
 20
0.0
 30
0.0
  9
$PUCSORGBOTTOM
 10
0.0
 20
0.0
 30
0.0
  9
$PUCSORGLEFT
 10
0.0
 20
0.0
 30
0.0
  9
$PUCSORGRIGHT
 10
0.0
 20
0.0
 30
0.0
  9
$PUCSORGFRONT
 10
0.0
 20
0.0
 30
0.0
  9
$PUCSORGBACK
 10
0.0
 20
0.0
 30
0.0
  9
$USERI1
 70
     0
  9
$USERI2
 70
     0
  9
$USERI3
 70
     0
  9
$USERI4
 70
     0
  9
$USERI5
 70
     0
  9
$USERR1
 40
0.0
  9
$USERR2
 40
0.0
  9
$USERR3
 40
0.0
  9
$USERR4
 40
0.0
  9
$USERR5
 40
0.0
  9
$WORLDVIEW
 70
     1
  9
$SHADEDGE
 70
     3
  9
$SHADEDIF
 70
    70
  9
$TILEMODE
 70
     1
  9
$MAXACTVP
 70
    16
  9
$PINSBASE
 10
0.0
 20
0.0
 30
0.0
  9
$PLIMCHECK
 70
     0
  9
$PEXTMIN
 10
1.000000000000000E+20
 20
1.000000000000000E+20
 30
1.000000000000000E+20
  9
$PEXTMAX
 10
-1.000000000000000E+20
 20
-1.000000000000000E+20
 30
-1.000000000000000E+20
  9
$PLIMMIN
 10
0.0
 20
0.0
  9
$PLIMMAX
 10
12.0
 20
9.0
  9
$UNITMODE
 70
     0
  9
$VISRETAIN
 70
     0
  9
$PLINEGEN
 70
     0
  9
$PSLTSCALE
 70
     0
  9
$TREEDEPTH
 70
  3020
  9
$CMLSTYLE
  2
Standard
  9
$CMLJUST
 70
     0
  9
$CMLSCALE
 40
1.0
  9
$PROXYGRAPHICS
 70
     1
  9
$MEASUREMENT
 70
     0
  9
$CELWEIGHT
370
    -1
  9
$ENDCAPS
280
     0
  9
$JOINSTYLE
280
     0
  9
$LWDISPLAY
290
     0
  9
$INSUNITS
 70
     0
  9
$HYPERLINKBASE
  1

  9
$STYLESHEET
  1
monochrome.ctb
  9
$XEDIT
290
     1
  9
$CEPSNTYPE
380
     0
  9
$PSTYLEMODE
290
     1
  9
$FINGERPRINTGUID
  2
{51BC8342-4694-11D4-A1F9-0060672295C7}
  9
$VERSIONGUID
  2
{540074C6-9A35-47DE-859B-27ACCC22A8E6}
  9
$EXTNAMES
290
     1
  9
$PSVPSCALE
 40
0.0
  9
$OLESTARTUP
290
     0
  0
ENDSEC
  0
SECTION
  2
CLASSES
  0
CLASS
  1
ACDBDICTIONARYWDFLT
  2
AcDbDictionaryWithDefault
  3
ObjectDBX Classes
 90
        0
280
     0
281
     0
  0
CLASS
  1
ACDBPLACEHOLDER
  2
AcDbPlaceHolder
  3
ObjectDBX Classes
 90
        0
280
     0
281
     0
  0
CLASS
  1
LAYOUT
  2
AcDbLayout
  3
ObjectDBX Classes
 90
        0
280
     0
281
     0
  0
CLASS
  1
TABLESTYLE
  2
AcDbTableStyle
  3
ObjectDBX Classes
 90
     4095
280
     0
281
     0
  0
CLASS
  1
DICTIONARYVAR
  2
AcDbDictionaryVar
  3
ObjectDBX Classes
 90
        0
280
     0
281
     0
  0
CLASS
  1
MATERIAL
  2
AcDbMaterial
  3
ObjectDBX Classes
 90
     1153
280
     0
281
     0
  0
CLASS
  1
VISUALSTYLE
  2
AcDbVisualStyle
  3
ObjectDBX Classes
 90
     4095
280
     0
281
     0
  0
CLASS
  1
SCALE
  2
AcDbScale
  3
ObjectDBX Classes
 90
     1153
280
     0
281
     0
  0
CLASS
  1
MLEADERSTYLE
  2
AcDbMLeaderStyle
  3
ACDB_MLEADERSTYLE_CLASS
 90
     4095
280
     0
281
     0
  0
CLASS
  1
ACDBSECTIONVIEWSTYLE
  2
AcDbSectionViewStyle
  3
ObjectDBX Classes
 90
     1025
280
     0
281
     0
  0
CLASS
  1
ACDBDETAILVIEWSTYLE
  2
AcDbDetailViewStyle
  3
ObjectDBX Classes
 90
     1025
280
     0
281
     0
  0
CLASS
  1
SORTENTSTABLE
  2
AcDbSortentsTable
  3
ObjectDBX Classes
 90
        0
280
     0
281
     0
  0
CLASS
  1
ACDBASSOCACTION
  2
AcDbAssocAction
  3
ObjectDBX Classes
 90
     1025
280
     0
281
     0
  0
CLASS
  1
ACDBASSOCARRAYACTIONBODY
  2
AcDbAssocArrayActionBody
  3
ObjectDBX Classes
 90
     1025
280
     0
281
     0
  0
CLASS
  1
ACDBASSOCDEPENDENCY
  2
AcDbAssocDependency
  3
ObjectDBX Classes
 90
     1025
280
     0
281
     0
  0
CLASS
  1
ACDBASSOCVERTEXACTIONPARAM
  2
AcDbAssocVertexActionParam
  3
ObjectDBX Classes
 90
     1025
280
     0
281
     0
  0
CLASS
  1
ACDBASSOCARRAYPOLARPARAMETERS
  2
AcDbAssocArrayPolarParameters
  3
ObjectDBX Classes
 90
    33793
280
     0
281
     0
  0
CLASS
  1
ACDBASSOCNETWORK
  2
AcDbAssocNetwork
  3
ObjectDBX Classes
 90
     1025
280
     0
281
     0
  0
CLASS
  1
ACDB_ALDIMOBJECTCONTEXTDATA_CLASS
  2
AcDbAlignedDimensionObjectContextData
  3
ObjectDBX Classes
 90
    33921
280
     0
281
     0
  0
CLASS
  1
CELLSTYLEMAP
  2
AcDbCellStyleMap
  3
ObjectDBX Classes
 90
     1152
280
     0
281
     0
  0
ENDSEC
  0
SECTION
  2
TABLES
  0
TABLE
  2
VPORT
  5
8
330
0
100
AcDbSymbolTable
 70
     1
  0
VPORT
  5
1FCB
330
8
100
AcDbSymbolTableRecord
100
AcDbViewportTableRecord
  2
*Active
 70
     0
 10
0.0
 20
0.0
 11
1.0
 21
1.0
 12
204.9050913039888
 22
148.4546820879386
 13
0.0
 23
0.0
 14
0.001
 24
0.001
 15
10.0
 25
10.0
 16
0.0
 26
0.0
 36
1.0
 17
0.0
 27
0.0
 37
0.0
 40
293.7665176326947
 41
1.640156453715775
 42
50.0
 43
0.0
 44
0.0
 50
0.0
 51
0.0
 71
     0
 72
  2000
 73
     1
 74
     0
 75
     1
 76
     1
 77
     0
 78
     2
281
     0
 65
     1
110
0.0
120
0.0
130
0.0
111
1.0
121
0.0
131
0.0
112
0.0
122
1.0
132
0.0
 79
     0
146
0.0
1001
ACAD_NAV_VCDISPLAY
1070
     3
  0
ENDTAB
  0
TABLE
  2
LTYPE
  5
5
330
0
100
AcDbSymbolTable
 70
     4
  0
LTYPE
  5
13
330
5
100
AcDbSymbolTableRecord
100
AcDbLinetypeTableRecord
  2
ByBlock
 70
     0
  3

 72
    65
 73
     0
 40
0.0
  0
LTYPE
  5
14
330
5
100
AcDbSymbolTableRecord
100
AcDbLinetypeTableRecord
  2
ByLayer
 70
     0
  3

 72
    65
 73
     0
 40
0.0
  0
LTYPE
  5
15
330
5
100
AcDbSymbolTableRecord
100
AcDbLinetypeTableRecord
  2
CONTINUOUS
 70
     0
  3
実線
 72
    65
 73
     0
 40
0.0
  0
LTYPE
  5
23
330
5
100
AcDbSymbolTableRecord
100
AcDbLinetypeTableRecord
  2
CENTER
 70
     0
  3
____ _ ____ _ ____ _ ____ _ ____ _ ____ _ ____
 72
    65
 73
     4
 40
2.0
 49
1.25
 74
     0
 49
-0.25
 74
     0
 49
0.25
 74
     0
 49
-0.25
 74
     0
  0
LTYPE
  5
24
330
5
100
AcDbSymbolTableRecord
100
AcDbLinetypeTableRecord
  2
HIDDEN
 70
     0
  3
_ _ _ _ _ _ _ _ _ _ _ _ _ _ _ _ _ _ _ _ _ _ _
 72
    65
 73
     2
 40
0.375
 49
0.25
 74
     0
 49
-0.125
 74
     0
  0
LTYPE
  5
1C0C
330
5
100
AcDbSymbolTableRecord
100
AcDbLinetypeTableRecord
  2
PHANTOM2
 70
     0
  3
Phantom (.5x) ___ _ _ ___ _ _ ___ _ _ ___ _ _
 72
    65
 73
     6
 40
1.25
 49
0.625
 74
     0
 49
-0.125
 74
     0
 49
0.125
 74
     0
 49
-0.125
 74
     0
 49
0.125
 74
     0
 49
-0.125
 74
     0
  0
ENDTAB
  0
TABLE
  2
LAYER
  5
2
102
{ACAD_XDICTIONARY
360
2081
102
}
330
0
100
AcDbSymbolTable
 70
     9
  0
LAYER
  5
10
102
{ACAD_XDICTIONARY
360
2058
102
}
330
2
100
AcDbSymbolTableRecord
100
AcDbLayerTableRecord
  2
0
 70
     0
 62
     7
  6
CONTINUOUS
370
    -3
390
F
  0
LAYER
  5
28
102
{ACAD_XDICTIONARY
360
205A
102
}
330
2
100
AcDbSymbolTableRecord
100
AcDbLayerTableRecord
  2
HO
 70
     0
 62
     2
  6
CENTER
370
    13
390
F
  0
LAYER
  5
29
102
{ACAD_XDICTIONARY
360
205C
102
}
330
2
100
AcDbSymbolTableRecord
100
AcDbLayerTableRecord
  2
HA
 70
     0
 62
     4
  6
HIDDEN
370
    13
390
F
  0
LAYER
  5
2A
102
{ACAD_XDICTIONARY
360
205E
102
}
330
2
100
AcDbSymbolTableRecord
100
AcDbLayerTableRecord
  2
SB
 70
     0
 62
     1
  6
CONTINUOUS
370
    20
390
F
  0
LAYER
  5
2B
102
{ACAD_XDICTIONARY
360
2060
102
}
330
2
100
AcDbSymbolTableRecord
100
AcDbLayerTableRecord
  2
SA
 70
     0
 62
     7
  6
CONTINUOUS
370
    30
390
F
  0
LAYER
  5
2C
102
{ACAD_XDICTIONARY
360
2062
102
}
330
2
100
AcDbSymbolTableRecord
100
AcDbLayerTableRecord
  2
MO
 70
     0
 62
     3
  6
CONTINUOUS
370
    20
390
F
  0
LAYER
  5
2D
102
{ACAD_XDICTIONARY
360
2064
102
}
330
2
100
AcDbSymbolTableRecord
100
AcDbLayerTableRecord
  2
SC
 70
     0
 62
     6
  6
CONTINUOUS
370
    13
390
F
  0
LAYER
  5
2E
330
2
100
AcDbSymbolTableRecord
100
AcDbLayerTableRecord
  2
DEFPOINTS
 70
     0
 62
     7
  6
CONTINUOUS
290
     0
370
    -3
390
F
  0
LAYER
  5
1397
102
{ACAD_XDICTIONARY
360
2066
102
}
330
2
100
AcDbSymbolTableRecord
100
AcDbLayerTableRecord
  2
sd
 70
     0
 62
     1
  6
CONTINUOUS
370
    20
390
F
  0
ENDTAB
  0
TABLE
  2
STYLE
  5
3
330
0
100
AcDbSymbolTable
 70
     3
  0
STYLE
  5
11
330
3
100
AcDbSymbolTableRecord
100
AcDbTextStyleTableRecord
  2
STANDARD
 70
     0
 40
0.0
 41
1.0
 50
0.0
 71
     0
 42
0.2
  3

  4

1001
ACAD
1000
Meiryo
1071
    32818
  0
STYLE
  5
22
330
3
100
AcDbSymbolTableRecord
100
AcDbTextStyleTableRecord
  2
0
 70
     0
 40
0.0
 41
1.0
 50
0.0
 71
     0
 42
10.0
  3
SIMPLEX
  4
BIGFONT
  0
STYLE
  5
1C0B
330
3
100
AcDbSymbolTableRecord
100
AcDbTextStyleTableRecord
  2

 70
     1
 40
0.0
 41
1.0
 50
0.0
 71
     0
 42
10.0
  3
ltypeshp.shx
  4

  0
ENDTAB
  0
TABLE
  2
VIEW
  5
6
330
0
100
AcDbSymbolTable
 70
     1
  0
VIEW
  5
25
330
6
100
AcDbSymbolTableRecord
100
AcDbViewTableRecord
  2
HYOU
 70
     0
 40
162.519
 10
329.94
 20
84.5855
 41
158.206
 11
0.0
 21
0.0
 31
1.0
 12
0.0
 22
0.0
 32
0.0
 42
50.0
 43
0.0
 44
0.0
 50
0.0
 71
     0
281
     0
 72
     0
  0
ENDTAB
  0
TABLE
  2
UCS
  5
7
330
0
100
AcDbSymbolTable
 70
     0
  0
ENDTAB
  0
TABLE
  2
APPID
  5
9
330
0
100
AcDbSymbolTable
 70
    11
  0
APPID
  5
12
330
9
100
AcDbSymbolTableRecord
100
AcDbRegAppTableRecord
  2
ACAD
 70
     0
  0
APPID
  5
17B3
330
9
100
AcDbSymbolTableRecord
100
AcDbRegAppTableRecord
  2
ACAD_PSEXT
 70
     0
  0
APPID
  5
2023
330
9
100
AcDbSymbolTableRecord
100
AcDbRegAppTableRecord
  2
ACAD_EXEMPT_FROM_CAD_STANDARDS
 70
     0
  0
APPID
  5
2068
330
9
100
AcDbSymbolTableRecord
100
AcDbRegAppTableRecord
  2
ACAD_NAV_VCDISPLAY
 70
     0
  0
APPID
  5
2755
330
9
100
AcDbSymbolTableRecord
100
AcDbRegAppTableRecord
  2
ACAD_DSTYLE_DIMRADIAL_EXTENSION
 70
     0
  0
APPID
  5
278B
330
9
100
AcDbSymbolTableRecord
100
AcDbRegAppTableRecord
  2
ACAD_DSTYLE_DIMJAG
 70
     0
  0
APPID
  5
278C
330
9
100
AcDbSymbolTableRecord
100
AcDbRegAppTableRecord
  2
ACAD_DSTYLE_DIMBREAK
 70
     0
  0
APPID
  5
288D
330
9
100
AcDbSymbolTableRecord
100
AcDbRegAppTableRecord
  2
AcadAnnoMonitorAlertIconDisabled
 70
     0
  0
APPID
  5
2947
330
9
100
AcDbSymbolTableRecord
100
AcDbRegAppTableRecord
  2
ACAD_DSTYLE_DIMTALN
 70
     0
  0
APPID
  5
2DD3
330
9
100
AcDbSymbolTableRecord
100
AcDbRegAppTableRecord
  2
AcadAnnoPO
 70
     0
  0
APPID
  5
32F3
330
9
100
AcDbSymbolTableRecord
100
AcDbRegAppTableRecord
  2
ACAD_MLEADERVER
 70
     0
  0
ENDTAB
  0
TABLE
  2
DIMSTYLE
  5
A
330
0
100
AcDbSymbolTable
 70
     2
100
AcDbDimStyleTable
 71
     1
340
3C3
  0
DIMSTYLE
105
3C3
330
A
100
AcDbSymbolTableRecord
100
AcDbDimStyleTableRecord
  2
Standard
 70
     0
 41
2.0
140
2.0
340
22
1001
ACAD_DSTYLE_DIMJAG
1070
   388
1040
1.5
1001
ACAD_DSTYLE_DIMTALN
1070
   392
1070
     0
  0
DIMSTYLE
105
2948
330
A
100
AcDbSymbolTableRecord
100
AcDbDimStyleTableRecord
  2
Standard$3
 70
     0
 41
4.0
 73
     0
 74
     0
 77
     1
140
5.0
289
     1
340
22
1001
ACAD_DSTYLE_DIMBREAK
1070
   391
1040
0.125
1001
ACAD_DSTYLE_DIMJAG
1070
   388
1040
1.5
1001
ACAD_DSTYLE_DIMTALN
1070
   392
1070
     0
  0
ENDTAB
  0
TABLE
  2
BLOCK_RECORD
  5
1
330
0
100
AcDbSymbolTable
 70
     6
  0
BLOCK_RECORD
  5
1E
102
{ACAD_XDICTIONARY
360
26BD
102
}
330
1
100
AcDbSymbolTableRecord
100
AcDbBlockTableRecord
  2
*Model_Space
340
21
  0
BLOCK_RECORD
  5
1A
330
1
100
AcDbSymbolTableRecord
100
AcDbBlockTableRecord
  2
*Paper_Space
340
1D
  0
BLOCK_RECORD
  5
1BF1
330
1
100
AcDbSymbolTableRecord
100
AcDbBlockTableRecord
  2
A$C168224A4
340
0
  0
BLOCK_RECORD
  5
2694
102
{ACAD_REACTORS
330
268F
102
}
330
1
100
AcDbSymbolTableRecord
100
AcDbBlockTableRecord
  2
*U1
340
0
102
{BLKREFS
331
269C
331
269D
331
269E
331
269F
331
26A0
331
26A1
331
26A2
331
26A3
331
26A4
331
26A5
331
26A6
331
26A7
331
26A8
331
26A9
331
26AA
331
26AB
331
26AC
331
26AD
331
26AE
331
26AF
331
26B0
331
26B1
331
26B2
331
26B3
331
26B4
331
26B5
331
26B6
331
26B7
331
26B8
331
26B9
331
26BA
331
26BB
102
}
  0
BLOCK_RECORD
  5
269A
102
{ACAD_XDICTIONARY
360
32F6
102
}
102
{ACAD_REACTORS
330
268E
102
}
330
1
100
AcDbSymbolTableRecord
100
AcDbBlockTableRecord
  2
*U2
340
0
102
{BLKREFS
331
25BC
102
}
  0
BLOCK_RECORD
  5
2D7D
330
1
100
AcDbSymbolTableRecord
100
AcDbBlockTableRecord
  2
*D3
340
0
  0
BLOCK_RECORD
  5
2D89
102
{ACAD_XDICTIONARY
360
2D8C
102
}
330
1
100
AcDbSymbolTableRecord
100
AcDbBlockTableRecord
  2
A$C7F0D3C55
340
0
  0
BLOCK_RECORD
  5
3065
102
{ACAD_XDICTIONARY
360
3096
102
}
330
1
100
AcDbSymbolTableRecord
100
AcDbBlockTableRecord
  2
A$C12EB68E6
340
0
  0
ENDTAB
  0
ENDSEC
  0
SECTION
  2
BLOCKS
  0
BLOCK
  5
31
330
1E
100
AcDbEntity
  8
0
100
AcDbBlockBegin
  2
*Model_Space
 70
     0
 10
0.0
 20
0.0
 30
0.0
  3
*Model_Space
  1

  0
ENDBLK
  5
32
330
1E
100
AcDbEntity
  8
0
100
AcDbBlockEnd
  0
BLOCK
  5
2F
330
1A
100
AcDbEntity
 67
     1
  8
0
100
AcDbBlockBegin
  2
*Paper_Space
 70
     0
 10
0.0
 20
0.0
 30
0.0
  3
*Paper_Space
  1

  0
ENDBLK
  5
30
330
1A
100
AcDbEntity
 67
     1
  8
0
100
AcDbBlockEnd
  0
BLOCK
  5
1BF7
330
1BF1
100
AcDbEntity
  8
0
100
AcDbBlockBegin
  2
A$C168224A4
 70
     0
 10
0.0
 20
0.0
 30
0.0
  3
A$C168224A4
  1

  0
TEXT
  5
1BF2
330
1BF1
100
AcDbEntity
  8
MO
100
AcDbText
 10
29.06392589340328
 20
15.78399955256054
 30
0.0
 40
3.599999999999998
  1
ヒーターバンド
  7
0
100
AcDbText
  0
TEXT
  5
1BF3
330
1BF1
100
AcDbEntity
  8
MO
100
AcDbText
 10
16.98844636234099
 20
21.7352072125702
 30
0.0
 40
3.599999999999998
  1
ヒーター（C）
  7
0
100
AcDbText
  0
LINE
  5
1BF4
330
1BF1
100
AcDbEntity
  8
SC
100
AcDbLine
 10
14.63431328166325
 20
20.85448773706838
 30
0.0
 11
59.28792531728698
 21
20.85448773706838
 31
0.0
  0
LINE
  5
1BF5
330
1BF1
100
AcDbEntity
  8
SC
100
AcDbLine
 10
0.3999994263709823
 20
0.3999998947063545
 30
0.0
 11
14.63431328166325
 21
20.85448773706838
 31
0.0
  0
CIRCLE
  5
1BF6
330
1BF1
100
AcDbEntity
  8
SC
100
AcDbCircle
 10
0.3999994263709823
 20
0.3999998947063545
 30
0.0
 40
0.4
  0
ENDBLK
  5
1BF8
330
1BF1
100
AcDbEntity
  8
0
100
AcDbBlockEnd
  0
BLOCK
  5
2695
330
2694
100
AcDbEntity
  8
0
100
AcDbBlockBegin
  2
*U1
 70
     1
 10
0.0
 20
0.0
 30
0.0
  3
*U1
  1

  0
LINE
  5
2696
330
2694
100
AcDbEntity
  8
SA
100
AcDbLine
 10
2.764621136810842
 20
-3.191281720542738
 30
0.0
 11
1.082661332409225
 21
3.18563768316672
 31
0.0
  0
ARC
  5
2697
330
2694
100
AcDbEntity
  8
SA
100
AcDbCircle
 10
-0.0554346901440567
 20
-31.55304350267291
 30
0.0
 40
34.79450026756366
100
AcDbArc
 50
88.05544779876468
 51
91.72158478119124
  0
LINE
  5
2698
330
2694
100
AcDbEntity
  8
SA
100
AcDbLine
 10
-1.057511925097833
 20
3.193084476797162
 30
0.0
 11
-2.769816115589804
 21
-3.197321760131907
 31
0.0
  0
ENDBLK
  5
2699
330
2694
100
AcDbEntity
  8
0
100
AcDbBlockEnd
  0
BLOCK
  5
269B
330
269A
100
AcDbEntity
  8
0
100
AcDbBlockBegin
  2
*U2
 70
     1
 10
0.0
 20
0.0
 30
0.0
  3
*U2
  1

  0
INSERT
  5
269C
330
269A
100
AcDbEntity
  8
HA
  6
ByBlock
 62
     0
370
    -2
380
     1
100
AcDbBlockReference
  2
*U1
 10
354.2332531428782
 20
213.1722776214904
 30
0.0
 41
1.0
 42
1.0
 43
1.0
 50
11.25
  0
INSERT
  5
269D
330
269A
100
AcDbEntity
  8
HA
  6
ByBlock
 62
     0
370
    -2
380
     1
100
AcDbBlockReference
  2
*U1
 10
348.3119348710621
 20
211.374276510968
 30
0.0
 41
1.0
 42
1.0
 43
1.0
 50
22.50000000000001
  0
INSERT
  5
269E
330
269A
100
AcDbEntity
  8
HA
  6
ByBlock
 62
     0
370
    -2
380
     1
100
AcDbBlockReference
  2
*U1
 10
342.8551656851193
 20
208.4556315992104
 30
0.0
 41
1.0
 42
1.0
 43
1.0
 50
33.74999999999999
  0
INSERT
  5
269F
330
269A
100
AcDbEntity
  8
HA
  6
ByBlock
 62
     0
370
    -2
380
     1
100
AcDbBlockReference
  2
*U1
 10
338.0726461646741
 20
204.5285047733815
 30
0.0
 41
1.0
 42
1.0
 43
1.0
 50
45.00000000000001
  0
INSERT
  5
26A0
330
269A
100
AcDbEntity
  8
HA
  6
ByBlock
 62
     0
370
    -2
380
     1
100
AcDbBlockReference
  2
*U1
 10
334.1481658528297
 20
199.7438133150398
 30
0.0
 41
1.0
 42
1.0
 43
1.0
 50
56.24999999999999
  0
INSERT
  5
26A1
330
269A
100
AcDbEntity
  8
HA
  6
ByBlock
 62
     0
370
    -2
380
     1
100
AcDbBlockReference
  2
*U1
 10
331.232540327096
 20
194.2854302336434
 30
0.0
 41
1.0
 42
1.0
 43
1.0
 50
67.49999999999997
  0
INSERT
  5
26A2
330
269A
100
AcDbEntity
  8
HA
  6
ByBlock
 62
     0
370
    -2
380
     1
100
AcDbBlockReference
  2
*U1
 10
329.4378154413254
 20
188.3631181299141
 30
0.0
 50
78.74999999999999
  0
INSERT
  5
26A3
330
269A
100
AcDbEntity
  8
HA
  6
ByBlock
 62
     0
370
    -2
380
     1
100
AcDbBlockReference
  2
*U1
 10
328.8329614663849
 20
182.2044681367271
 30
0.0
 41
1.0
 42
1.0
 43
1.0
 50
90.0
  0
INSERT
  5
26A4
330
269A
100
AcDbEntity
  8
HA
  6
ByBlock
 62
     0
370
    -2
380
     1
100
AcDbBlockReference
  2
*U1
 10
329.4412226013253
 20
176.0461537195099
 30
0.0
 41
1.0
 42
1.0
 43
1.0
 50
101.25
  0
INSERT
  5
26A5
330
269A
100
AcDbEntity
  8
HA
  6
ByBlock
 62
     0
370
    -2
380
     1
100
AcDbBlockReference
  2
*U1
 10
331.2392237118477
 20
170.1248354476938
 30
0.0
 41
1.0
 42
1.0
 43
1.0
 50
112.5
  0
INSERT
  5
26A6
330
269A
100
AcDbEntity
  8
HA
  6
ByBlock
 62
     0
370
    -2
380
     1
100
AcDbBlockReference
  2
*U1
 10
334.1578686236053
 20
164.668066261751
 30
0.0
 41
1.0
 42
1.0
 43
1.0
 50
123.75
  0
INSERT
  5
26A7
330
269A
100
AcDbEntity
  8
HA
  6
ByBlock
 62
     0
370
    -2
380
     1
100
AcDbBlockReference
  2
*U1
 10
338.0849954494342
 20
159.8855467413059
 30
0.0
 41
1.0
 42
1.0
 43
1.0
 50
135.0
  0
INSERT
  5
26A8
330
269A
100
AcDbEntity
  8
HA
  6
ByBlock
 62
     0
370
    -2
380
     1
100
AcDbBlockReference
  2
*U1
 10
342.8696869077759
 20
155.9610664294613
 30
0.0
 41
1.0
 42
1.0
 43
1.0
 50
146.25
  0
INSERT
  5
26A9
330
269A
100
AcDbEntity
  8
HA
  6
ByBlock
 62
     0
370
    -2
380
     1
100
AcDbBlockReference
  2
*U1
 10
348.3280699891722
 20
153.0454409037277
 30
0.0
 41
1.0
 42
1.0
 43
1.0
 50
157.5
  0
INSERT
  5
26AA
330
269A
100
AcDbEntity
  8
HA
  6
ByBlock
 62
     0
370
    -2
380
     1
100
AcDbBlockReference
  2
*U1
 10
354.2503820929016
 20
151.2507160179571
 30
0.0
 50
168.75
  0
INSERT
  5
26AB
330
269A
100
AcDbEntity
  8
HA
  6
ByBlock
 62
     0
370
    -2
380
     1
100
AcDbBlockReference
  2
*U1
 10
360.4090320860886
 20
150.6458620430166
 30
0.0
 41
1.0
 42
1.0
 43
1.0
 50
180.0
  0
INSERT
  5
26AC
330
269A
100
AcDbEntity
  8
HA
  6
ByBlock
 62
     0
370
    -2
380
     1
100
AcDbBlockReference
  2
*U1
 10
366.5673465033058
 20
151.254123177957
 30
0.0
 41
1.0
 42
1.0
 43
1.0
 50
191.25
  0
INSERT
  5
26AD
330
269A
100
AcDbEntity
  8
HA
  6
ByBlock
 62
     0
370
    -2
380
     1
100
AcDbBlockReference
  2
*U1
 10
372.4886647751219
 20
153.0521242884794
 30
0.0
 50
202.5
  0
INSERT
  5
26AE
330
269A
100
AcDbEntity
  8
HA
  6
ByBlock
 62
     0
370
    -2
380
     1
100
AcDbBlockReference
  2
*U1
 10
377.9454339610647
 20
155.970769200237
 30
0.0
 41
1.0
 42
1.0
 43
1.0
 50
213.75
  0
INSERT
  5
26AF
330
269A
100
AcDbEntity
  8
HA
  6
ByBlock
 62
     0
370
    -2
380
     1
100
AcDbBlockReference
  2
*U1
 10
382.7279534815098
 20
159.8978960260659
 30
0.0
 41
1.0
 42
1.0
 43
1.0
 50
225.0
  0
INSERT
  5
26B0
330
269A
100
AcDbEntity
  8
HA
  6
ByBlock
 62
     0
370
    -2
380
     1
100
AcDbBlockReference
  2
*U1
 10
386.6524337933543
 20
164.6825874844076
 30
0.0
 41
1.0
 42
1.0
 43
1.0
 50
236.25
  0
INSERT
  5
26B1
330
269A
100
AcDbEntity
  8
HA
  6
ByBlock
 62
     0
370
    -2
380
     1
100
AcDbBlockReference
  2
*U1
 10
389.568059319088
 20
170.140970565804
 30
0.0
 41
1.0
 42
1.0
 43
1.0
 50
247.5
  0
INSERT
  5
26B2
330
269A
100
AcDbEntity
  8
HA
  6
ByBlock
 62
     0
370
    -2
380
     1
100
AcDbBlockReference
  2
*U1
 10
391.3627842048585
 20
176.0632826695333
 30
0.0
 50
258.7500000000001
  0
INSERT
  5
26B3
330
269A
100
AcDbEntity
  8
HA
  6
ByBlock
 62
     0
370
    -2
380
     1
100
AcDbBlockReference
  2
*U1
 10
391.9676381797991
 20
182.2219326627203
 30
0.0
 41
1.0
 42
1.0
 43
1.0
 50
270.0
  0
INSERT
  5
26B4
330
269A
100
AcDbEntity
  8
HA
  6
ByBlock
 62
     0
370
    -2
380
     1
100
AcDbBlockReference
  2
*U1
 10
391.3593770448587
 20
188.3802470799375
 30
0.0
 41
1.0
 42
1.0
 43
1.0
 50
281.25
  0
INSERT
  5
26B5
330
269A
100
AcDbEntity
  8
HA
  6
ByBlock
 62
     0
370
    -2
380
     1
100
AcDbBlockReference
  2
*U1
 10
389.5613759343363
 20
194.3015653517536
 30
0.0
 50
292.5
  0
INSERT
  5
26B6
330
269A
100
AcDbEntity
  8
HA
  6
ByBlock
 62
     0
370
    -2
380
     1
100
AcDbBlockReference
  2
*U1
 10
386.6427310225787
 20
199.7583345376964
 30
0.0
 41
1.0
 42
1.0
 43
1.0
 50
303.75
  0
INSERT
  5
26B7
330
269A
100
AcDbEntity
  8
HA
  6
ByBlock
 62
     0
370
    -2
380
     1
100
AcDbBlockReference
  2
*U1
 10
382.7156041967498
 20
204.5408540581415
 30
0.0
 50
315.0
  0
INSERT
  5
26B8
330
269A
100
AcDbEntity
  8
HA
  6
ByBlock
 62
     0
370
    -2
380
     1
100
AcDbBlockReference
  2
*U1
 10
377.9309127384081
 20
208.4653343699861
 30
0.0
 41
1.0
 42
1.0
 43
1.0
 50
326.25
  0
INSERT
  5
26B9
330
269A
100
AcDbEntity
  8
HA
  6
ByBlock
 62
     0
370
    -2
380
     1
100
AcDbBlockReference
  2
*U1
 10
372.4725296570117
 20
211.3809598957197
 30
0.0
 41
1.0
 42
1.0
 43
1.0
 50
337.5
  0
INSERT
  5
26BA
330
269A
100
AcDbEntity
  8
HA
  6
ByBlock
 62
     0
370
    -2
380
     1
100
AcDbBlockReference
  2
*U1
 10
366.5502175532824
 20
213.1756847814903
 30
0.0
 50
348.7500000000001
  0
INSERT
  5
26BB
330
269A
100
AcDbEntity
  8
HA
  6
ByBlock
 62
     0
370
    -2
380
     1
100
AcDbBlockReference
  2
*U1
 10
360.3915675600954
 20
213.7805387564308
 30
0.0
  0
ENDBLK
  5
26BC
330
269A
100
AcDbEntity
  8
0
100
AcDbBlockEnd
  0
BLOCK
  5
2D7E
330
2D7D
100
AcDbEntity
  8
0
100
AcDbBlockBegin
  2
*D3
 70
     1
 10
0.0
 20
0.0
 30
0.0
  3
*D3
  1

  0
LINE
  5
2D7F
330
2D7D
100
AcDbEntity
  8
SC
 62
     0
370
    -2
100
AcDbLine
 10
222.7200482465694
 20
165.3755704140263
 30
0.0
 11
233.9030000000001
 21
165.3755704140263
 31
0.0
  0
LINE
  5
2D80
330
2D7D
100
AcDbEntity
  8
SC
 62
     0
370
    -2
100
AcDbLine
 10
222.7200482465697
 20
123.4694477967431
 30
0.0
 11
233.9030000000001
 21
123.469447796743
 31
0.0
  0
LINE
  5
2D81
330
2D7D
100
AcDbEntity
  8
SC
 62
     0
370
    -2
100
AcDbLine
 10
233.723
 20
161.3755704140263
 30
0.0
 11
233.723
 21
127.469447796743
 31
0.0
  0
MTEXT
  5
2D82
330
2D7D
100
AcDbEntity
  8
SC
 62
     0
100
AcDbMText
 10
230.3205175574763
 20
144.2085576543603
 30
0.0
 40
5.0
 41
0.0
 71
     5
 72
     1
  1
\A1;E
 11
0.0000000000000001
 21
1.0
 31
0.0
 73
     1
 44
1.0
1001
ACAD
1000
MTEXTBEGIN
1070
    73
1070
     1
1070
    44
1040
1.0
1070
    74
1070
     0
1000
MTEXTEND
  0
SOLID
  5
2D83
330
2D7D
100
AcDbEntity
  8
SC
 62
     0
100
AcDbTrace
 10
233.0563333333334
 20
161.3755704140263
 30
0.0
 11
234.3896666666667
 21
161.3755704140263
 31
0.0
 12
233.723
 22
165.3755704140263
 32
0.0
 13
233.723
 23
165.3755704140263
 33
0.0
  0
SOLID
  5
2D84
330
2D7D
100
AcDbEntity
  8
SC
 62
     0
100
AcDbTrace
 10
233.0563333333334
 20
127.469447796743
 30
0.0
 11
234.3896666666667
 21
127.469447796743
 31
0.0
 12
233.723
 22
123.469447796743
 32
0.0
 13
233.723
 23
123.469447796743
 33
0.0
  0
POINT
  5
2D85
330
2D7D
100
AcDbEntity
  8
DEFPOINTS
 62
     0
100
AcDbPoint
 10
222.6575482465694
 20
165.3755704140263
 30
0.0
  0
POINT
  5
2D86
330
2D7D
100
AcDbEntity
  8
DEFPOINTS
 62
     0
100
AcDbPoint
 10
222.6575482465697
 20
123.4694477967431
 30
0.0
  0
POINT
  5
2D87
330
2D7D
100
AcDbEntity
  8
DEFPOINTS
 62
     0
100
AcDbPoint
 10
233.723
 20
123.469447796743
 30
0.0
  0
ENDBLK
  5
2D88
330
2D7D
100
AcDbEntity
  8
0
100
AcDbBlockEnd
  0
BLOCK
  5
2D8E
330
2D89
100
AcDbEntity
  8
0
100
AcDbBlockBegin
  2
A$C7F0D3C55
 70
     0
 10
0.0
 20
0.0
 30
0.0
  3
A$C7F0D3C55
  1

  0
TEXT
  5
2D8A
330
2D89
100
AcDbEntity
  8
MO
100
AcDbText
 10
124.5299151305937
 20
93.93337883965873
 30
0.0
 40
4.375
  1
\U+03C6
  7
0
 72
     1
 11
126.7174151305937
 21
93.93337883965873
 31
0.0
100
AcDbText
  0
DIMENSION
  5
2D8B
330
2D89
100
AcDbEntity
  8
SC
100
AcDbDimension
  2
*D3
 10
11.06545117617301
 20
-0.000000146115255
 30
0.0
 11
7.66296873364925
 21
20.73910971150204
 31
0.0
 12
-222.657548823827
 22
-123.4694479428583
 32
0.0
 70
   128
  1
E
 71
     5
 42
41.90612261728328
  3
Standard
100
AcDbAlignedDimension
 13
-0.0000005772575946
 23
41.90612247116803
 33
0.0
 14
-0.0000005772573672
 24
-0.0000001461152408
 34
0.0
 50
90.0
100
AcDbRotatedDimension
1001
ACAD
1000
DSTYLE
1002
{
1070
    41
1040
4.0
1070
    73
1070
     0
1070
   140
1040
5.0
1070
   279
1070
     2
1002
}
  0
ENDBLK
  5
2D8F
330
2D89
100
AcDbEntity
  8
0
100
AcDbBlockEnd
  0
BLOCK
  5
3098
330
3065
100
AcDbEntity
  8
0
100
AcDbBlockBegin
  2
A$C12EB68E6
 70
     0
 10
0.0
 20
0.0
 30
0.0
  3
A$C12EB68E6
  1

  0
LINE
  5
3066
330
3065
100
AcDbEntity
  8
SC
100
AcDbLine
 10
61.81154900887975
 20
129.498641020957
 30
0.0
 11
61.69211007410393
 21
129.3345875849291
 31
0.0
  0
LINE
  5
3067
330
3065
100
AcDbEntity
  8
SC
370
    15
100
AcDbLine
 10
65.03180474115897
 20
127.1257780569606
 30
0.0
 11
104.7584799891292
 21
98.20281314572961
 31
0.0
  0
LINE
  5
3068
330
3065
100
AcDbEntity
  8
SC
100
AcDbLine
 10
107.9554435046196
 20
95.79795753039148
 30
0.0
 11
107.8862851115933
 21
95.70296612723277
 31
0.0
  0
MTEXT
  5
3069
330
3065
100
AcDbEntity
  8
SC
100
AcDbMText
 10
89.12475342979139
 20
116.5580561286127
 30
0.0
 40
5.0
 41
0.0
 71
     5
 72
     1
  1
\A1;B
  7
0
 73
     1
 44
1.0
1001
ACAD
1000
MTEXTBEGIN
1070
    73
1070
     1
1070
    44
1040
1.0
1070
    74
1070
     0
1000
MTEXTEND
  0
SOLID
  5
306A
330
3065
100
AcDbEntity
  8
SC
100
AcDbTrace
 10
65.42419278669773
 20
127.6647363727539
 30
0.0
 11
64.63941669562018
 21
126.5868197411674
 31
0.0
 12
61.79805484639941
 22
129.4801063301933
 32
0.0
 13
61.79805484639941
 23
129.4801063301933
 33
0.0
  0
SOLID
  5
306B
330
3065
100
AcDbEntity
  8
SC
100
AcDbTrace
 10
105.150868034668
 20
98.74177146152286
 30
0.0
 11
104.3660919435904
 21
97.66385482993635
 31
0.0
 12
107.9922298838888
 22
95.84848487249695
 32
0.0
 13
107.9922298838888
 23
95.84848487249695
 33
0.0
  0
SOLID
  5
306C
330
3065
100
AcDbEntity
  8
SC
100
AcDbTrace
 10
42.86920811453112
 20
143.4001278662034
 30
0.0
 11
42.09576201394237
 21
142.3140528654499
 31
0.0
 12
45.74071006649741
 22
140.5367520640604
 32
0.0
 13
45.74071006649741
 23
140.5367520640604
 33
0.0
  0
LINE
  5
306D
330
3065
100
AcDbEntity
  8
SC
100
AcDbLine
 10
42.48248506423675
 20
142.8570903658266
 30
0.0
 11
36.63772516620184
 21
147.5265142445675
 31
0.0
  0
SOLID
  5
306E
330
3065
100
AcDbEntity
  8
SC
100
AcDbTrace
 10
127.7121329167288
 20
82.95466190512705
 30
0.0
 11
126.9386868161401
 21
81.86858690437352
 31
0.0
 12
124.0671848641738
 22
84.73196270651655
 32
0.0
 13
124.0671848641738
 23
84.73196270651655
 33
0.0
  0
LINE
  5
306F
330
3065
100
AcDbEntity
  8
SC
100
AcDbLine
 10
127.3254098664345
 20
82.41162440475029
 30
0.0
 11
178.7632790301595
 21
45.78025060489831
 31
0.0
  0
LINE
  5
3070
330
3065
100
AcDbEntity
  8
SC
100
AcDbLine
 10
141.2448483926372
 20
72.52367439705712
 30
0.0
 11
137.9866233903766
 21
74.84401269882339
 31
0.0
  0
MTEXT
  5
3071
330
3065
100
AcDbEntity
  8
SC
100
AcDbMText
 10
141.0937965966403
 20
173.4833823435758
 30
0.0
 40
5.0
 41
0.0
 71
     5
 72
     1
  1
\A1;A
  7
0
 11
0.7164030727745239
 21
0.6976866326075199
 31
0.0
 73
     1
 44
1.0
1001
ACAD
1000
MTEXTBEGIN
1070
    73
1070
     1
1070
    44
1040
1.0
1070
    74
1070
     0
1000
MTEXTEND
  0
SOLID
  5
3072
330
3065
100
AcDbEntity
  8
SC
100
AcDbTrace
 10
31.93712317736353
 20
62.06980947264874
 30
0.0
 11
32.86737202084023
 21
61.11460537561604
 31
0.0
 12
35.26785989019999
 22
64.38295395456245
 32
0.0
 13
35.26785989019999
 23
64.38295395456245
 33
0.0
  0
LINE
  5
3073
330
3065
100
AcDbEntity
  8
SC
100
AcDbLine
 10
32.40224759910188
 20
61.59220742413239
 30
0.0
 11
29.5366353080038
 21
58.80146089370231
 31
0.0
  0
LINE
  5
3074
330
3065
100
AcDbEntity
  8
SC
100
AcDbLine
 10
35.26785989019999
 20
64.38295395456245
 30
0.0
 11
38.13347218129808
 21
67.17370048499254
 31
0.0
  0
SOLID
  5
3075
330
3065
100
AcDbEntity
  8
SC
100
AcDbTrace
 10
136.8509178632735
 20
164.2426712458517
 30
0.0
 11
137.7811667067502
 21
163.287467148819
 31
0.0
 12
134.4504299939137
 22
160.9743226669053
 32
0.0
 13
134.4504299939137
 23
160.9743226669053
 33
0.0
  0
LINE
  5
3076
330
3065
100
AcDbEntity
  8
SC
100
AcDbLine
 10
137.3160422850118
 20
163.7650691973354
 30
0.0
 11
148.2658896417655
 21
174.4288455269272
 31
0.0
  0
LINE
  5
3077
330
3065
100
AcDbEntity
  8
SC
100
AcDbLine
 10
134.4504299939137
 20
160.9743226669053
 30
0.0
 11
131.5848177028156
 21
158.1835761364752
 31
0.0
  0
LINE
  5
3078
330
3065
100
AcDbEntity
  8
SC
100
AcDbLine
 10
155.5736384265389
 20
112.6786829731724
 30
0.0
 11
154.7660820626269
 21
153.994125318812
 31
0.0
  0
LINE
  5
3079
330
3065
100
AcDbEntity
  8
SC
100
AcDbLine
 10
201.5009069379126
 20
133.9081957328384
 30
0.0
 11
201.5009069379126
 21
153.994125318812
 31
0.0
  0
LINE
  5
307A
330
3065
100
AcDbEntity
  8
SC
100
AcDbLine
 10
154.766082062627
 20
150.994125318812
 30
0.0
 11
197.5009069379126
 21
150.994125318812
 31
0.0
  0
MTEXT
  5
307B
330
3065
100
AcDbEntity
  8
SC
100
AcDbMText
 10
176.1334945002698
 20
156.403125318812
 30
0.0
 40
5.0
 41
0.0
 71
     5
 72
     1
  1
\A1;D
  7
0
 73
     1
 44
1.0
1001
ACAD
1000
MTEXTBEGIN
1070
    73
1070
     1
1070
    44
1040
1.0
1070
    74
1070
     0
1000
MTEXTEND
  0
SOLID
  5
307C
330
3065
100
AcDbEntity
  8
SC
100
AcDbTrace
 10
158.8247204059241
 20
151.6607919854787
 30
0.0
 11
158.8247204059241
 21
150.3274586521454
 31
0.0
 12
154.8247204059241
 22
150.994125318812
 32
0.0
 13
154.8247204059241
 23
150.994125318812
 33
0.0
  0
SOLID
  5
307D
330
3065
100
AcDbEntity
  8
SC
100
AcDbTrace
 10
197.5009069379126
 20
151.6607919854787
 30
0.0
 11
197.5009069379126
 21
150.3274586521454
 31
0.0
 12
201.5009069379126
 22
150.994125318812
 32
0.0
 13
201.5009069379126
 23
150.994125318812
 33
0.0
  0
LINE
  5
307E
330
3065
100
AcDbEntity
  8
SC
100
AcDbLine
 10
201.5634069379126
 20
133.8456957328384
 30
0.0
 11
212.7463586913432
 21
133.8456957328384
 31
0.0
  0
LINE
  5
307F
330
3065
100
AcDbEntity
  8
SC
100
AcDbLine
 10
201.5634069379128
 20
91.93957311555513
 30
0.0
 11
212.7463586913432
 21
91.93957311555513
 31
0.0
  0
LINE
  5
3080
330
3065
100
AcDbEntity
  8
SC
100
AcDbLine
 10
212.5663586913432
 20
129.8456957328384
 30
0.0
 11
212.5663586913432
 21
95.93957311555511
 31
0.0
  0
MTEXT
  5
3081
330
3065
100
AcDbEntity
  8
SC
100
AcDbMText
 10
209.1638762488194
 20
112.6786829731724
 30
0.0
 40
5.0
 41
0.0
 71
     5
 72
     1
  1
\A1;E
  7
0
 11
0.0000000000000001
 21
1.0
 31
0.0
 73
     1
 44
1.0
1001
ACAD
1000
MTEXTBEGIN
1070
    73
1070
     1
1070
    44
1040
1.0
1070
    74
1070
     0
1000
MTEXTEND
  0
SOLID
  5
3082
330
3065
100
AcDbEntity
  8
SC
100
AcDbTrace
 10
211.8996920246766
 20
129.8456957328384
 30
0.0
 11
213.2330253580099
 21
129.8456957328384
 31
0.0
 12
212.5663586913432
 22
133.8456957328384
 32
0.0
 13
212.5663586913432
 23
133.8456957328384
 33
0.0
  0
SOLID
  5
3083
330
3065
100
AcDbEntity
  8
SC
100
AcDbTrace
 10
211.8996920246766
 20
95.93957311555511
 30
0.0
 11
213.2330253580099
 21
95.93957311555511
 31
0.0
 12
212.5663586913432
 22
91.93957311555513
 32
0.0
 13
212.5663586913432
 23
91.93957311555513
 33
0.0
  0
LINE
  5
3084
330
3065
100
AcDbEntity
  8
SC
100
AcDbLine
 10
182.5994038285344
 20
29.37516046864942
 30
0.0
 11
203.7109038285346
 21
29.37516046864941
 31
0.0
  0
LINE
  5
3085
330
3065
100
AcDbEntity
  8
SC
100
AcDbLine
 10
182.5994038285343
 20
14.00132032495774
 30
0.0
 11
203.7109038285345
 21
14.00132032495773
 31
0.0
  0
LINE
  5
3086
330
3065
100
AcDbEntity
  8
SC
100
AcDbLine
 10
203.6909038285346
 20
27.37516046864941
 30
0.0
 11
203.6909038285346
 21
11.65835018459037
 31
0.0
  0
SOLID
  5
3087
330
3065
100
AcDbEntity
  8
SC
100
AcDbTrace
 10
203.3575704952012
 20
31.3751604686494
 30
0.0
 11
204.0242371618679
 21
31.3751604686494
 31
0.0
 12
203.6909038285346
 22
29.37516046864941
 32
0.0
 13
203.6909038285346
 23
29.37516046864941
 33
0.0
  0
LINE
  5
3088
330
3065
100
AcDbEntity
  8
SC
100
AcDbLine
 10
203.6909038285346
 20
31.3751604686494
 30
0.0
 11
203.6909038285345
 21
48.69075937185354
 31
0.0
  0
LINE
  5
3089
330
3065
100
AcDbEntity
  8
SC
100
AcDbLine
 10
203.6909038285346
 20
29.37516046864941
 30
0.0
 11
203.6909038285346
 21
27.37516046864943
 31
0.0
  0
SOLID
  5
308A
330
3065
100
AcDbEntity
  8
SC
100
AcDbTrace
 10
203.3575704952011
 20
12.00132032495773
 30
0.0
 11
204.0242371618678
 21
12.00132032495773
 31
0.0
 12
203.6909038285345
 22
14.00132032495773
 32
0.0
 13
203.6909038285345
 23
14.00132032495773
 33
0.0
  0
LINE
  5
308B
330
3065
100
AcDbEntity
  8
SC
100
AcDbLine
 10
203.6909038285345
 20
12.00132032495773
 30
0.0
 11
203.6909038285345
 21
7.432320421311814
 31
0.0
  0
LINE
  5
308C
330
3065
100
AcDbEntity
  8
SC
100
AcDbLine
 10
203.6909038285345
 20
14.00132032495773
 30
0.0
 11
203.6909038285345
 21
16.00132032495773
 31
0.0
  0
LINE
  5
308D
330
3065
100
AcDbEntity
  8
SC
100
AcDbLine
 10
15.6489345311233
 20
13.84997816712675
 30
0.0
 11
3.872163828865947
 21
13.84997816712675
 31
0.0
  0
LINE
  5
308E
330
3065
100
AcDbEntity
  8
SC
100
AcDbLine
 10
15.63301935834823
 20
7.999999816117643
 30
0.0
 11
3.872163828865943
 21
7.999999816117643
 31
0.0
  0
LINE
  5
308F
330
3065
100
AcDbEntity
  8
SC
100
AcDbLine
 10
5.872163828865947
 20
17.84997816712676
 30
0.0
 11
5.872163828865947
 21
28.17801751570551
 31
0.0
  0
LINE
  5
3090
330
3065
100
AcDbEntity
  8
SC
100
AcDbLine
 10
5.872163828865943
 20
3.999999816117643
 30
0.0
 11
5.872163828865943
 21
-0.0000001838823565
 31
0.0
  0
MTEXT
  5
3091
330
3065
100
AcDbEntity
  8
SC
100
AcDbMText
 10
2.499999882676721
 20
23.33830800052554
 30
0.0
 40
5.0
 41
0.0
 71
     5
 72
     1
  1
\A1;C
  7
0
 11
0.0000000000000001
 21
1.0
 31
0.0
 73
     1
 44
1.0
1001
ACAD
1000
MTEXTBEGIN
1070
    73
1070
     1
1070
    44
1040
1.0
1070
    74
1070
     0
1000
MTEXTEND
  0
SOLID
  5
3092
330
3065
100
AcDbEntity
  8
SC
100
AcDbTrace
 10
5.205497162199279
 20
17.84997816712676
 30
0.0
 11
6.538830495532614
 21
17.84997816712676
 31
0.0
 12
5.872163828865947
 22
13.84997816712675
 32
0.0
 13
5.872163828865947
 23
13.84997816712675
 33
0.0
  0
SOLID
  5
3093
330
3065
100
AcDbEntity
  8
SC
100
AcDbTrace
 10
5.205497162199275
 20
3.999999816117643
 30
0.0
 11
6.538830495532611
 21
3.999999816117643
 31
0.0
 12
5.872163828865943
 22
7.999999816117643
 32
0.0
 13
5.872163828865943
 23
7.999999816117643
 33
0.0
  0
TEXT
  5
3094
330
3065
100
AcDbEntity
  8
SC
100
AcDbText
 10
146.0419938478081
 20
71.52465309767984
 30
0.0
 40
5.0
  1
P.C.D(穴有時)
 50
324.5435085553055
  7
0
 72
     1
 11
163.4579822527489
 21
59.12189241323858
 31
0.0
100
AcDbText
  0
TEXT
  5
3095
330
3065
100
AcDbEntity
  8
SC
100
AcDbText
 10
201.1139161310323
 20
31.04289089681975
 30
0.0
 40
5.0
  1
(20)
 50
90.0
  7
0
 72
     1
 11
201.1139161310323
 21
38.30479565872451
 31
0.0
100
AcDbText
  0
ENDBLK
  5
3099
330
3065
100
AcDbEntity
  8
0
100
AcDbBlockEnd
  0
ENDSEC
  0
SECTION
  2
ENTITIES
  0
TEXT
  5
61
330
1E
100
AcDbEntity
  8
MO
100
AcDbText
 10
328.5
 20
53.5
 30
0.0
 40
4.0
  1

  7
0
 72
     1
 11
328.5
 21
53.5
 31
0.0
100
AcDbText
  0
TEXT
  5
62
330
1E
100
AcDbEntity
  8
MO
100
AcDbText
 10
328.5
 20
47.0
 30
0.0
 40
4.0
  1

  7
0
 72
     1
 11
328.5
 21
47.0
 31
0.0
100
AcDbText
  0
TEXT
  5
63
330
1E
100
AcDbEntity
  8
MO
100
AcDbText
 10
328.5
 20
34.0
 30
0.0
 40
4.0
  1

  7
0
 72
     1
 11
328.5
 21
34.0
 31
0.0
100
AcDbText
  0
TEXT
  5
6E
330
1E
100
AcDbEntity
  8
MO
100
AcDbText
 10
328.204
 20
39.802
 30
0.0
 40
4.0
  1

  7
0
 72
     1
 11
328.204
 21
39.802
 31
0.0
100
AcDbText
  0
TEXT
  5
89
330
1E
100
AcDbEntity
  8
MO
100
AcDbText
 10
82.2020000000001
 20
51.07199999999998
 30
0.0
 40
3.0
  1

  7
0
100
AcDbText
  0
TEXT
  5
8B
330
1E
100
AcDbEntity
  8
MO
100
AcDbText
 10
110.859
 20
51.07199999999998
 30
0.0
 40
3.0
  1

  7
0
100
AcDbText
  0
TEXT
  5
8D
330
1E
100
AcDbEntity
  8
MO
100
AcDbText
 10
360.261
 20
19.91099999999999
 30
0.0
 40
7.0
  1

  7
0
 72
     4
 11
360.261
 21
19.91099999999999
 31
0.0
100
AcDbText
  0
TEXT
  5
AC
330
1E
100
AcDbEntity
  8
MO
100
AcDbText
 10
103.1910000000001
 20
51.07199999999996
 30
0.0
 40
3.0
  1

  7
0
100
AcDbText
  0
TEXT
  5
1399
330
1E
100
AcDbEntity
  8
MO
100
AcDbText
 10
75.70200000000006
 20
51.07199999999998
 30
0.0
 40
3.0
  1

  7
0
100
AcDbText
  0
TEXT
  5
139C
330
1E
100
AcDbEntity
  8
MO
100
AcDbText
 10
110.859
 20
63.07199999999996
 30
0.0
 40
3.0
  1

  7
0
100
AcDbText
  0
TEXT
  5
139F
330
1E
100
AcDbEntity
  8
SC
100
AcDbText
 10
135.033
 20
64.98099999999995
 30
0.0
 40
2.0
  1

  7
0
100
AcDbText
  0
TEXT
  5
13A0
330
1E
100
AcDbEntity
  8
MO
100
AcDbText
 10
110.859
 20
45.072
 30
0.0
 40
3.0
  1

  7
0
100
AcDbText
  0
TEXT
  5
148E
330
1E
100
AcDbEntity
  8
MO
100
AcDbText
 10
355.9181320877767
 20
10.917
 30
0.0
 40
5.0
  1
株）
  7
0
 72
     1
 11
359.9181320877767
 21
10.917
 31
0.0
100
AcDbText
  0
TEXT
  5
1491
330
1E
100
AcDbEntity
  8
SC
100
AcDbText
 10
103.7564
 20
117.6597333333333
 30
0.0
 40
0.25
  1

100
AcDbText
  0
TEXT
  5
1492
330
1E
100
AcDbEntity
  8
MO
100
AcDbText
 10
367.1910000000001
 20
10.917
 30
0.0
 40
6.0
  1
愛西電熱
  7
0
 72
     1
 11
380.7910000000002
 21
10.917
 31
0.0
100
AcDbText
  0
MTEXT
  5
1758
330
1E
100
AcDbEntity
  8
SC
100
AcDbMText
 10
317.637
 20
21.871
 30
0.0
 40
2.5
 41
0.0
 71
     1
 72
     5
  1

  7
0
 73
     1
 44
1.0
1001
ACAD
1000
MTEXTBEGIN
1070
    73
1070
     1
1070
    44
1040
1.0
1070
    74
1070
     0
1000
MTEXTEND
  0
TEXT
  5
1892
330
1E
100
AcDbEntity
  8
MO
100
AcDbText
 10
18.0825030365616
 20
28.37468907764135
 30
0.0
 40
2.799999999999998
  1

  7
0
100
AcDbText
  0
TEXT
  5
18B4
330
1E
100
AcDbEntity
  8
MO
100
AcDbText
 10
334.7498393399925
 20
3.380574230302642
 30
0.0
 40
3.5
  1
AISEI  DENNETSU CO., LTD
  7
0
100
AcDbText
  0
TEXT
  5
18BD
330
1E
100
AcDbEntity
  8
MO
100
AcDbText
 10
398.0943211714158
 20
11.06163477656134
 30
0.0
 40
5.0
  1
行
  7
0
 72
     1
 11
400.4276545047491
 21
11.06163477656134
 31
0.0
100
AcDbText
  0
LINE
  5
18ED
330
1E
100
AcDbEntity
  8
0
100
AcDbLine
 10
3.193615971125438
 20
267.713
 30
0.0
 11
128.2526159711254
 21
267.713
 31
0.0
  0
LINE
  5
18EE
330
1E
100
AcDbEntity
  8
0
100
AcDbLine
 10
3.193615971125438
 20
255.713
 30
0.0
 11
128.2526159711254
 21
255.7129999999999
 31
0.0
  0
LINE
  5
18EF
330
1E
100
AcDbEntity
  8
0
100
AcDbLine
 10
3.193615971125423
 20
243.713
 30
0.0
 11
128.2526159711254
 21
243.7129999999999
 31
0.0
  0
LINE
  5
18F0
330
1E
100
AcDbEntity
  8
0
100
AcDbLine
 10
3.193615971125423
 20
231.713
 30
0.0
 11
128.2526159711254
 21
231.7129999999999
 31
0.0
  0
TEXT
  5
18F7
330
1E
100
AcDbEntity
  8
MO
100
AcDbText
 10
5.047000000000004
 20
269.7195108252091
 30
0.0
 40
4.375
  1
貴社名：
  7
0
 72
     1
 11
14.08866666666667
 21
269.7195108252091
 31
0.0
100
AcDbText
  0
TEXT
  5
18FF
330
1E
100
AcDbEntity
  8
MO
100
AcDbText
 10
4.762445293775545
 20
259.6404968976157
 30
0.0
 40
4.375
  1
部署・担当者名：
  7
0
 72
     1
 11
24.30411196044222
 21
259.6404968976157
 31
0.0
100
AcDbText
  0
TEXT
  5
190B
330
1E
100
AcDbEntity
  8
MO
100
AcDbText
 10
4.244409610399639
 20
235.1743512486338
 30
0.0
 40
4.375
  1
御連絡先 FAX：
  7
0
 72
     1
 11
23.4735762770663
 21
235.1743512486338
 31
0.0
100
AcDbText
  0
TEXT
  5
1918
330
1E
100
AcDbEntity
  8
MO
100
AcDbText
 10
4.271947869785467
 20
247.7453335828736
 30
0.0
 40
4.375
  1
御連絡先 TEL：
  7
0
 72
     1
 11
22.87611453645213
 21
247.7453335828736
 31
0.0
100
AcDbText
  0
LINE
  5
1923
330
1E
100
AcDbEntity
  8
0
370
    40
100
AcDbLine
 10
315.0881625155812
 20
37.35735115744029
 30
0.0
 11
393.0881625155811
 21
37.35735115744029
 31
0.0
  0
LINE
  5
1924
330
1E
100
AcDbEntity
  8
0
370
    40
100
AcDbLine
 10
315.0881625155812
 20
34.7573511574403
 30
0.0
 11
399.5881625155811
 21
34.7573511574403
 31
0.0
  0
LINE
  5
1925
330
1E
100
AcDbEntity
  8
0
370
    40
100
AcDbLine
 10
393.0881625155811
 20
37.35735115744029
 30
0.0
 11
393.0881625155811
 21
39.95735115744029
 31
0.0
  0
LINE
  5
1926
330
1E
100
AcDbEntity
  8
0
370
    40
100
AcDbLine
 10
393.0881625155811
 20
39.95735115744029
 30
0.0
 11
399.5881625155811
 21
34.7573511574403
 31
0.0
  0
LINE
  5
1927
330
1E
100
AcDbEntity
  8
0
370
    40
100
AcDbLine
 10
315.0881625155812
 20
37.35735115744029
 30
0.0
 11
315.0881625155812
 21
34.7573511574403
 31
0.0
  0
TEXT
  5
192E
330
1E
100
AcDbEntity
  8
MO
370
    40
100
AcDbText
 10
324.6798300677355
 20
38.84484239326316
 30
0.0
 40
7.800000000000001
  1
FAX送信方向
  7
0
 72
     1
 11
353.2426872105926
 21
38.84484239326316
 31
0.0
100
AcDbText
  0
TEXT
  5
1943
330
1E
100
AcDbEntity
  8
0
370
    53
100
AcDbText
 10
86.07465571428525
 20
284.1842971226886
 30
0.0
 40
10.0
  1
愛西電熱　見積依頼書・注文書　フォーム
  7
0
100
AcDbText
  0
TEXT
  5
195E
330
1E
100
AcDbEntity
  8
MO
370
    40
100
AcDbText
 10
313.1463329590498
 20
24.83965109775832
 30
0.0
 40
7.800000000000001
  1
0568-25-2241
  7
0
 72
     1
 11
357.1606186733355
 21
24.83965109775832
 31
0.0
100
AcDbText
  0
LINE
  5
25BA
330
1E
100
AcDbEntity
  8
HO
100
AcDbLine
 10
26.15904583894928
 20
144.2085576543603
 30
0.0
 11
195.3493229915037
 21
144.2085576543603
 31
0.0
  0
CIRCLE
  5
25BB
330
1E
100
AcDbEntity
  8
SA
100
AcDbCircle
 10
106.1134739627172
 20
144.1443381849688
 30
0.0
 40
28.57009960027629
  0
INSERT
  5
25BC
102
{ACAD_REACTORS
330
2690
102
}
330
1E
100
AcDbEntity
  8
HA
100
AcDbBlockReference
  2
*U2
 10
-254.3065296302088
 20
-38.00614457623461
 30
0.0
  0
LINE
  5
25BF
330
1E
100
AcDbEntity
  8
SA
370
     5
100
AcDbLine
 10
175.1880189643754
 20
45.50528812535513
 30
0.0
 11
175.1880189643754
 21
39.27897610945998
 31
0.0
  0
LINE
  5
25C2
330
1E
100
AcDbEntity
  8
HO
100
AcDbLine
 10
106.0280474020778
 20
66.92094914899488
 30
0.0
 11
106.0280474020778
 21
223.8765117805137
 31
0.0
  0
LINE
  5
25C3
330
1E
100
AcDbEntity
  8
SA
100
AcDbLine
 10
217.1853414001631
 20
45.54337334759922
 30
0.0
 11
217.185341400163
 21
39.36635399802107
 31
0.0
  0
LINE
  5
25C6
330
1E
100
AcDbEntity
  8
SC
100
AcDbLine
 10
201.0650451371914
 20
56.78848536916498
 30
0.0
 11
206.4470451371913
 21
56.78848536916498
 31
0.0
  0
LINE
  5
25C7
330
1E
100
AcDbEntity
  8
SC
100
AcDbLine
 10
208.4360451371915
 20
47.50648536916513
 30
0.0
 11
209.5694483912918
 21
45.54337334759922
 31
0.0
  0
LINE
  5
25C8
330
1E
100
AcDbEntity
  8
SC
100
AcDbLine
 10
199.0760451371913
 20
47.50648536916513
 30
0.0
 11
197.9426418830907
 21
45.54337334759922
 31
0.0
  0
LINE
  5
25C9
330
1E
100
AcDbEntity
  8
SB
100
AcDbLine
 10
202.3910451371913
 20
60.92248536916514
 30
0.0
 11
201.8060451371912
 21
60.33748536916515
 31
0.0
  0
LINE
  5
25CA
330
1E
100
AcDbEntity
  8
SB
100
AcDbLine
 10
201.8060451371912
 20
60.33748536916522
 30
0.0
 11
201.8060451371912
 21
56.78848536916498
 31
0.0
  0
LINE
  5
25CB
330
1E
100
AcDbEntity
  8
SC
100
AcDbLine
 10
202.3910451371913
 20
60.92248536916514
 30
0.0
 11
202.3910451371913
 21
56.78848536916498
 31
0.0
  0
LINE
  5
25CC
330
1E
100
AcDbEntity
  8
SB
100
AcDbLine
 10
205.1210451371912
 20
60.92248536916514
 30
0.0
 11
205.7060451371912
 21
60.33748536916515
 31
0.0
  0
LINE
  5
25CD
330
1E
100
AcDbEntity
  8
SB
100
AcDbLine
 10
205.7060451371913
 20
60.33748536916515
 30
0.0
 11
205.7060451371913
 21
56.78848536916498
 31
0.0
  0
LINE
  5
25CE
330
1E
100
AcDbEntity
  8
SC
100
AcDbLine
 10
205.1210451371912
 20
60.92248536916514
 30
0.0
 11
205.1210451371912
 21
56.78848536916498
 31
0.0
  0
LINE
  5
25CF
330
1E
100
AcDbEntity
  8
SB
100
AcDbLine
 10
202.3910451371913
 20
60.92248536916514
 30
0.0
 11
205.1210451371913
 21
60.92248536916514
 31
0.0
  0
LINE
  5
25D0
330
1E
100
AcDbEntity
  8
SC
100
AcDbLine
 10
201.8060451371912
 20
60.33748536916515
 30
0.0
 11
205.7060451371912
 21
60.33748536916515
 31
0.0
  0
ARC
  5
25D1
330
1E
100
AcDbEntity
  8
SB
100
AcDbCircle
 10
201.0650451371914
 20
55.80828536916502
 30
0.0
 40
0.9802000000000019
100
AcDbArc
 50
23.77731607925767
 51
90.0
  0
LINE
  5
25D2
330
1E
100
AcDbEntity
  8
SB
100
AcDbLine
 10
201.0650451371914
 20
56.78848536916498
 30
0.0
 11
200.1680451371913
 21
56.203485369165
 31
0.0
  0
ARC
  5
25D3
330
1E
100
AcDbEntity
  8
SB
100
AcDbCircle
 10
201.0650451371911
 20
51.63528536916521
 30
0.0
 40
0.9802000000000019
100
AcDbArc
 50
23.77731607925767
 51
90.0
  0
LINE
  5
25D4
330
1E
100
AcDbEntity
  8
SB
100
AcDbLine
 10
201.0650451371914
 20
52.61548536916515
 30
0.0
 11
200.1680451371913
 21
52.03048536916517
 31
0.0
  0
LINE
  5
25D5
330
1E
100
AcDbEntity
  8
SB
100
AcDbLine
 10
199.4660451371912
 20
52.61548536916508
 30
0.0
 11
199.4660451371913
 21
53.86348536916498
 31
0.0
  0
LINE
  5
25D6
330
1E
100
AcDbEntity
  8
SB
100
AcDbLine
 10
200.1680451371913
 20
56.203485369165
 30
0.0
 11
200.1680451371913
 21
53.86348536916498
 31
0.0
  0
LINE
  5
25D7
330
1E
100
AcDbEntity
  8
SB
100
AcDbLine
 10
201.9620451371913
 20
56.203485369165
 30
0.0
 11
201.9620451371913
 21
53.86348536916498
 31
0.0
  0
ARC
  5
25D8
330
1E
100
AcDbEntity
  8
SB
100
AcDbCircle
 10
206.4470451371913
 20
55.80828536916502
 30
0.0
 40
0.9802000000000019
100
AcDbArc
 50
90.0
 51
156.2226839207423
  0
LINE
  5
25D9
330
1E
100
AcDbEntity
  8
SB
100
AcDbLine
 10
206.4470451371913
 20
56.78848536916498
 30
0.0
 11
207.3440451371912
 21
56.203485369165
 31
0.0
  0
ARC
  5
25DA
330
1E
100
AcDbEntity
  8
SB
100
AcDbCircle
 10
206.4470451371913
 20
51.63528536916521
 30
0.0
 40
0.9802000000000019
100
AcDbArc
 50
90.0
 51
156.2226839207423
  0
LINE
  5
25DB
330
1E
100
AcDbEntity
  8
SB
100
AcDbLine
 10
206.4470451371913
 20
52.61548536916515
 30
0.0
 11
207.3440451371912
 21
52.03048536916517
 31
0.0
  0
LINE
  5
25DC
330
1E
100
AcDbEntity
  8
SB
100
AcDbLine
 10
208.0460451371912
 20
52.61548536916508
 30
0.0
 11
208.0460451371912
 21
53.86348536916505
 31
0.0
  0
LINE
  5
25DD
330
1E
100
AcDbEntity
  8
SB
100
AcDbLine
 10
207.3440451371912
 20
56.20348536916491
 30
0.0
 11
207.3440451371912
 21
53.86348536916498
 31
0.0
  0
LINE
  5
25DE
330
1E
100
AcDbEntity
  8
SB
100
AcDbLine
 10
205.5500451371914
 20
56.203485369165
 30
0.0
 11
205.5500451371913
 21
53.86348536916498
 31
0.0
  0
LINE
  5
25DF
330
1E
100
AcDbEntity
  8
SB
100
AcDbLine
 10
199.4660451371912
 20
52.61548536916515
 30
0.0
 11
208.0460451371912
 21
52.61548536916508
 31
0.0
  0
ARC
  5
25E0
330
1E
100
AcDbEntity
  8
SB
100
AcDbCircle
 10
203.7560451371912
 20
49.57218536916514
 30
0.0
 40
3.043300000000034
100
AcDbArc
 50
53.87905612760304
 51
126.1209438723969
  0
LINE
  5
25E1
330
1E
100
AcDbEntity
  8
SB
100
AcDbLine
 10
199.4660451371912
 20
53.23948536916507
 30
0.0
 11
208.0460451371912
 21
53.23948536916507
 31
0.0
  0
LINE
  5
25E2
330
1E
100
AcDbEntity
  8
SB
100
AcDbLine
 10
199.4660451371912
 20
53.86348536916498
 30
0.0
 11
208.0460451371912
 21
53.86348536916505
 31
0.0
  0
ARC
  5
25E3
330
1E
100
AcDbEntity
  8
SB
100
AcDbCircle
 10
203.7560451371912
 20
53.74518536916497
 30
0.0
 40
3.043300000000034
100
AcDbArc
 50
53.87905612760304
 51
126.1209438723969
  0
LINE
  5
25E4
330
1E
100
AcDbEntity
  8
SB
100
AcDbLine
 10
198.2960451371912
 20
47.65255564912188
 30
0.0
 11
198.2960451371912
 21
49.21255564912192
 31
0.0
  0
LINE
  5
25E5
330
1E
100
AcDbEntity
  8
SB
100
AcDbLine
 10
199.4660451371913
 20
49.06648536916517
 30
0.0
 11
199.4660451371912
 21
49.69048536916522
 31
0.0
  0
LINE
  5
25E6
330
1E
100
AcDbEntity
  8
SB
100
AcDbLine
 10
208.0460451371912
 20
49.06648536916517
 30
0.0
 11
208.0460451371912
 21
49.69048536916515
 31
0.0
  0
LINE
  5
25E7
330
1E
100
AcDbEntity
  8
SB
100
AcDbLine
 10
199.4660451371913
 20
49.69048536916515
 30
0.0
 11
208.0460451371912
 21
49.69048536916515
 31
0.0
  0
LINE
  5
25E8
330
1E
100
AcDbEntity
  8
SB
100
AcDbLine
 10
207.3440451371912
 20
52.0304853691651
 30
0.0
 11
207.3440451371912
 21
49.69048536916515
 31
0.0
  0
LINE
  5
25E9
330
1E
100
AcDbEntity
  8
SB
100
AcDbLine
 10
205.5500451371914
 20
52.03048536916517
 30
0.0
 11
205.5500451371913
 21
49.69048536916515
 31
0.0
  0
LINE
  5
25EA
330
1E
100
AcDbEntity
  8
SB
100
AcDbLine
 10
200.1680451371913
 20
52.0304853691651
 30
0.0
 11
200.1680451371913
 21
49.69048536916515
 31
0.0
  0
LINE
  5
25EB
330
1E
100
AcDbEntity
  8
SB
100
AcDbLine
 10
201.9620451371913
 20
52.03048536916517
 30
0.0
 11
201.9620451371913
 21
49.69048536916515
 31
0.0
  0
LINE
  5
25EC
330
1E
100
AcDbEntity
  8
SB
100
AcDbLine
 10
209.2160451371912
 20
47.50648536916513
 30
0.0
 11
209.2160451371912
 21
49.06648536916517
 31
0.0
  0
LINE
  5
25ED
330
1E
100
AcDbEntity
  8
SB
100
AcDbLine
 10
198.2960451371912
 20
47.50648536916513
 30
0.0
 11
209.2160451371913
 21
47.50648536916513
 31
0.0
  0
LINE
  5
25EE
330
1E
100
AcDbEntity
  8
SB
100
AcDbLine
 10
198.2960451371912
 20
49.06648536916517
 30
0.0
 11
209.2160451371912
 21
49.06648536916517
 31
0.0
  0
LINE
  5
25EF
330
1E
100
AcDbEntity
  8
SC
100
AcDbLine
 10
198.2960451371912
 20
48.67648536916519
 30
0.0
 11
209.2160451371912
 21
48.67648536916519
 31
0.0
  0
LINE
  5
25F0
330
1E
100
AcDbEntity
  8
SC
100
AcDbLine
 10
198.2960451371912
 20
48.28648536916517
 30
0.0
 11
209.2160451371912
 21
48.28648536916517
 31
0.0
  0
LINE
  5
25F1
330
1E
100
AcDbEntity
  8
SC
100
AcDbLine
 10
198.2960451371912
 20
47.89648536916515
 30
0.0
 11
209.2160451371912
 21
47.89648536916515
 31
0.0
  0
LINE
  5
25F2
330
1E
100
AcDbEntity
  8
HO
100
AcDbLine
 10
203.7560451371911
 20
34.38593619658307
 30
0.0
 11
203.7560451371913
 21
64.65896486988066
 31
0.0
  0
LINE
  5
25F5
330
1E
100
AcDbEntity
  8
SA
100
AcDbLine
 10
108.5601735390427
 20
203.6417390177144
 30
0.0
 11
110.954891086884
 21
213.267898449347
 31
0.0
  0
LINE
  5
25F6
330
1E
100
AcDbEntity
  8
SA
100
AcDbLine
 10
103.6804612776681
 20
203.6460143538167
 30
0.0
 11
108.5601735390426
 21
203.6417390177145
 31
0.0
  0
LINE
  5
25F7
330
1E
100
AcDbEntity
  8
SA
100
AcDbLine
 10
103.6804612776682
 20
203.6460143538167
 30
0.0
 11
101.2866197984794
 21
213.2705791082603
 31
0.0
  0
LINE
  5
25F8
330
1E
100
AcDbEntity
  8
SA
100
AcDbLine
 10
99.67383574574519
 20
203.3553133047709
 30
0.0
 11
100.6071016608893
 21
213.230870619109
 31
0.0
  0
LINE
  5
25F9
330
1E
100
AcDbEntity
  8
SA
100
AcDbLine
 10
94.84798863280792
 20
202.6322575151783
 30
0.0
 11
99.67383574574519
 21
203.3553133047709
 31
0.0
  0
LINE
  5
25FA
330
1E
100
AcDbEntity
  8
SA
100
AcDbLine
 10
94.84798863280804
 20
202.6322575151783
 30
0.0
 11
91.04641744312806
 21
211.7925402744472
 31
0.0
  0
LINE
  5
25FB
330
1E
100
AcDbEntity
  8
SA
100
AcDbLine
 10
90.92944054083142
 20
201.7476468076687
 30
0.0
 11
90.38040720490943
 21
211.6519983731774
 31
0.0
  0
LINE
  5
25FC
330
1E
100
AcDbEntity
  8
SA
100
AcDbLine
 10
86.26526002636223
 20
200.3134117639071
 30
0.0
 11
90.92944054083131
 21
201.7476468076687
 31
0.0
  0
LINE
  5
25FD
330
1E
100
AcDbEntity
  8
SA
100
AcDbLine
 10
86.26526002636223
 20
200.3134117639072
 30
0.0
 11
81.14087994466144
 21
208.8047869480709
 31
0.0
  0
LINE
  5
25FE
330
1E
100
AcDbEntity
  8
SA
100
AcDbLine
 10
82.52232326350116
 20
198.8546521393643
 30
0.0
 11
80.50325517398727
 21
208.5665511085182
 31
0.0
  0
LINE
  5
25FF
330
1E
100
AcDbEntity
  8
SA
100
AcDbLine
 10
78.12399943286692
 20
196.7412762823092
 30
0.0
 11
82.52232326350105
 21
198.8546521393643
 31
0.0
  0
LINE
  5
2600
330
1E
100
AcDbEntity
  8
SA
100
AcDbLine
 10
78.12399943286703
 20
196.7412762823092
 30
0.0
 11
71.79128064238733
 21
204.3740606013287
 31
0.0
  0
LINE
  5
2601
330
1E
100
AcDbEntity
  8
SA
100
AcDbLine
 10
74.64028502138678
 20
194.7409540202178
 30
0.0
 11
71.19628482299134
 21
204.0434526184761
 31
0.0
  0
LINE
  5
2602
330
1E
100
AcDbEntity
  8
SA
100
AcDbLine
 10
70.60606916095259
 20
191.9956466742674
 30
0.0
 11
74.64028502138666
 21
194.7409540202177
 31
0.0
  0
LINE
  5
2603
330
1E
100
AcDbEntity
  8
SA
100
AcDbLine
 10
70.6060691609527
 20
191.9956466742674
 30
0.0
 11
63.20647413497062
 21
198.599336339252
 31
0.0
  0
LINE
  5
2604
330
1E
100
AcDbEntity
  8
SA
100
AcDbLine
 10
67.45939752414091
 20
189.4984456685294
 30
0.0
 11
62.66739849025697
 21
198.1837414491232
 31
0.0
  0
LINE
  5
2605
330
1E
100
AcDbEntity
  8
SA
100
AcDbLine
 10
63.87940734988792
 20
186.1825324633084
 30
0.0
 11
67.45939752414091
 21
189.4984456685293
 31
0.0
  0
LINE
  5
2606
330
1E
100
AcDbEntity
  8
SA
100
AcDbLine
 10
63.87940734988792
 20
186.1825324633084
 30
0.0
 11
55.57823081382122
 21
191.6096119594112
 31
0.0
  0
LINE
  5
2607
330
1E
100
AcDbEntity
  8
SA
100
AcDbLine
 10
61.14006993239292
 20
183.2442360578915
 30
0.0
 11
55.10711740289725
 21
191.1183138651016
 31
0.0
  0
LINE
  5
2608
330
1E
100
AcDbEntity
  8
SA
100
AcDbLine
 10
58.09427650905803
 20
179.4317890150229
 30
0.0
 11
61.1400699323928
 21
183.2442360578914
 31
0.0
  0
LINE
  5
2609
330
1E
100
AcDbEntity
  8
SA
100
AcDbLine
 10
58.09427650905803
 20
179.4317890150229
 30
0.0
 11
49.07695302944119
 21
183.5610263542798
 31
0.0
  0
LINE
  5
260A
330
1E
100
AcDbEntity
  8
SA
100
AcDbLine
 10
55.82346558216767
 20
176.1180338962356
 30
0.0
 11
48.68432574741547
 21
183.0049998433707
 31
0.0
  0
LINE
  5
260B
330
1E
100
AcDbEntity
  8
SA
100
AcDbLine
 10
53.37990690180624
 20
171.8942167827779
 30
0.0
 11
55.82346558216767
 21
176.1180338962355
 31
0.0
  0
LINE
  5
260C
330
1E
100
AcDbEntity
  8
SA
100
AcDbLine
 10
53.37990690180624
 20
171.894216782778
 30
0.0
 11
43.8478685844953
 21
174.6333716263893
 31
0.0
  0
LINE
  5
260D
330
1E
100
AcDbEntity
  8
SA
100
AcDbLine
 10
51.62834862922517
 20
168.2790267641584
 30
0.0
 11
43.54249807605117
 21
174.0250374123283
 31
0.0
  0
LINE
  5
260E
330
1E
100
AcDbEntity
  8
SA
100
AcDbLine
 10
49.84160975489721
 20
163.7381926747786
 30
0.0
 11
51.62834862922517
 21
168.2790267641583
 31
0.0
  0
LINE
  5
260F
330
1E
100
AcDbEntity
  8
SA
100
AcDbLine
 10
49.84160975489721
 20
163.7381926747787
 30
0.0
 11
40.00778658468175
 21
165.0260768298553
 31
0.0
  0
LINE
  5
2610
330
1E
100
AcDbEntity
  8
SA
100
AcDbLine
 10
48.64843105407198
 20
159.9023251274211
 30
0.0
 11
39.79649432236829
 21
164.3790240937425
 31
0.0
  0
LINE
  5
2611
330
1E
100
AcDbEntity
  8
SA
100
AcDbLine
 10
47.55842477973277
 20
155.1459087921737
 30
0.0
 11
48.64843105407186
 21
159.902325127421
 31
0.0
  0
LINE
  5
2612
330
1E
100
AcDbEntity
  8
SA
100
AcDbLine
 10
47.55842477973277
 20
155.1459087921737
 30
0.0
 11
37.64248811633184
 21
154.9537530548557
 31
0.0
  0
LINE
  5
2613
330
1E
100
AcDbEntity
  8
SA
100
AcDbLine
 10
46.95027929117133
 20
151.1750506585058
 30
0.0
 11
37.52999402013922
 21
154.2824358855934
 31
0.0
  0
LINE
  5
2614
330
1E
100
AcDbEntity
  8
SA
100
AcDbLine
 10
46.58135455580861
 20
146.3093025585786
 30
0.0
 11
46.95027929117128
 21
151.1750506585057
 31
0.0
  0
LINE
  5
2615
330
1E
100
AcDbEntity
  8
SA
100
AcDbLine
 10
46.58135455580861
 20
146.3093025585786
 30
0.0
 11
36.80481003869045
 21
144.6413993705099
 31
0.0
  0
LINE
  5
2616
330
1E
100
AcDbEntity
  8
SA
100
AcDbLine
 10
46.57182724479525
 20
142.292156247661
 30
0.0
 11
36.79362704083667
 21
143.9608138843411
 31
0.0
  0
LINE
  5
2617
330
1E
100
AcDbEntity
  8
SA
100
AcDbLine
 10
46.93222521736726
 20
137.4257691551998
 30
0.0
 11
46.57182724479525
 21
142.2921562476609
 31
0.0
  0
LINE
  5
2618
330
1E
100
AcDbEntity
  8
SA
100
AcDbLine
 10
46.93222521736726
 20
137.4257691551998
 30
0.0
 11
37.51346469579079
 21
134.3193767174747
 31
0.0
  0
LINE
  5
2619
330
1E
100
AcDbEntity
  8
SA
100
AcDbLine
 10
47.5215289082866
 20
133.4520710774839
 30
0.0
 11
37.60384260596857
 21
133.6447260695268
 31
0.0
  0
LINE
  5
261A
330
1E
100
AcDbEntity
  8
SA
100
AcDbLine
 10
48.6031988936258
 20
128.6937520386716
 30
0.0
 11
47.5215289082866
 21
133.4520710774838
 31
0.0
  0
LINE
  5
261B
330
1E
100
AcDbEntity
  8
SA
100
AcDbLine
 10
48.6031988936258
 20
128.6937520386716
 30
0.0
 11
39.75262191360974
 21
124.21826202519
 31
0.0
  0
LINE
  5
261C
330
1E
100
AcDbEntity
  8
SA
100
AcDbLine
 10
49.77816951581775
 20
124.8522680428753
 30
0.0
 11
39.94254183865076
 21
123.5646167961116
 31
0.0
  0
LINE
  5
261D
330
1E
100
AcDbEntity
  8
SA
100
AcDbLine
 10
51.55694879385754
 20
120.3083100421534
 30
0.0
 11
49.77816951581775
 21
124.8522680428752
 31
0.0
  0
LINE
  5
261E
330
1E
100
AcDbEntity
  8
SA
100
AcDbLine
 10
51.55694879385743
 20
120.3083100421534
 30
0.0
 11
43.47226261999725
 21
114.5636975042918
 31
0.0
  0
LINE
  5
261F
330
1E
100
AcDbEntity
  8
SA
100
AcDbLine
 10
53.29133944520282
 20
116.6848525328814
 30
0.0
 11
43.75748206260925
 21
113.9456590483841
 31
0.0
  0
LINE
  5
2620
330
1E
100
AcDbEntity
  8
SA
100
AcDbLine
 10
55.72749302621588
 20
112.4567600833215
 30
0.0
 11
53.29133944520293
 21
116.6848525328813
 31
0.0
  0
LINE
  5
2621
330
1E
100
AcDbEntity
  8
SA
100
AcDbLine
 10
55.72749302621588
 20
112.4567600833216
 30
0.0
 11
48.58929618809378
 21
105.5713501724893
 31
0.0
  0
LINE
  5
2622
330
1E
100
AcDbEntity
  8
SA
100
AcDbLine
 10
57.98256028555778
 20
109.1322711137478
 30
0.0
 11
48.96344381723969
 21
105.0027244475797
 31
0.0
  0
LINE
  5
2623
330
1E
100
AcDbEntity
  8
SA
100
AcDbLine
 10
61.02166852416707
 20
105.3144928139607
 30
0.0
 11
57.9825602855579
 21
109.1322711137477
 31
0.0
  0
LINE
  5
2624
330
1E
100
AcDbEntity
  8
SA
100
AcDbLine
 10
61.02166852416707
 20
105.3144928139607
 30
0.0
 11
54.98941654363142
 21
97.44209420976853
 31
0.0
  0
LINE
  5
2625
330
1E
100
AcDbEntity
  8
SA
100
AcDbLine
 10
63.74703791531823
 20
102.3632359741127
 30
0.0
 11
55.44413451953658
 21
96.93558337492559
 31
0.0
  0
LINE
  5
2626
330
1E
100
AcDbEntity
  8
SA
100
AcDbLine
 10
67.32121215544833
 20
99.04105468262688
 30
0.0
 11
63.74703791531834
 21
102.3632359741126
 31
0.0
  0
LINE
  5
2627
330
1E
100
AcDbEntity
  8
SA
100
AcDbLine
 10
67.32121215544822
 20
99.04105468262693
 30
0.0
 11
62.52965557374801
 21
90.35752376114528
 31
0.0
  0
LINE
  5
2628
330
1E
100
AcDbEntity
  8
SA
100
AcDbLine
 10
70.45600342974802
 20
96.52895617350186
 30
0.0
 11
63.05478624822962
 21
89.92444243143546
 31
0.0
  0
LINE
  5
2629
330
1E
100
AcDbEntity
  8
SA
100
AcDbLine
 10
74.48540252501953
 20
93.7765839306297
 30
0.0
 11
70.45600342974802
 21
96.52895617350177
 31
0.0
  0
LINE
  5
262A
330
1E
100
AcDbEntity
  8
SA
100
AcDbLine
 10
74.48540252501942
 20
93.77658393062972
 30
0.0
 11
71.04157679838085
 21
84.47589642354159
 31
0.0
  0
LINE
  5
262B
330
1E
100
AcDbEntity
  8
SA
100
AcDbLine
 10
77.95958962548633
 20
91.75975988180363
 30
0.0
 11
71.62538961992317
 21
84.12591892022538
 31
0.0
  0
LINE
  5
262C
330
1E
100
AcDbEntity
  8
SA
100
AcDbLine
 10
82.35420345849247
 20
89.63868013529273
 30
0.0
 11
77.95958962548644
 21
91.75975988180358
 31
0.0
  0
LINE
  5
262D
330
1E
100
AcDbEntity
  8
SA
100
AcDbLine
 10
82.35420345849247
 20
89.63868013529276
 30
0.0
 11
80.33503796289796
 21
79.92859803258307
 31
0.0
  0
LINE
  5
262E
330
1E
100
AcDbEntity
  8
SA
100
AcDbLine
 10
86.09017878622347
 20
88.16218306331496
 30
0.0
 11
80.96449151778944
 21
79.66954227476401
 31
0.0
  0
LINE
  5
262F
330
1E
100
AcDbEntity
  8
SA
100
AcDbLine
 10
90.75183894581579
 20
86.71977722972361
 30
0.0
 11
86.09017878622371
 21
88.1621830633149
 31
0.0
  0
LINE
  5
2630
330
1E
100
AcDbEntity
  8
SA
100
AcDbLine
 10
90.75183894581568
 20
86.71977722972361
 30
0.0
 11
90.20243850186631
 21
76.81720772013921
 31
0.0
  0
LINE
  5
2631
330
1E
100
AcDbEntity
  8
SA
100
AcDbLine
 10
94.66614698550273
 20
85.81658963934414
 30
0.0
 11
90.86347183783123
 21
76.6548605853703
 31
0.0
  0
LINE
  5
2632
330
1E
100
AcDbEntity
  8
SA
100
AcDbLine
 10
99.4907196868773
 20
85.08507868149086
 30
0.0
 11
94.66614698550285
 21
85.8165896393441
 31
0.0
  0
LINE
  5
2633
330
1E
100
AcDbEntity
  8
SA
100
AcDbLine
 10
99.49071968687718
 20
85.08507868149086
 30
0.0
 11
100.4233569926338
 21
75.21122880437232
 31
0.0
  0
LINE
  5
2634
330
1E
100
AcDbEntity
  8
SA
100
AcDbLine
 10
103.4959212651128
 20
84.77537629100622
 30
0.0
 11
101.1012037172715
 21
75.14921685937372
 31
0.0
  0
LINE
  5
2635
330
1E
100
AcDbEntity
  8
SA
100
AcDbLine
 10
108.3756335264874
 20
84.77110095490401
 30
0.0
 11
103.495921265113
 21
84.77537629100618
 31
0.0
  0
LINE
  5
2636
330
1E
100
AcDbEntity
  8
SA
100
AcDbLine
 10
108.3756335264874
 20
84.77110095490401
 30
0.0
 11
110.7694750056761
 21
75.14653620046039
 31
0.0
  0
LINE
  5
2637
330
1E
100
AcDbEntity
  8
SA
100
AcDbLine
 10
112.3822590584105
 20
85.06180200394982
 30
0.0
 11
111.4489931432662
 21
75.1862446896117
 31
0.0
  0
LINE
  5
2638
330
1E
100
AcDbEntity
  8
SA
100
AcDbLine
 10
117.2081061713476
 20
85.78485779354238
 30
0.0
 11
112.3822590584106
 21
85.06180200394979
 31
0.0
  0
LINE
  5
2639
330
1E
100
AcDbEntity
  8
SA
100
AcDbLine
 10
117.2081061713476
 20
85.78485779354238
 30
0.0
 11
121.0096773610275
 21
76.62457503427347
 31
0.0
  0
LINE
  5
263A
330
1E
100
AcDbEntity
  8
SA
100
AcDbLine
 10
121.1266542633242
 20
86.66946850105199
 30
0.0
 11
121.6756875992461
 21
76.76511693554335
 31
0.0
  0
LINE
  5
263B
330
1E
100
AcDbEntity
  8
SA
100
AcDbLine
 10
125.7908347777933
 20
88.10370354481362
 30
0.0
 11
121.1266542633242
 21
86.66946850105199
 31
0.0
  0
LINE
  5
263C
330
1E
100
AcDbEntity
  8
SA
100
AcDbLine
 10
125.7908347777933
 20
88.10370354481358
 30
0.0
 11
130.915214859494
 21
79.61232836064983
 31
0.0
  0
LINE
  5
263D
330
1E
100
AcDbEntity
  8
SA
100
AcDbLine
 10
129.5337715406545
 20
89.56246316935642
 30
0.0
 11
131.5528396301682
 21
79.85056420020242
 31
0.0
  0
LINE
  5
263E
330
1E
100
AcDbEntity
  8
SA
100
AcDbLine
 10
133.9320953712887
 20
91.67583902641149
 30
0.0
 11
129.5337715406546
 21
89.56246316935645
 31
0.0
  0
LINE
  5
263F
330
1E
100
AcDbEntity
  8
SA
100
AcDbLine
 10
133.9320953712886
 20
91.67583902641146
 30
0.0
 11
140.2648141617682
 21
84.04305470739197
 31
0.0
  0
LINE
  5
2640
330
1E
100
AcDbEntity
  8
SA
100
AcDbLine
 10
137.4158097827689
 20
93.67616128850295
 30
0.0
 11
140.8598099811642
 21
84.37366269024456
 31
0.0
  0
LINE
  5
2641
330
1E
100
AcDbEntity
  8
SA
100
AcDbLine
 10
141.4500256432031
 20
96.42146863445336
 30
0.0
 11
137.415809782769
 21
93.67616128850301
 31
0.0
  0
LINE
  5
2642
330
1E
100
AcDbEntity
  8
SA
100
AcDbLine
 10
141.4500256432031
 20
96.42146863445333
 30
0.0
 11
148.8496206691849
 21
89.8177789694686
 31
0.0
  0
LINE
  5
2643
330
1E
100
AcDbEntity
  8
SA
100
AcDbLine
 10
144.5966972800146
 20
98.91866964019138
 30
0.0
 11
149.3886963138986
 21
90.23337385959747
 31
0.0
  0
LINE
  5
2644
330
1E
100
AcDbEntity
  8
SA
100
AcDbLine
 10
148.1766874542676
 20
102.2345828454124
 30
0.0
 11
144.5966972800146
 21
98.91866964019143
 31
0.0
  0
LINE
  5
2645
330
1E
100
AcDbEntity
  8
SA
100
AcDbLine
 10
148.1766874542676
 20
102.2345828454124
 30
0.0
 11
156.4778639903342
 21
96.80750334930948
 31
0.0
  0
LINE
  5
2646
330
1E
100
AcDbEntity
  8
SA
100
AcDbLine
 10
150.9160248717627
 20
105.1728792508292
 30
0.0
 11
156.9489774012582
 21
97.29880144361906
 31
0.0
  0
LINE
  5
2647
330
1E
100
AcDbEntity
  8
SA
100
AcDbLine
 10
153.9618182950975
 20
108.9853262936979
 30
0.0
 11
150.9160248717627
 21
105.1728792508293
 31
0.0
  0
LINE
  5
2648
330
1E
100
AcDbEntity
  8
SA
100
AcDbLine
 10
153.9618182950975
 20
108.9853262936979
 30
0.0
 11
162.9791417747143
 21
104.8560889544408
 31
0.0
  0
LINE
  5
2649
330
1E
100
AcDbEntity
  8
SA
100
AcDbLine
 10
156.2326292219879
 20
112.2990814124852
 30
0.0
 11
163.3717690567401
 21
105.4121154653498
 31
0.0
  0
LINE
  5
264A
330
1E
100
AcDbEntity
  8
SA
100
AcDbLine
 10
158.6761879023494
 20
116.5228985259428
 30
0.0
 11
156.2326292219879
 21
112.2990814124852
 31
0.0
  0
LINE
  5
264B
330
1E
100
AcDbEntity
  8
SA
100
AcDbLine
 10
158.6761879023494
 20
116.5228985259428
 30
0.0
 11
168.2082262196602
 21
113.7837436823313
 31
0.0
  0
LINE
  5
264C
330
1E
100
AcDbEntity
  8
SA
100
AcDbLine
 10
160.4277461749305
 20
120.1380885445624
 30
0.0
 11
168.5135967281044
 21
114.3920778963923
 31
0.0
  0
LINE
  5
264D
330
1E
100
AcDbEntity
  8
SA
100
AcDbLine
 10
162.2144850492586
 20
124.6789226339421
 30
0.0
 11
160.4277461749306
 21
120.1380885445625
 31
0.0
  0
LINE
  5
264E
330
1E
100
AcDbEntity
  8
SA
100
AcDbLine
 10
162.2144850492585
 20
124.6789226339421
 30
0.0
 11
172.0243244510944
 21
123.3941795070026
 31
0.0
  0
LINE
  5
264F
330
1E
100
AcDbEntity
  8
SA
100
AcDbLine
 10
162.0864050558735
 20
164.0910447799093
 30
0.0
 11
171.9076795693757
 21
165.3768169529936
 31
0.0
  0
LINE
  5
2650
330
1E
100
AcDbEntity
  8
SA
100
AcDbLine
 10
160.499146010298
 20
168.1088052665675
 30
0.0
 11
162.0726450237038
 21
164.0892433572487
 31
0.0
  0
LINE
  5
2651
330
1E
100
AcDbEntity
  8
SA
100
AcDbLine
 10
160.499146010298
 20
168.1088052665674
 30
0.0
 11
168.5838321841583
 21
173.8534178044289
 31
0.0
  0
LINE
  5
2652
330
1E
100
AcDbEntity
  8
SA
100
AcDbLine
 10
158.7647553589526
 20
171.7322627758393
 30
0.0
 11
168.2986127415464
 21
174.4714562603364
 31
0.0
  0
LINE
  5
2653
330
1E
100
AcDbEntity
  8
SA
100
AcDbLine
 10
156.3286017779396
 20
175.9603552253992
 30
0.0
 11
158.7647553589526
 21
171.7322627758394
 31
0.0
  0
LINE
  5
2654
330
1E
100
AcDbEntity
  8
SA
100
AcDbLine
 10
156.3286017779397
 20
175.9603552253992
 30
0.0
 11
163.4667986160619
 21
182.8457651362312
 31
0.0
  0
LINE
  5
2655
330
1E
100
AcDbEntity
  8
SA
100
AcDbLine
 10
154.0735345185978
 20
179.2848441949729
 30
0.0
 11
163.0926509869159
 21
183.4143908611409
 31
0.0
  0
LINE
  5
2656
330
1E
100
AcDbEntity
  8
SA
100
AcDbLine
 10
151.0344262799885
 20
183.1026224947601
 30
0.0
 11
154.0735345185977
 21
179.2848441949731
 31
0.0
  0
LINE
  5
2657
330
1E
100
AcDbEntity
  8
SA
100
AcDbLine
 10
151.0344262799885
 20
183.10262249476
 30
0.0
 11
157.0666782605241
 21
190.9750210989521
 31
0.0
  0
LINE
  5
2658
330
1E
100
AcDbEntity
  8
SA
100
AcDbLine
 10
148.3090568888372
 20
186.053879334608
 30
0.0
 11
156.611960284619
 21
191.4815319337951
 31
0.0
  0
LINE
  5
2659
330
1E
100
AcDbEntity
  8
SA
100
AcDbLine
 10
144.7348826487072
 20
189.3760606260939
 30
0.0
 11
148.3090568888371
 21
186.0538793346081
 31
0.0
  0
LINE
  5
265A
330
1E
100
AcDbEntity
  8
SA
100
AcDbLine
 10
144.7348826487072
 20
189.3760606260938
 30
0.0
 11
149.5264392304074
 21
198.0595915475754
 31
0.0
  0
LINE
  5
265B
330
1E
100
AcDbEntity
  8
SA
100
AcDbLine
 10
141.6000913744074
 20
191.8881591352189
 30
0.0
 11
149.0013085559259
 21
198.4926728772852
 31
0.0
  0
LINE
  5
265C
330
1E
100
AcDbEntity
  8
SA
100
AcDbLine
 10
137.5706922791359
 20
194.640531378091
 30
0.0
 11
141.6000913744073
 21
191.8881591352189
 31
0.0
  0
LINE
  5
265D
330
1E
100
AcDbEntity
  8
SA
100
AcDbLine
 10
137.5706922791359
 20
194.640531378091
 30
0.0
 11
141.0145180057746
 21
203.9412188851791
 31
0.0
  0
LINE
  5
265E
330
1E
100
AcDbEntity
  8
SA
100
AcDbLine
 10
134.096505178669
 20
196.657355426917
 30
0.0
 11
140.4307051842324
 21
204.2911963884953
 31
0.0
  0
LINE
  5
265F
330
1E
100
AcDbEntity
  8
SA
100
AcDbLine
 10
129.7018913456629
 20
198.778435173428
 30
0.0
 11
134.096505178669
 21
196.6573554269172
 31
0.0
  0
LINE
  5
2660
330
1E
100
AcDbEntity
  8
SA
100
AcDbLine
 10
129.701891345663
 20
198.7784351734279
 30
0.0
 11
131.7210568412576
 21
208.4885172761376
 31
0.0
  0
LINE
  5
2661
330
1E
100
AcDbEntity
  8
SA
100
AcDbLine
 10
125.965916017932
 20
200.2549322454058
 30
0.0
 11
131.0916032863662
 21
208.7475730339567
 31
0.0
  0
LINE
  5
2662
330
1E
100
AcDbEntity
  8
SA
100
AcDbLine
 10
121.3042558583397
 20
201.6973380789972
 30
0.0
 11
125.9659160179319
 21
200.2549322454059
 31
0.0
  0
LINE
  5
2663
330
1E
100
AcDbEntity
  8
SA
100
AcDbLine
 10
121.3042558583398
 20
201.6973380789971
 30
0.0
 11
121.8536563022894
 21
211.5999075885815
 31
0.0
  0
LINE
  5
2664
330
1E
100
AcDbEntity
  8
SA
100
AcDbLine
 10
117.3899478186528
 20
202.6005256693766
 30
0.0
 11
121.1926229663244
 21
211.7622547233504
 31
0.0
  0
LINE
  5
2665
330
1E
100
AcDbEntity
  8
SA
100
AcDbLine
 10
112.5653751172783
 20
203.3320366272298
 30
0.0
 11
117.3899478186526
 21
202.6005256693766
 31
0.0
  0
LINE
  5
2666
330
1E
100
AcDbEntity
  8
SA
100
AcDbLine
 10
112.5653751172783
 20
203.3320366272298
 30
0.0
 11
111.6327378115218
 21
213.2058865043483
 31
0.0
  0
ARC
  5
2667
330
1E
100
AcDbEntity
  8
SA
100
AcDbCircle
 10
106.0157862507136
 20
144.2085129919217
 30
0.0
 40
69.22260238192045
100
AcDbArc
 50
12.18197343503254
 51
348.237352411792
  0
LINE
  5
266A
330
1E
100
AcDbEntity
  8
SA
100
AcDbLine
 10
215.0984635199046
 20
158.8156609742213
 30
0.0
 11
215.0984635199046
 21
130.0969412206312
 31
0.0
  0
LINE
  5
266B
330
1E
100
AcDbEntity
  8
HO
100
AcDbLine
 10
203.8608689414861
 20
143.1438781682813
 30
0.0
 11
203.860868941486
 21
161.8638781682814
 31
0.0
  0
CIRCLE
  5
266C
330
1E
100
AcDbEntity
  8
SA
100
AcDbCircle
 10
203.8608689414861
 20
152.5038781682813
 30
0.0
 40
1.95
  0
CIRCLE
  5
266D
330
1E
100
AcDbEntity
  8
SC
100
AcDbCircle
 10
203.8608689414861
 20
152.5038781682813
 30
0.0
 40
1.482
  0
CIRCLE
  5
266E
330
1E
100
AcDbEntity
  8
SC
100
AcDbCircle
 10
203.8608689414861
 20
152.5038781682813
 30
0.0
 40
3.107299148778615
  0
CIRCLE
  5
266F
330
1E
100
AcDbEntity
  8
SB
100
AcDbCircle
 10
203.8608689414861
 20
152.5038781682813
 30
0.0
 40
4.29
  0
CIRCLE
  5
2670
330
1E
100
AcDbEntity
  8
SA
100
AcDbCircle
 10
203.8608689414861
 20
152.5038781682813
 30
0.0
 40
5.46
  0
LINE
  5
2671
330
1E
100
AcDbEntity
  8
HO
100
AcDbLine
 10
203.8608689414861
 20
145.7687246804779
 30
0.0
 11
203.860868941486
 21
127.0487246804779
 31
0.0
  0
CIRCLE
  5
2672
330
1E
100
AcDbEntity
  8
SA
100
AcDbCircle
 10
203.8608689414861
 20
136.4087246804779
 30
0.0
 40
1.95
  0
CIRCLE
  5
2673
330
1E
100
AcDbEntity
  8
SC
100
AcDbCircle
 10
203.8608689414861
 20
136.4087246804779
 30
0.0
 40
1.482
  0
CIRCLE
  5
2674
330
1E
100
AcDbEntity
  8
SC
100
AcDbCircle
 10
203.8608689414861
 20
136.4087246804779
 30
0.0
 40
3.107299148778615
  0
CIRCLE
  5
2675
330
1E
100
AcDbEntity
  8
SB
100
AcDbCircle
 10
203.8608689414861
 20
136.4087246804779
 30
0.0
 40
4.29
  0
CIRCLE
  5
2676
330
1E
100
AcDbEntity
  8
SA
100
AcDbCircle
 10
203.8608689414861
 20
136.4087246804779
 30
0.0
 40
5.46
  0
LINE
  5
2677
330
1E
100
AcDbEntity
  8
HO
100
AcDbLine
 10
213.2208689414861
 20
152.5038781682814
 30
0.0
 11
194.5008689414861
 21
152.5038781682812
 31
0.0
  0
LINE
  5
2678
330
1E
100
AcDbEntity
  8
HO
100
AcDbLine
 10
213.2208689414861
 20
136.408724680478
 30
0.0
 11
194.5008689414861
 21
136.4087246804779
 31
0.0
  0
LINE
  5
2679
330
1E
100
AcDbEntity
  8
SA
100
AcDbLine
 10
171.9080780249005
 20
165.3755509049687
 30
0.0
 11
171.9227233712838
 21
165.3755704140261
 31
0.0
  0
LINE
  5
267B
330
1E
100
AcDbEntity
  8
SA
100
AcDbLine
 10
222.6575482465694
 20
165.4431542437329
 30
0.0
 11
222.6575482465697
 21
123.4694477967431
 31
0.0
  0
LINE
  5
267C
330
1E
100
AcDbEntity
  8
SA
100
AcDbLine
 10
215.0984635199046
 20
130.0969412206312
 30
0.0
 11
222.6575482465697
 21
123.4694477967431
 31
0.0
  0
LINE
  5
267D
330
1E
100
AcDbEntity
  8
SA
100
AcDbLine
 10
215.0984635199046
 20
158.8156609742213
 30
0.0
 11
222.6587611250898
 21
165.4431558602995
 31
0.0
  0
CIRCLE
  5
2782
330
1E
100
AcDbEntity
  8
HA
100
AcDbCircle
 10
106.0280474020777
 20
144.1185576543604
 30
0.0
 40
48.08644234563963
  0
SOLID
  5
2B36
330
1E
100
AcDbEntity
  8
SC
100
AcDbTrace
 10
70.42908360128468
 20
182.16735166561
 30
0.0
 11
69.46851678203898
 21
181.2426413522999
 31
0.0
 12
72.72293113159205
 22
178.8232960512179
 32
0.0
 13
72.72293113159205
 23
178.8232960512179
 33
0.0
  0
LINE
  5
2B37
330
1E
100
AcDbEntity
  8
SC
100
AcDbLine
 10
69.94880019166183
 20
181.704996508955
 30
0.0
 11
65.0659991967741
 21
187.3727113985163
 31
0.0
  0
SOLID
  5
2B39
330
1E
100
AcDbEntity
  8
SC
100
AcDbTrace
 10
142.6618185611945
 20
107.1046562406891
 30
0.0
 11
141.7012517419488
 21
106.179945927379
 31
0.0
 12
139.4074042116414
 22
109.5240015417711
 32
0.0
 13
139.4074042116414
 23
109.5240015417711
 33
0.0
  0
LINE
  5
2B3A
330
1E
100
AcDbEntity
  8
SC
100
AcDbLine
 10
142.1815351515717
 20
106.642301084034
 30
0.0
 11
185.976971081308
 21
61.14865622792988
 31
0.0
  0
LINE
  5
2B3B
330
1E
100
AcDbEntity
  8
SC
100
AcDbLine
 10
162.4014897012941
 20
104.053549078245
 30
0.0
 11
159.1432646990334
 21
106.3738873800113
 31
0.0
  0
MTEXT
  5
2B9C
330
1E
100
AcDbEntity
  8
SC
100
AcDbMText
 10
162.2504379052971
 20
205.0132570247637
 30
0.0
 40
5.0
 41
0.0
 71
     5
 72
     1
  1
\A1;A
  7
0
 11
0.7164030727745239
 21
0.6976866326075199
 31
0.0
 73
     1
 44
1.0
1001
ACAD
1000
MTEXTBEGIN
1070
    73
1070
     1
1070
    44
1040
1.0
1070
    74
1070
     0
1000
MTEXTEND
  0
SOLID
  5
2B9D
330
1E
100
AcDbEntity
  8
SC
100
AcDbTrace
 10
53.09376448602037
 20
93.59968415383669
 30
0.0
 11
54.02401332949708
 21
92.64448005680398
 31
0.0
 12
56.42450119885683
 22
95.9128286357504
 32
0.0
 13
56.42450119885683
 23
95.9128286357504
 33
0.0
  0
LINE
  5
2B9E
330
1E
100
AcDbEntity
  8
SC
100
AcDbLine
 10
53.55888890775872
 20
93.12208210532034
 30
0.0
 11
39.013
 21
79.039
 31
0.0
  0
LINE
  5
2B9F
330
1E
100
AcDbEntity
  8
SC
100
AcDbLine
 10
56.42450119885683
 20
95.9128286357504
 30
0.0
 11
59.29011348995492
 21
98.70357516618049
 31
0.0
  0
SOLID
  5
2BA0
330
1E
100
AcDbEntity
  8
SC
100
AcDbTrace
 10
158.0075591719303
 20
195.7725459270396
 30
0.0
 11
158.937808015407
 21
194.8173418300069
 31
0.0
 12
155.6070713025706
 22
192.5041973480932
 32
0.0
 13
155.6070713025706
 23
192.5041973480932
 33
0.0
  0
LINE
  5
2BA1
330
1E
100
AcDbEntity
  8
SC
100
AcDbLine
 10
158.4726835936687
 20
195.2949438785233
 30
0.0
 11
178.9619185324616
 21
213.9632168098614
 31
0.0
  0
LINE
  5
2BA2
330
1E
100
AcDbEntity
  8
SC
100
AcDbLine
 10
155.6070713025706
 20
192.5041973480932
 30
0.0
 11
152.7414590114725
 21
189.7134508176631
 31
0.0
  0
LINE
  5
2D69
330
1E
100
AcDbEntity
  8
SC
100
AcDbLine
 10
203.7560451371913
 20
60.92248536916514
 30
0.0
 11
224.8675451371914
 21
60.92248536916512
 31
0.0
  0
LINE
  5
2D6A
330
1E
100
AcDbEntity
  8
SC
100
AcDbLine
 10
203.7560451371912
 20
45.54337334759897
 30
0.0
 11
224.8475451371914
 21
45.54337334759947
 31
0.0
  0
SOLID
  5
2D6D
330
1E
100
AcDbEntity
  8
SC
100
AcDbTrace
 10
224.5142118038581
 20
62.90503514983734
 30
0.0
 11
225.1808784705247
 21
62.90503514983734
 31
0.0
 12
224.8475451371914
 22
60.90503514983736
 32
0.0
 13
224.8475451371914
 23
60.90503514983736
 33
0.0
  0
LINE
  5
2D6F
330
1E
100
AcDbEntity
  8
SC
100
AcDbLine
 10
224.8475451371914
 20
77.0
 30
0.0
 11
224.8475451371914
 21
37.79400000000001
 31
0.0
  0
SOLID
  5
2D70
330
1E
100
AcDbEntity
  8
SC
100
AcDbTrace
 10
224.514211803858
 20
43.53119500614567
 30
0.0
 11
225.1808784705247
 21
43.53119500614567
 31
0.0
 12
224.8475451371913
 22
45.53119500614568
 32
0.0
 13
224.8475451371913
 23
45.53119500614568
 33
0.0
  0
LINE
  5
2E0B
330
1E
100
AcDbEntity
  8
SC
100
AcDbLine
 10
82.9681903175366
 20
161.028515702145
 30
0.0
 11
82.84875138276078
 21
160.864462266117
 31
0.0
  0
LINE
  5
2E0C
330
1E
100
AcDbEntity
  8
SC
100
AcDbLine
 10
129.1120848132765
 20
127.3278322115794
 30
0.0
 11
129.0429264202502
 21
127.2328408084207
 31
0.0
  0
LINE
  5
2E0D
330
1E
100
AcDbEntity
  8
SC
370
    15
100
AcDbLine
 10
86.1884460498158
 20
158.6556527381486
 30
0.0
 11
125.9151212977861
 21
129.7326878269175
 31
0.0
  0
MTEXT
  5
2E0E
330
1E
100
AcDbEntity
  8
SC
100
AcDbMText
 10
110.2813947384482
 20
148.0879308098006
 30
0.0
 40
5.0
 41
0.0
 71
     5
 72
     1
  1
\A1;B
  7
0
 73
     1
 44
1.0
1001
ACAD
1000
MTEXTBEGIN
1070
    73
1070
     1
1070
    44
1040
1.0
1070
    74
1070
     0
1000
MTEXTEND
  0
SOLID
  5
2E0F
330
1E
100
AcDbEntity
  8
SC
100
AcDbTrace
 10
86.58083409535457
 20
159.1946110539418
 30
0.0
 11
85.79605800427703
 21
158.1166944223553
 31
0.0
 12
82.95469615505625
 22
161.0099810113812
 32
0.0
 13
82.95469615505625
 23
161.0099810113812
 33
0.0
  0
SOLID
  5
2E10
330
1E
100
AcDbEntity
  8
SC
100
AcDbTrace
 10
126.3075093433248
 20
130.2716461427108
 30
0.0
 11
125.5227332522473
 21
129.1937295111243
 31
0.0
 12
129.1488711925456
 22
127.3783595536849
 32
0.0
 13
129.1488711925456
 23
127.3783595536849
 33
0.0
  0
LINE
  5
2E33
330
1E
100
AcDbEntity
  8
SC
100
AcDbLine
 10
222.7200482465694
 20
165.3755704140263
 30
0.0
 11
233.9030000000001
 21
165.3755704140263
 31
0.0
  0
LINE
  5
2E34
330
1E
100
AcDbEntity
  8
SC
100
AcDbLine
 10
222.7200482465697
 20
123.4694477967431
 30
0.0
 11
233.9030000000001
 21
123.469447796743
 31
0.0
  0
LINE
  5
2E35
330
1E
100
AcDbEntity
  8
SC
100
AcDbLine
 10
233.723
 20
161.3755704140263
 30
0.0
 11
233.723
 21
127.469447796743
 31
0.0
  0
MTEXT
  5
2E36
330
1E
100
AcDbEntity
  8
SC
100
AcDbMText
 10
230.3205175574763
 20
144.2085576543603
 30
0.0
 40
5.0
 41
0.0
 71
     5
 72
     1
  1
\A1;E
  7
0
 11
0.0000000000000001
 21
1.0
 31
0.0
 73
     1
 44
1.0
1001
ACAD
1000
MTEXTBEGIN
1070
    73
1070
     1
1070
    44
1040
1.0
1070
    74
1070
     0
1000
MTEXTEND
  0
SOLID
  5
2E37
330
1E
100
AcDbEntity
  8
SC
100
AcDbTrace
 10
233.0563333333334
 20
161.3755704140263
 30
0.0
 11
234.3896666666667
 21
161.3755704140263
 31
0.0
 12
233.723
 22
165.3755704140263
 32
0.0
 13
233.723
 23
165.3755704140263
 33
0.0
  0
SOLID
  5
2E38
330
1E
100
AcDbEntity
  8
SC
100
AcDbTrace
 10
233.0563333333334
 20
127.469447796743
 30
0.0
 11
234.3896666666667
 21
127.469447796743
 31
0.0
 12
233.723
 22
123.469447796743
 32
0.0
 13
233.723
 23
123.469447796743
 33
0.0
  0
LINE
  5
2E3A
330
1E
100
AcDbEntity
  8
SC
100
AcDbLine
 10
222.6575482465694
 20
165.4380704140263
 30
0.0
 11
222.6575482465694
 21
185.524
 31
0.0
  0
LINE
  5
2E3B
330
1E
100
AcDbEntity
  8
SC
100
AcDbLine
 10
177.0085875623572
 20
182.524
 30
0.0
 11
219.7434124376428
 21
182.524
 31
0.0
  0
MTEXT
  5
2E3C
330
1E
100
AcDbEntity
  8
SC
100
AcDbMText
 10
197.2901358089266
 20
187.933
 30
0.0
 40
5.0
 41
0.0
 71
     5
 72
     1
  1
\A1;D
  7
0
 73
     1
 44
1.0
1001
ACAD
1000
MTEXTBEGIN
1070
    73
1070
     1
1070
    44
1040
1.0
1070
    74
1070
     0
1000
MTEXTEND
  0
SOLID
  5
2E3D
330
1E
100
AcDbEntity
  8
SC
100
AcDbTrace
 10
179.2970267923964
 20
183.1906666666666
 30
0.0
 11
179.2970267923964
 21
181.8573333333333
 31
0.0
 12
175.2970267923964
 22
182.524
 32
0.0
 13
175.2970267923964
 23
182.524
 33
0.0
  0
SOLID
  5
2E3E
330
1E
100
AcDbEntity
  8
SC
100
AcDbTrace
 10
218.6575482465694
 20
183.1906666666666
 30
0.0
 11
218.6575482465694
 21
181.8573333333333
 31
0.0
 12
222.6575482465694
 22
182.524
 32
0.0
 13
222.6575482465694
 23
182.524
 33
0.0
  0
LINE
  5
2F78
330
1E
100
AcDbEntity
  8
SC
100
AcDbLine
 10
36.80557583978017
 20
45.54337334759922
 30
0.0
 11
25.02880513752281
 21
45.54337334759922
 31
0.0
  0
LINE
  5
2F79
330
1E
100
AcDbEntity
  8
SC
100
AcDbLine
 10
36.78966066700508
 20
39.36635399802108
 30
0.0
 11
25.02880513752279
 21
39.36635399802108
 31
0.0
  0
LINE
  5
2F7A
330
1E
100
AcDbEntity
  8
SC
100
AcDbLine
 10
27.02880513752279
 20
49.3798528483147
 30
0.0
 11
27.02880513752279
 21
59.70789219689345
 31
0.0
  0
LINE
  5
2F7B
330
1E
100
AcDbEntity
  8
SC
100
AcDbLine
 10
27.02880513752279
 20
35.52987449730559
 30
0.0
 11
27.02880513752279
 21
31.52987449730559
 31
0.0
  0
MTEXT
  5
2F7C
330
1E
100
AcDbEntity
  8
SC
100
AcDbMText
 10
23.65664119133357
 20
54.86818268171349
 30
0.0
 40
5.0
 41
0.0
 71
     5
 72
     1
  1
\A1;C
  7
0
 11
0.0000000000000001
 21
1.0
 31
0.0
 73
     1
 44
1.0
1001
ACAD
1000
MTEXTBEGIN
1070
    73
1070
     1
1070
    44
1040
1.0
1070
    74
1070
     0
1000
MTEXTEND
  0
SOLID
  5
2F7D
330
1E
100
AcDbEntity
  8
SC
100
AcDbTrace
 10
26.36213847085615
 20
49.54337334759922
 30
0.0
 11
27.69547180418948
 21
49.54337334759922
 31
0.0
 12
27.02880513752281
 22
45.54337334759922
 32
0.0
 13
27.02880513752281
 23
45.54337334759922
 33
0.0
  0
SOLID
  5
2F7E
330
1E
100
AcDbEntity
  8
SC
100
AcDbTrace
 10
26.36213847085612
 20
35.36635399802108
 30
0.0
 11
27.69547180418946
 21
35.36635399802108
 31
0.0
 12
27.02880513752279
 22
39.36635399802108
 32
0.0
 13
27.02880513752279
 23
39.36635399802108
 33
0.0
  0
LINE
  5
2FC9
330
1E
100
AcDbEntity
  8
SC
370
    40
100
AcDbLine
 10
214.3629999999999
 20
261.7036250175646
 30
0.0
 11
396.224
 21
261.7036250175646
 31
0.0
  0
TEXT
  5
2FCA
330
1E
100
AcDbEntity
  8
MO
370
    40
100
AcDbText
 10
213.963
 20
265.1366250175645
 30
0.0
 40
9.0
  1
端子引出型リングプレートヒーターA
  7
0
100
AcDbText
  0
LINE
  5
2FCC
330
1E
100
AcDbEntity
  8
0
100
AcDbLine
 10
288.2833669779243
 20
80.18562501756457
 30
0.0
 11
399.5881625155811
 21
80.18562501756457
 31
0.0
  0
LINE
  5
2FCD
330
1E
100
AcDbEntity
  8
0
100
AcDbLine
 10
288.2833669779243
 20
70.18562501756457
 30
0.0
 11
399.5881625155811
 21
70.18562501756457
 31
0.0
  0
TEXT
  5
2FCE
330
1E
100
AcDbEntity
  8
MO
100
AcDbText
 10
288.5945940855044
 20
81.26366167389463
 30
0.0
 40
3.5
  1
その他詳細：
  7
0
 72
     1
 11
300.1445940855044
 21
81.26366167389463
 31
0.0
100
AcDbText
  0
LINE
  5
2FCF
330
1E
100
AcDbEntity
  8
0
100
AcDbLine
 10
288.2833669779243
 20
60.18562501756459
 30
0.0
 11
399.5881625155811
 21
60.18562501756457
 31
0.0
  0
LINE
  5
2FD0
330
1E
100
AcDbEntity
  8
0
100
AcDbLine
 10
288.2833669779243
 20
50.18562501756459
 30
0.0
 11
399.5881625155811
 21
50.18562501756457
 31
0.0
  0
LINE
  5
2FD1
330
1E
100
AcDbEntity
  8
0
100
AcDbLine
 10
288.6241297437617
 20
173.8488289688895
 30
0.0
 11
288.6241297437618
 21
243.8488289688891
 31
0.0
  0
LINE
  5
2FD2
330
1E
100
AcDbEntity
  8
0
100
AcDbLine
 10
288.6241297437618
 20
213.8488289688895
 30
0.0
 11
358.6241297437618
 21
213.8488289688895
 31
0.0
  0
LINE
  5
2FD3
330
1E
100
AcDbEntity
  8
0
100
AcDbLine
 10
288.6241297437618
 20
203.8488289688895
 30
0.0
 11
358.6280910180071
 21
203.8488289688895
 31
0.0
  0
LINE
  5
2FD4
330
1E
100
AcDbEntity
  8
0
100
AcDbLine
 10
298.6241297437618
 20
193.8488289688894
 30
0.0
 11
358.6241297437618
 21
193.8488289688894
 31
0.0
  0
TEXT
  5
2FD5
330
1E
100
AcDbEntity
  8
MO
100
AcDbText
 10
292.8041303265892
 20
237.0238287937346
 30
0.0
 40
3.499999999999998
  1
A
  7
0
100
AcDbText
  0
TEXT
  5
2FD6
330
1E
100
AcDbEntity
  8
MO
100
AcDbText
 10
292.4042585394638
 20
226.8991903159411
 30
0.0
 40
3.499999999999998
  1
B
  7
0
100
AcDbText
  0
TEXT
  5
2FD7
330
1E
100
AcDbEntity
  8
MO
100
AcDbText
 10
304.5963646053124
 20
236.2227655421735
 30
0.0
 40
4.375
  1
外径
  7
0
 72
     1
 11
309.2630312719791
 21
236.2227655421735
 31
0.0
100
AcDbText
  0
TEXT
  5
2FD8
330
1E
100
AcDbEntity
  8
MO
100
AcDbText
 10
303.850404011388
 20
226.7620786626958
 30
0.0
 40
4.375
  1
内径
  7
0
 72
     1
 11
308.662904011388
 21
226.7620786626958
 31
0.0
100
AcDbText
  0
TEXT
  5
2FD9
330
1E
100
AcDbEntity
  8
MO
100
AcDbText
 10
292.4772585394639
 20
216.8171903159411
 30
0.0
 40
3.499999999999998
  1
C
  7
0
100
AcDbText
  0
TEXT
  5
2FDA
330
1E
100
AcDbEntity
  8
MO
100
AcDbText
 10
303.6135987351647
 20
186.5393087632779
 30
0.0
 40
4.375
  1
材質
  7
0
 72
     1
 11
308.2802654018314
 21
186.5393087632779
 31
0.0
100
AcDbText
  0
TEXT
  5
2FDB
330
1E
100
AcDbEntity
  8
MO
100
AcDbText
 10
292.4772585394639
 20
206.8171903159411
 30
0.0
 40
3.499999999999998
  1
D
  7
0
100
AcDbText
  0
LINE
  5
2FDC
330
1E
100
AcDbEntity
  8
0
100
AcDbLine
 10
288.6241297437618
 20
193.8488289688894
 30
0.0
 11
358.6241297437618
 21
193.8488289688895
 31
0.0
  0
LINE
  5
2FDD
330
1E
100
AcDbEntity
  8
0
100
AcDbLine
 10
358.6241297437616
 20
243.8488289688893
 30
0.0
 11
358.6241297437618
 21
173.8488289688895
 31
0.0
  0
LINE
  5
2FDE
330
1E
100
AcDbEntity
  8
0
100
AcDbLine
 10
288.6241297437618
 20
193.8488289688894
 30
0.0
 11
358.6241297437618
 21
193.8488289688894
 31
0.0
  0
LINE
  5
2FDF
330
1E
100
AcDbEntity
  8
0
100
AcDbLine
 10
288.6241297437618
 20
193.8488289688895
 30
0.0
 11
358.6241297437618
 21
193.8488289688894
 31
0.0
  0
TEXT
  5
2FE0
330
1E
100
AcDbEntity
  8
MO
100
AcDbText
 10
293.9293102469724
 20
141.806015675134
 30
0.0
 40
4.375
  1
容量
  7
0
 72
     1
 11
298.595976913639
 21
141.806015675134
 31
0.0
100
AcDbText
  0
TEXT
  5
2FE1
330
1E
100
AcDbEntity
  8
MO
100
AcDbText
 10
293.8034717623188
 20
151.7319302504152
 30
0.0
 40
4.375
  1
電圧
  7
0
 72
     1
 11
298.4701384289855
 21
151.7319302504152
 31
0.0
100
AcDbText
  0
LINE
  5
2FE2
330
1E
100
AcDbEntity
  8
0
100
AcDbLine
 10
298.6241297437615
 20
243.8488289688892
 30
0.0
 11
298.6241297437617
 21
173.8488289688895
 31
0.0
  0
TEXT
  5
2FE3
330
1E
100
AcDbEntity
  8
MO
100
AcDbText
 10
350.4669996126781
 20
236.3408289016956
 30
0.0
 40
4.375
  1
\U+03C6
  7
0
 72
     1
 11
352.6544996126781
 21
236.3408289016956
 31
0.0
100
AcDbText
  0
TEXT
  5
2FE4
330
1E
100
AcDbEntity
  8
MO
100
AcDbText
 10
340.6051717024896
 20
151.0234041910984
 30
0.0
 40
4.375
  1
V
  7
0
 72
     1
 11
342.2718383691562
 21
151.0234041910984
 31
0.0
100
AcDbText
  0
TEXT
  5
2FE5
330
1E
100
AcDbEntity
  8
MO
100
AcDbText
 10
340.2142894121979
 20
142.5376823743858
 30
0.0
 40
3.0625
  1
W
  7
0
 72
     1
 11
341.6726227455312
 21
142.5376823743858
 31
0.0
100
AcDbText
  0
TEXT
  5
2FE6
330
1E
100
AcDbEntity
  8
MO
100
AcDbText
 10
323.8799804137964
 20
186.9520439654255
 30
0.0
 40
3.5
  1
SUS・ボンデ鋼
  7
0
 72
     1
 11
339.0799804137964
 21
186.9520439654255
 31
0.0
100
AcDbText
  0
TEXT
  5
2FE7
330
1E
100
AcDbEntity
  8
MO
100
AcDbText
 10
303.6135987351647
 20
176.5393087632779
 30
0.0
 40
4.375
  1
端子
  7
0
 72
     1
 11
308.2802654018314
 21
176.5393087632779
 31
0.0
100
AcDbText
  0
TEXT
  5
2FE8
330
1E
100
AcDbEntity
  8
MO
100
AcDbText
 10
325.9466470804631
 20
176.9520439654254
 30
0.0
 40
3.5
  1
M4　・　M5
  7
0
 72
     1
 11
339.0799804137964
 21
176.9520439654254
 31
0.0
100
AcDbText
  0
LINE
  5
2FE9
330
1E
100
AcDbEntity
  8
0
  6
HIDDEN
370
     5
100
AcDbLine
 10
288.6121033683
 20
128.927785861594
 30
0.0
 11
348.6068216693063
 21
128.9277858615939
 31
0.0
  0
LINE
  5
2FEA
330
1E
100
AcDbEntity
  8
0
100
AcDbLine
 10
288.6068216693063
 20
118.9277858615941
 30
0.0
 11
348.6068216693063
 21
118.9277858615941
 31
0.0
  0
LINE
  5
2FEB
330
1E
100
AcDbEntity
  8
0
100
AcDbLine
 10
288.6226834661374
 20
158.9594041910983
 30
0.0
 11
288.6015399703126
 21
108.927785861594
 31
0.0
  0
TEXT
  5
2FED
330
1E
100
AcDbEntity
  8
MO
100
AcDbText
 10
291.1784717623188
 20
131.7319302504152
 30
0.0
 40
4.375
  1
穴加工
  7
0
 72
     1
 11
298.4701384289855
 21
131.7319302504152
 31
0.0
100
AcDbText
  0
TEXT
  5
2FEE
330
1E
100
AcDbEntity
  8
MO
100
AcDbText
 10
316.1365201076171
 20
131.7319302504152
 30
0.0
 40
4.375
  1
有　・　無
  7
0
 72
     1
 11
328.6781867742838
 21
131.7319302504152
 31
0.0
100
AcDbText
  0
LINE
  5
2FEF
330
1E
100
AcDbEntity
  8
SA
100
AcDbLine
 10
288.6226667662876
 20
138.9277858615941
 30
0.0
 11
348.6068216693063
 21
138.9277858615937
 31
0.0
  0
TEXT
  5
2FF0
330
1E
100
AcDbEntity
  8
MO
100
AcDbText
 10
293.6952344389601
 20
111.8896113631975
 30
0.0
 40
4.375
  1
数量
  7
0
 72
     1
 11
298.3619011056268
 21
111.8896113631975
 31
0.0
100
AcDbText
  0
TEXT
  5
2FF1
330
1E
100
AcDbEntity
  8
MO
100
AcDbText
 10
337.5686466646291
 20
110.8552320297185
 30
0.0
 40
4.375
  1
set
  7
0
 72
     1
 11
342.0478133312958
 21
110.8552320297185
 31
0.0
100
AcDbText
  0
LINE
  5
2FF2
330
1E
100
AcDbEntity
  8
0
100
AcDbLine
 10
288.6068216693063
 20
118.9277858615941
 30
0.0
 11
348.6107829435515
 21
118.927785861594
 31
0.0
  0
LINE
  5
2FF3
330
1E
100
AcDbEntity
  8
0
100
AcDbLine
 10
288.6226667662874
 20
108.927785861594
 30
0.0
 11
348.486620319792
 21
108.927785861594
 31
0.0
  0
LINE
  5
2FF4
330
1E
100
AcDbEntity
  8
0
100
AcDbLine
 10
288.6241297437618
 20
223.8488289688897
 30
0.0
 11
358.6360135664979
 21
223.8488289688894
 31
0.0
  0
LINE
  5
2FF5
330
1E
100
AcDbEntity
  8
0
100
AcDbLine
 10
318.6241297437618
 20
243.8488289688892
 30
0.0
 11
318.6241297437617
 21
173.8488289688895
 31
0.0
  0
LINE
  5
2FF6
330
1E
100
AcDbEntity
  8
0
100
AcDbLine
 10
308.5130399659285
 20
158.9488987035073
 30
0.0
 11
308.4866203197921
 21
108.927785861594
 31
0.0
  0
LINE
  5
2FF8
330
1E
100
AcDbEntity
  8
0
100
AcDbLine
 10
298.6241297437618
 20
233.8488289688895
 30
0.0
 11
358.6241297437618
 21
233.8488289688896
 31
0.0
  0
LINE
  5
2FF9
330
1E
100
AcDbEntity
  8
0
100
AcDbLine
 10
288.6241297437618
 20
233.8488289688894
 30
0.0
 11
358.6241297437618
 21
233.8488289688895
 31
0.0
  0
LINE
  5
2FFA
330
1E
100
AcDbEntity
  8
0
100
AcDbLine
 10
288.6241297437618
 20
233.8488289688894
 30
0.0
 11
358.6241297437618
 21
233.8488289688896
 31
0.0
  0
LINE
  5
2FFB
330
1E
100
AcDbEntity
  8
0
100
AcDbLine
 10
288.6241297437618
 20
233.8488289688894
 30
0.0
 11
358.6241297437618
 21
233.8488289688896
 31
0.0
  0
TEXT
  5
2FFC
330
1E
100
AcDbEntity
  8
MO
100
AcDbText
 10
288.3207969219987
 20
251.7036250175646
 30
0.0
 40
4.550000000000001
  1
※　下記空欄に記入し、FAXしてください
  7
0
100
AcDbText
  0
TEXT
  5
2FFE
330
1E
100
AcDbEntity
  8
MO
100
AcDbText
 10
290.5534717623189
 20
121.7319301119182
 30
0.0
 40
4.375
  1
P.C.D
  7
0
 72
     1
 11
298.4701384289855
 21
121.7319301119182
 31
0.0
100
AcDbText
  0
TEXT
  5
2FFF
330
1E
100
AcDbEntity
  8
MO
100
AcDbText
 10
340.2142894121979
 20
121.8862163351232
 30
0.0
 40
4.375
  1
\U+03C6
  7
0
 72
     1
 11
342.4017894121978
 21
121.8862163351232
 31
0.0
100
AcDbText
  0
TEXT
  5
3000
330
1E
100
AcDbEntity
  8
MO
100
AcDbText
 10
350.4669996126779
 20
227.8048635263623
 30
0.0
 40
4.375
  1
\U+03C6
  7
0
 72
     1
 11
352.654499612678
 21
227.8048635263623
 31
0.0
100
AcDbText
  0
LINE
  5
3001
330
1E
100
AcDbEntity
  8
0
100
AcDbLine
 10
288.6241297437618
 20
183.8488289688894
 30
0.0
 11
358.6280910180071
 21
183.8488289688894
 31
0.0
  0
LINE
  5
3002
330
1E
100
AcDbEntity
  8
0
100
AcDbLine
 10
288.6241297437618
 20
173.8488289688895
 30
0.0
 11
358.6241297437618
 21
173.8488289688895
 31
0.0
  0
LINE
  5
3003
330
1E
100
AcDbEntity
  8
0
100
AcDbLine
 10
288.6241297437618
 20
173.8488289688895
 30
0.0
 11
358.6241297437618
 21
173.8488289688895
 31
0.0
  0
LINE
  5
3004
330
1E
100
AcDbEntity
  8
0
100
AcDbLine
 10
288.6241297437618
 20
173.8488289688895
 30
0.0
 11
358.6241297437618
 21
173.8488289688895
 31
0.0
  0
LINE
  5
3005
330
1E
100
AcDbEntity
  8
0
100
AcDbLine
 10
288.6241297437618
 20
243.8488289688891
 30
0.0
 11
358.6241297437618
 21
243.8488289688893
 31
0.0
  0
TEXT
  5
3006
330
1E
100
AcDbEntity
  8
MO
100
AcDbText
 10
348.7327493822827
 20
196.6366246795401
 30
0.0
 40
3.0
  1
mm
  7
0
 72
     1
 11
352.4470350965684
 21
196.6366246795401
 31
0.0
100
AcDbText
  0
TEXT
  5
3007
330
1E
100
AcDbEntity
  8
MO
100
AcDbText
 10
292.4042585394638
 20
196.899190315941
 30
0.0
 40
3.499999999999998
  1
E
  7
0
100
AcDbText
  0
TEXT
  5
3008
330
1E
100
AcDbEntity
  8
MO
100
AcDbText
 10
301.3712373447213
 20
196.7620786626956
 30
0.0
 40
4.375
  1
引出巾
  7
0
 72
     1
 11
308.662904011388
 21
196.7620786626956
 31
0.0
100
AcDbText
  0
TEXT
  5
3009
330
1E
100
AcDbEntity
  8
MO
100
AcDbText
 10
348.7327493822827
 20
206.63662467954
 30
0.0
 40
3.0
  1
mm
  7
0
 72
     1
 11
352.4470350965684
 21
206.63662467954
 31
0.0
100
AcDbText
  0
TEXT
  5
300A
330
1E
100
AcDbEntity
  8
MO
100
AcDbText
 10
301.225404011388
 20
206.7620786626956
 30
0.0
 40
4.375
  1
引出長
  7
0
 72
     1
 11
308.662904011388
 21
206.7620786626956
 31
0.0
100
AcDbText
  0
TEXT
  5
300B
330
1E
100
AcDbEntity
  8
MO
100
AcDbText
 10
348.7327493822826
 20
216.6366246795401
 30
0.0
 40
3.0
  1
mm
  7
0
 72
     1
 11
352.4470350965683
 21
216.6366246795401
 31
0.0
100
AcDbText
  0
TEXT
  5
300C
330
1E
100
AcDbEntity
  8
MO
100
AcDbText
 10
304.1420706780546
 20
216.7620786626956
 30
0.0
 40
4.375
  1
厚み
  7
0
 72
     1
 11
308.6629040113879
 21
216.7620786626956
 31
0.0
100
AcDbText
  0
TEXT
  5
3052
330
1E
100
AcDbEntity
  8
SC
100
AcDbText
 10
158.5678806289218
 20
92.48870288182006
 30
0.0
 40
5.0
  1
P.C.D(穴有時)
 50
313.910410167287
  7
0
 72
     1
 11
173.3962710102153
 21
77.08532781605882
 31
0.0
100
AcDbText
  0
TEXT
  5
305A
330
1E
100
AcDbEntity
  8
SC
100
AcDbText
 10
222.2705574396891
 20
62.5727655780077
 30
0.0
 40
5.0
  1
(20)
 50
90.0
  7
0
 72
     1
 11
222.2705574396891
 21
69.83467033991246
 31
0.0
100
AcDbText
  0
MTEXT
  5
312C
330
1E
100
AcDbEntity
  8
SC
100
AcDbMText
 10
288.5945767426465
 20
105.7856330069344
 30
0.0
 40
5.0
 41
0.0
 71
     1
 72
     5
  1
加工穴・穴角度、その他変更部が\Pありましたら図面に書き込んで御利用下さい
  7
0
 73
     1
 44
1.0
1001
ACAD
1000
MTEXTBEGIN
1070
    73
1070
     1
1070
    44
1040
1.0
1070
    74
1070
     0
1000
MTEXTEND
  0
LINE
  5
3191
330
1E
100
AcDbEntity
  8
HO
 48
0.6
100
AcDbLine
 10
134.3588842113778
 20
51.35677880485483
 30
0.0
 11
134.3588842113777
 21
33.18771853152268
 31
0.0
  0
LINE
  5
3192
330
1E
100
AcDbEntity
  8
HO
 48
0.6
100
AcDbLine
 10
106.031916628599
 20
55.95421548430094
 30
0.0
 11
106.0241781755565
 21
28.95551186131935
 31
0.0
  0
LINE
  5
3193
330
1E
100
AcDbEntity
  8
HO
 48
0.6
100
AcDbLine
 10
77.47422553596554
 20
51.33549553402388
 30
0.0
 11
77.47422553596549
 21
33.16643526069173
 31
0.0
  0
LINE
  5
31A9
330
1E
100
AcDbEntity
  8
SA
100
AcDbLine
 10
36.86807583978015
 20
45.54337334759922
 30
0.0
 11
217.1853414001631
 21
45.54337334759922
 31
0.0
  0
LINE
  5
31AA
330
1E
100
AcDbEntity
  8
SA
100
AcDbLine
 10
36.86807583978015
 20
39.36635399802108
 30
0.0
 11
217.1853414001631
 21
39.36635399802108
 31
0.0
  0
LINE
  5
31AB
330
1E
100
AcDbEntity
  8
SA
100
AcDbLine
 10
222.6575482465697
 20
123.4694477967431
 30
0.0
 11
172.058650023839
 21
123.4694477967431
 31
0.0
  0
LINE
  5
31C7
330
1E
100
AcDbEntity
  8
SA
100
AcDbLine
 10
36.86807583978015
 20
45.54337334759922
 30
0.0
 11
36.86807583978012
 21
39.36635399802107
 31
0.0
  0
LINE
  5
31DD
330
1E
100
AcDbEntity
  8
SC
100
AcDbLine
 10
175.2383884490994
 20
144.2034722080872
 30
0.0
 11
175.2383884490993
 21
185.524
 31
0.0
  0
LINE
  5
3226
330
1E
100
AcDbEntity
  8
SA
100
AcDbLine
 10
215.0984635199046
 20
158.8156609742213
 30
0.0
 11
173.6796607211329
 21
158.8156609742213
 31
0.0
  0
LINE
  5
3227
330
1E
100
AcDbEntity
  8
SA
100
AcDbLine
 10
222.6575482465694
 20
165.4380704140263
 30
0.0
 11
171.9026178044241
 21
165.4380704140263
 31
0.0
  0
LINE
  5
3228
330
1E
100
AcDbEntity
  8
SA
100
AcDbLine
 10
215.0984635199046
 20
130.0969412206312
 30
0.0
 11
173.7847483400741
 21
130.0969412206312
 31
0.0
  0
LINE
  5
3276
330
1E
100
AcDbEntity
  8
SA
100
AcDbLine
 10
288.6226834661374
 20
148.9594041910983
 30
0.0
 11
348.486620319792
 21
148.9594041910983
 31
0.0
  0
LINE
  5
3277
330
1E
100
AcDbEntity
  8
SA
100
AcDbLine
 10
348.486620319792
 20
158.927785861594
 30
0.0
 11
348.4866203197921
 21
108.927785861594
 31
0.0
  0
LINE
  5
3278
330
1E
100
AcDbEntity
  8
SA
100
AcDbLine
 10
288.6279651636578
 20
158.9594014014647
 30
0.0
 11
348.486620319792
 21
158.9594014014647
 31
0.0
  0
LINE
  5
3279
330
1E
100
AcDbEntity
  8
SA
100
AcDbLine
 10
288.6226834661373
 20
138.9277858615941
 30
0.0
 11
348.486620319792
 21
138.9277858615941
 31
0.0
  0
ENDSEC
  0
SECTION
  2
OBJECTS
  0
DICTIONARY
  5
C
330
0
100
AcDbDictionary
281
     1
  3
ACAD_ASSOCNETWORK
350
2590
  3
ACAD_CIP_PREVIOUS_PRODUCT_INFO
350
2022
  3
ACAD_COLOR
350
1793
  3
ACAD_DETAILVIEWSTYLE
350
201F
  3
ACAD_GROUP
350
D
  3
ACAD_LAYOUT
350
19
  3
ACAD_MATERIAL
350
1792
  3
ACAD_MLEADERSTYLE
350
201B
  3
ACAD_MLINESTYLE
350
16
  3
ACAD_PLOTSETTINGS
350
18
  3
ACAD_PLOTSTYLENAME
350
E
  3
ACAD_SCALELIST
350
2009
  3
ACAD_SECTIONVIEWSTYLE
350
201D
  3
ACAD_TABLESTYLE
350
17A5
  3
ACAD_VISUALSTYLE
350
1FF0
  3
ACDB_RECOMPOSE_DATA
350
32B1
  3
AcDbVariableDictionary
350
17B5
  3
AcDsDecomposeData
350
32B8
  3
DWGPROPS
350
32B2
  0
DICTIONARY
  5
2081
330
2
100
AcDbDictionary
280
     1
281
     1
  3
ACAD_LAYERSTATES
360
2082
  0
DICTIONARY
  5
2058
330
10
100
AcDbDictionary
280
     1
281
     1
  3
ADSK_XREC_LAYER_RECONCILED
360
2059
  0
DICTIONARY
  5
205A
330
28
100
AcDbDictionary
280
     1
281
     1
  3
ADSK_XREC_LAYER_RECONCILED
360
205B
  0
DICTIONARY
  5
205C
330
29
100
AcDbDictionary
280
     1
281
     1
  3
ADSK_XREC_LAYER_RECONCILED
360
205D
  0
DICTIONARY
  5
205E
330
2A
100
AcDbDictionary
280
     1
281
     1
  3
ADSK_XREC_LAYER_RECONCILED
360
205F
  0
DICTIONARY
  5
2060
330
2B
100
AcDbDictionary
280
     1
281
     1
  3
ADSK_XREC_LAYER_RECONCILED
360
2061
  0
DICTIONARY
  5
2062
330
2C
100
AcDbDictionary
280
     1
281
     1
  3
ADSK_XREC_LAYER_RECONCILED
360
2063
  0
DICTIONARY
  5
2064
330
2D
100
AcDbDictionary
280
     1
281
     1
  3
ADSK_XREC_LAYER_RECONCILED
360
2065
  0
DICTIONARY
  5
2066
330
1397
100
AcDbDictionary
280
     1
281
     1
  3
ADSK_XREC_LAYER_RECONCILED
360
2067
  0
DICTIONARY
  5
26BD
330
1E
100
AcDbDictionary
280
     1
281
     1
  3
ACAD_ASSOCNETWORK
360
26BE
  3
ACAD_SORTENTS
360
2A57
  0
DICTIONARY
  5
32F6
330
269A
100
AcDbDictionary
280
     1
281
     1
  3
AcDbBlockTableRecordData
360
32F7
  0
DICTIONARY
  5
2D8C
330
2D89
100
AcDbDictionary
280
     1
281
     1
  3
ACAD_SORTENTS
360
2D8D
  0
DICTIONARY
  5
3096
330
3065
100
AcDbDictionary
280
     1
281
     1
  3
ACAD_SORTENTS
360
3097
  0
DICTIONARY
  5
2590
102
{ACAD_REACTORS
330
C
102
}
330
C
100
AcDbDictionary
281
     1
  3
ACAD_ASSOCNETWORK
350
2591
  0
XRECORD
  5
2022
102
{ACAD_REACTORS
330
C
102
}
330
C
100
AcDbXrecord
280
     1
300
ACDLT
300
2014
300
ACDLT_F_S
  0
DICTIONARY
  5
1793
102
{ACAD_REACTORS
330
C
102
}
330
C
100
AcDbDictionary
281
     1
  0
DICTIONARY
  5
201F
102
{ACAD_REACTORS
330
C
102
}
330
C
100
AcDbDictionary
281
     1
  3
Imperial24
350
2020
  0
DICTIONARY
  5
D
102
{ACAD_REACTORS
330
C
102
}
330
C
100
AcDbDictionary
281
     1
  0
DICTIONARY
  5
19
102
{ACAD_REACTORS
330
C
102
}
330
C
100
AcDbDictionary
281
     1
  3
Model
350
21
  3
ﾚｲｱｳﾄ1
350
1D
  0
DICTIONARY
  5
1792
102
{ACAD_REACTORS
330
C
102
}
330
C
100
AcDbDictionary
281
     1
  3
ByBlock
350
1FE0
  3
ByLayer
350
1FD8
  3
Global
350
1FE8
  0
DICTIONARY
  5
201B
102
{ACAD_REACTORS
330
C
102
}
330
C
100
AcDbDictionary
281
     1
  3
Standard
350
201C
  0
DICTIONARY
  5
16
102
{ACAD_REACTORS
330
C
102
}
330
C
100
AcDbDictionary
281
     1
  3
Standard
350
17
  0
DICTIONARY
  5
18
102
{ACAD_REACTORS
330
C
102
}
330
C
100
AcDbDictionary
281
     1
  0
ACDBDICTIONARYWDFLT
  5
E
102
{ACAD_REACTORS
330
C
102
}
330
C
100
AcDbDictionary
281
     1
  3
Normal
350
F
100
AcDbDictionaryWithDefault
340
F
  0
DICTIONARY
  5
2009
102
{ACAD_REACTORS
330
C
102
}
330
C
100
AcDbDictionary
281
     1
  3
A0
350
200A
  3
A1
350
200B
  3
A2
350
200C
  3
A3
350
200D
  3
A4
350
200E
  3
A5
350
200F
  3
A6
350
2010
  3
A7
350
2011
  3
A8
350
2012
  3
A9
350
2013
  3
B0
350
2014
  3
B1
350
2015
  3
B2
350
2016
  3
B3
350
2017
  3
B4
350
2018
  3
B5
350
2019
  3
B6
350
201A
  0
DICTIONARY
  5
201D
102
{ACAD_REACTORS
330
C
102
}
330
C
100
AcDbDictionary
281
     1
  3
Imperial24
350
201E
  0
DICTIONARY
  5
17A5
102
{ACAD_REACTORS
330
C
102
}
330
C
100
AcDbDictionary
281
     1
  3
Standard
350
17A6
  0
DICTIONARY
  5
1FF0
102
{ACAD_REACTORS
330
C
102
}
330
C
100
AcDbDictionary
281
     1
  3
2dWireframe
350
1FF6
  3
Basic
350
1FF5
  3
Brighten
350
1FFC
  3
ColorChange
350
2000
  3
Conceptual
350
1FF9
  3
Dim
350
1FFB
  3
EdgeColorOff
350
2008
  3
Facepattern
350
1FFF
  3
Flat
350
1FF1
  3
FlatWithEdges
350
1FF2
  3
Gouraud
350
1FF3
  3
GouraudWithEdges
350
1FF4
  3
Hidden
350
1FF8
  3
JitterOff
350
2006
  3
Linepattern
350
1FFE
  3
OverhangOff
350
2007
  3
Realistic
350
1FFA
  3
Shaded
350
2005
  3
Shaded with edges
350
2004
  3
Shades of Gray
350
2001
  3
Sketchy
350
2002
  3
Thicken
350
1FFD
  3
Wireframe
350
1FF7
  3
X-Ray
350
2003
  0
XRECORD
  5
32B1
102
{ACAD_REACTORS
330
C
102
}
330
C
100
AcDbXrecord
280
     1
 90
        1
330
17A6
330
2D8B
  0
DICTIONARY
  5
17B5
102
{ACAD_REACTORS
330
C
102
}
330
C
100
AcDbDictionary
281
     1
  3
CANNOSCALE
350
2090
  3
CMLEADERSTYLE
350
208C
  3
CTABLESTYLE
350
17B6
  3
CVIEWDETAILSTYLE
350
208D
  3
CVIEWSECTIONSTYLE
350
208E
  3
DIMASSOC
350
1C49
  3
INDEXCTL
350
32AC
  3
LAYEREVAL
350
2092
  3
LAYERNOTIFY
350
2093
  3
LIGHTINGUNITS
350
2091
  3
MSLTSCALE
350
208F
  3
PROJECTNAME
350
1C4A
  3
SORTENTS
350
32AB
  3
XCLIPFRAME
350
32AD
  0
DICTIONARY
  5
32B8
102
{ACAD_REACTORS
330
C
102
}
330
C
100
AcDbDictionary
281
     1
  3
AcDsRecords
350
32BA
  3
AcDsSchemas
350
32B9
1001
ACAD
1070
     2
  0
XRECORD
  5
32B2
102
{ACAD_REACTORS
330
C
102
}
330
C
100
AcDbXrecord
280
     1
  1
DWGPROPS COOKIE
  2

  3

  4

  6

  7

  8
user
  9

300
=
301
=
302
=
303
=
304
=
305
=
306
=
307
=
308
=
309
=
 40
2.122513356481481
 41
2450808.702418171
 42
2458717.773402199
  1

 90
        0
  0
DICTIONARY
  5
2082
102
{ACAD_REACTORS
330
2081
102
}
330
2081
100
AcDbDictionary
281
     1
  0
XRECORD
  5
2059
102
{ACAD_REACTORS
330
2058
102
}
330
2058
100
AcDbXrecord
280
     1
290
     1
  0
XRECORD
  5
205B
102
{ACAD_REACTORS
330
205A
102
}
330
205A
100
AcDbXrecord
280
     1
290
     1
  0
XRECORD
  5
205D
102
{ACAD_REACTORS
330
205C
102
}
330
205C
100
AcDbXrecord
280
     1
290
     1
  0
XRECORD
  5
205F
102
{ACAD_REACTORS
330
205E
102
}
330
205E
100
AcDbXrecord
280
     1
290
     1
  0
XRECORD
  5
2061
102
{ACAD_REACTORS
330
2060
102
}
330
2060
100
AcDbXrecord
280
     1
290
     1
  0
XRECORD
  5
2063
102
{ACAD_REACTORS
330
2062
102
}
330
2062
100
AcDbXrecord
280
     1
290
     1
  0
XRECORD
  5
2065
102
{ACAD_REACTORS
330
2064
102
}
330
2064
100
AcDbXrecord
280
     1
290
     1
  0
XRECORD
  5
2067
102
{ACAD_REACTORS
330
2066
102
}
330
2066
100
AcDbXrecord
280
     1
290
     1
  0
DICTIONARY
  5
26BE
102
{ACAD_REACTORS
330
26BD
102
}
330
26BD
100
AcDbDictionary
281
     1
  3
ACAD_ASSOCNETWORK
350
26BF
  0
SORTENTSTABLE
  5
2A57
102
{ACAD_REACTORS
330
26BD
102
}
330
26BD
100
AcDbSortentsTable
330
1E
331
61
  5
61
331
1926
  5
1926
331
261D
  5
261D
331
13A0
  5
13A0
331
2619
  5
2619
331
25DE
  5
25DE
331
2654
  5
2654
331
2615
  5
2615
331
2FE7
  5
2FE8
331
25DA
  5
25DA
331
2650
  5
2650
331
2611
  5
2611
331
2E0C
  5
2B24
331
2B9D
  5
2C05
331
2FE3
  5
2FE4
331
2FDF
  5
2FE0
331
2FDB
  5
2FDC
331
305A
  5
312C
331
3228
  5
3228
331
139C
  5
139C
331
25D6
  5
25D6
331
25D2
  5
25D2
331
264C
  5
264C
331
260D
  5
260D
331
25CE
  5
25CE
331
2609
  5
2609
331
2782
  5
2B22
331
2648
  5
2648
331
2644
  5
2644
331
2605
  5
2605
331
2B39
  5
2B9E
331
2FD7
  5
2FD8
331
25CA
  5
25CA
331
2640
  5
2640
331
2601
  5
2601
331
267B
  5
267C
331
2FD3
  5
2FD4
331
3052
  5
305A
331
2FCF
  5
2FD0
331
300A
  5
300B
331
3276
  5
3276
331
25C6
  5
25C6
331
AC
  5
AC
331
25C2
  5
25C2
331
263C
  5
263C
331
25FD
  5
25FD
331
2677
  5
2677
331
25F9
  5
25F9
331
2673
  5
2673
331
2638
  5
2638
331
25BA
  5
25BA
331
2634
  5
2634
331
25F5
  5
25F5
331
266F
  5
266F
331
3006
  5
3007
331
2630
  5
2630
331
25F1
  5
25F1
331
266B
  5
266B
331
2F7B
  5
2F7C
331
3002
  5
3003
331
2FFE
  5
2FFF
331
2E3B
  5
2D6F
331
2FFA
  5
2FFB
331
18EE
  5
18EE
331
262C
  5
262C
331
25ED
  5
25ED
331
2667
  5
2667
331
2628
  5
2628
331
25E9
  5
25E9
331
2663
  5
2663
331
25E5
  5
25E5
331
265F
  5
265F
331
2D70
  5
2E36
331
2E37
  5
2DA5
331
2FF6
  5
2FF7
331
2624
  5
2624
331
25E1
  5
25E1
331
265B
  5
265B
331
2E33
  5
2D97
331
2FF2
  5
2FF3
331
2620
  5
2620
331
2FEE
  5
2FEF
331
2FEA
  5
2FEB
331
312C
  5
3171
331
1925
  5
1925
331
261C
  5
261C
331
1892
  5
1892
331
25DD
  5
25DD
331
2618
  5
2618
331
2657
  5
2657
331
2653
  5
2653
331
2BA0
  5
2D44
331
2FE6
  5
2FE7
331
2E0F
  5
2E10
331
2614
  5
2614
331
25D9
  5
25D9
331
2E0B
  5
2B23
331
2B9C
  5
2BAD
331
2FE2
  5
2FE3
331
2610
  5
2610
331
2FDE
  5
2FDF
331
2FDA
  5
2FDB
331
139F
  5
139F
331
25D5
  5
25D5
331
264F
  5
264F
331
25D1
  5
25D1
331
264B
  5
264B
331
260C
  5
260C
331
25CD
  5
25CD
331
2608
  5
2608
331
2647
  5
2647
331
2643
  5
2643
331
2FD6
  5
2FD7
331
3227
  5
3227
331
2604
  5
2604
331
25C9
  5
25C9
331
2FD2
  5
2FD3
331
2600
  5
2600
331
2FCE
  5
2FCF
331
2FCA
  5
2FCC
331
3009
  5
300A
331
3279
  5
327A
331
263F
  5
263F
331
263B
  5
263B
331
2676
  5
2676
331
25FC
  5
25FC
331
2672
  5
2672
331
25F8
  5
25F8
331
2637
  5
2637
331
266E
  5
266E
331
2F7E
  5
2FC9
331
31C7
  5
31C7
331
3005
  5
3006
331
2633
  5
2633
331
266A
  5
266A
331
2F7A
  5
2F7B
331
3001
  5
3002
331
25F0
  5
25F0
331
2E3E
  5
2D72
331
2E3A
  5
2D6E
331
31AB
  5
31AB
331
2FF9
  5
2FFA
331
8B
  5
8B
331
18ED
  5
18ED
331
1492
  5
1492
331
262F
  5
262F
331
148E
  5
148E
331
262B
  5
262B
331
2666
  5
2666
331
25EC
  5
25EC
331
18BD
  5
18BD
331
2662
  5
2662
331
25E8
  5
25E8
331
2627
  5
2627
331
265E
  5
265E
331
2D6F
  5
2E35
331
2E36
  5
2DA4
331
2FF5
  5
2FF6
331
25E4
  5
25E4
331
2623
  5
2623
331
265A
  5
265A
331
2FF1
  5
2FF2
331
3193
  5
3193
331
25E0
  5
25E0
331
2FED
  5
2FEE
331
2FE9
  5
2FEA
331
63
  5
63
331
261F
  5
261F
331
1924
  5
1924
331
261B
  5
261B
331
2656
  5
2656
331
2617
  5
2617
331
25DC
  5
25DC
331
2652
  5
2652
331
2E0E
  5
2B25
331
2B9F
  5
2D3C
331
2FE5
  5
2FE6
331
2613
  5
2613
331
25D8
  5
25D8
331
2FE1
  5
2FE2
331
2FDD
  5
2FDE
331
2FD9
  5
2FDA
331
1918
  5
1918
331
25D4
  5
25D4
331
264E
  5
264E
331
260F
  5
260F
331
25D0
  5
25D0
331
264A
  5
264A
331
260B
  5
260B
331
25CC
  5
25CC
331
2B3B
  5
2BA2
331
2607
  5
2607
331
2646
  5
2646
331
2642
  5
2642
331
267D
  5
2689
331
2B37
  5
2B9D
331
2FD5
  5
2FD6
331
3226
  5
3226
331
2603
  5
2603
331
25C8
  5
25C8
331
2679
  5
2679
331
2FD1
  5
2FD2
331
2FCD
  5
2FCE
331
300C
  5
3052
331
2FC9
  5
2FCA
331
3008
  5
3009
331
3278
  5
3279
331
263E
  5
263E
331
25FF
  5
25FF
331
263A
  5
263A
331
2675
  5
2675
331
25FB
  5
25FB
331
18F0
  5
18F0
331
25BC
  5
25BC
331
2671
  5
2671
331
25F7
  5
25F7
331
2636
  5
2636
331
266D
  5
266D
331
2F7D
  5
2F7E
331
3004
  5
3005
331
2632
  5
2632
331
2F79
  5
2F7A
331
3000
  5
3001
331
2E3D
  5
2D71
331
2FFC
  5
2FFD
331
2FF8
  5
2FF9
331
31AA
  5
31AA
331
6E
  5
6E
331
1491
  5
1491
331
1943
  5
1943
331
262E
  5
262E
331
25EF
  5
25EF
331
262A
  5
262A
331
2665
  5
2665
331
25EB
  5
25EB
331
2661
  5
2661
331
25E7
  5
25E7
331
2626
  5
2626
331
265D
  5
265D
331
2E35
  5
2DA3
331
2FF4
  5
2FF5
331
25E3
  5
25E3
331
2622
  5
2622
331
2659
  5
2659
331
2D6A
  5
2E0E
331
2FF0
  5
2FF1
331
3192
  5
3192
331
2FE8
  5
2FE9
331
62
  5
62
331
18B4
  5
18B4
331
1927
  5
1927
331
261E
  5
261E
331
1923
  5
1923
331
261A
  5
261A
331
25DF
  5
25DF
331
2655
  5
2655
331
2BA2
  5
2D6C
331
2616
  5
2616
331
25DB
  5
25DB
331
2651
  5
2651
331
2E0D
  5
2E0D
331
2B9E
  5
2D29
331
2FE4
  5
2FE5
331
2612
  5
2612
331
2FE0
  5
2FE1
331
2FDC
  5
2FDD
331
2FD8
  5
2FD9
331
1399
  5
1399
331
25D7
  5
25D7
331
25D3
  5
25D3
331
264D
  5
264D
331
260E
  5
260E
331
190B
  5
190B
331
25CF
  5
25CF
331
260A
  5
260A
331
2649
  5
2649
331
2645
  5
2645
331
2B3A
  5
2BA0
331
2606
  5
2606
331
25CB
  5
25CB
331
2641
  5
2641
331
267C
  5
267D
331
2B36
  5
2B37
331
2FD4
  5
2FD5
331
2602
  5
2602
331
2678
  5
2678
331
2FD0
  5
2FD1
331
2FCC
  5
2FCD
331
31DD
  5
31DD
331
300B
  5
300C
331
3277
  5
3277
331
18FF
  5
18FF
331
25C7
  5
25C7
331
18F7
  5
18F7
331
25C3
  5
25C3
331
263D
  5
263D
331
25FE
  5
25FE
331
195E
  5
195E
331
25BF
  5
25BF
331
2639
  5
2639
331
2674
  5
2674
331
25FA
  5
25FA
331
1758
  5
1758
331
25BB
  5
25BB
331
2670
  5
2670
331
3007
  5
3008
331
25F6
  5
25F6
331
2635
  5
2635
331
2631
  5
2631
331
266C
  5
266C
331
2F7C
  5
2F7D
331
3003
  5
3004
331
25F2
  5
25F2
331
2F78
  5
2F79
331
2FFF
  5
3000
331
2E3C
  5
2D70
331
2FFB
  5
2FFC
331
2E38
  5
2E0C
331
31A9
  5
31A9
331
8D
  5
8D
331
89
  5
89
331
18EF
  5
18EF
331
262D
  5
262D
331
25EE
  5
25EE
331
192E
  5
192E
331
2629
  5
2629
331
2664
  5
2664
331
25EA
  5
25EA
331
2660
  5
2660
331
25E6
  5
25E6
331
2625
  5
2625
331
265C
  5
265C
331
2D6D
  5
2E33
331
2E34
  5
2DA2
331
2FF3
  5
2FF4
331
25E2
  5
25E2
331
2621
  5
2621
331
2658
  5
2658
331
2FEF
  5
2FF0
331
3191
  5
3191
331
2D69
  5
2D69
331
2FEB
  5
2FEC
331
2E10
  5
2B36
  0
DICTIONARY
  5
32F7
102
{ACAD_REACTORS
330
32F6
102
}
330
32F6
100
AcDbDictionary
280
     1
281
     1
  3
Edit
360
32F8
  0
SORTENTSTABLE
  5
2D8D
102
{ACAD_REACTORS
330
2D8C
102
}
330
2D8C
100
AcDbSortentsTable
330
2D89
  0
SORTENTSTABLE
  5
3097
102
{ACAD_REACTORS
330
3096
102
}
330
3096
100
AcDbSortentsTable
330
3065
331
3069
  5
306A
331
306A
  5
3069
  0
ACDBASSOCNETWORK
  5
2591
102
{ACAD_REACTORS
330
2590
102
}
330
2590
100
AcDbAssocAction
 90
        1
 90
        1
330
0
360
0
 90
        0
 90
        0
 90
        0
100
AcDbAssocNetwork
 90
        0
 90
        2
 90
        1
330
26BF
 90
        1
330
26BF
  0
ACDBDETAILVIEWSTYLE
  5
2020
102
{ACAD_XDICTIONARY
360
2089
102
}
102
{ACAD_REACTORS
330
201F
102
}
330
201F
100
AcDbModelDocViewStyle
 70
     0
  3
Imperial24
290
     0
100
AcDbDetailViewStyle
 70
     0
 71
     0
 90
        3
 71
     1
340
11
 40
0.24
340
0
 40
0.24
300

 40
0.36
280
     3
 71
     2
340
15
 90
       25
 71
     3
340
11
 40
0.24
 90
        1
 40
0.75
 90
        1
300
%<\AcVar ViewType \f "%tc1">% %<\AcVar ViewDetailId>%\PSCALE %<\AcVar ViewScale \f "%sn">%
 71
     4
340
15
 90
       25
340
15
 90
       25
280
     0
  0
LAYOUT
  5
21
102
{ACAD_XDICTIONARY
360
32BD
102
}
102
{ACAD_REACTORS
330
19
102
}
330
19
100
AcDbPlotSettings
  1

  2
PrimoPDF
  4
A4
  6
HYOU
 40
3.174999952316283
 41
3.174999952316283
 42
3.175003051757812
 43
3.17498779296875
 44
210.0156707763672
 45
297.0106506347656
 46
-1.0
 47
10.0
 48
0.0
 49
0.0
140
0.0
141
0.0
142
1.0
143
1.458272291292898
 70
 11952
 72
     1
 73
     1
 74
     2
  7
monochrome.ctb
 75
     0
147
0.6857429891323
148
0.0
149
0.0
100
AcDbLayout
  1
Model
 70
     1
 71
     0
 10
0.0
 20
0.0
 11
12.0
 21
9.0
 12
0.0
 22
0.0
 32
0.0
 14
0.0
 24
0.0
 34
0.0
 15
0.0
 25
0.0
 35
0.0
146
0.0
 13
0.0
 23
0.0
 33
0.0
 16
1.0
 26
0.0
 36
0.0
 17
0.0
 27
1.0
 37
0.0
 76
     0
330
1E
331
1FCB
1001
ACAD_PSEXT
1000
FX DocuPrint 205
1000
FX DocuPrint 205
1000
USB001
1000

1070
     0
  0
LAYOUT
  5
1D
102
{ACAD_XDICTIONARY
360
32BB
102
}
102
{ACAD_REACTORS
330
19
102
}
330
19
100
AcDbPlotSettings
  1

  2
EPSON LP-1500S
  4

  6

 40
0.0
 41
0.0
 42
0.0
 43
0.0
 44
0.0
 45
0.0
 46
0.0
 47
0.0
 48
0.0
 49
0.0
140
0.0
141
0.0
142
1.0
143
1.0
 70
   688
 72
     0
 73
     0
 74
     5
  7
monochrome.ctb
 75
    16
147
1.0
148
0.0
149
0.0
100
AcDbLayout
  1
ﾚｲｱｳﾄ1
 70
     0
 71
     1
 10
0.0
 20
0.0
 11
12.0
 21
9.0
 12
0.0
 22
0.0
 32
0.0
 14
1.000000000000000E+20
 24
1.000000000000000E+20
 34
1.000000000000000E+20
 15
-1.000000000000000E+20
 25
-1.000000000000000E+20
 35
-1.000000000000000E+20
146
0.0
 13
0.0
 23
0.0
 33
0.0
 16
1.0
 26
0.0
 36
0.0
 17
0.0
 27
1.0
 37
0.0
 76
     0
330
1A
  0
MATERIAL
  5
1FE0
102
{ACAD_XDICTIONARY
360
1FE1
102
}
102
{ACAD_REACTORS
330
1792
102
}
330
1792
100
AcDbMaterial
  1
ByBlock
 72
     0
 43
0.0208333333333333
 43
0.0
 43
0.0
 43
0.0
 43
0.0
 43
0.0208333333333333
 43
0.0
 43
0.0
 43
0.0
 43
0.0
 43
1.0
 43
0.0
 43
0.0
 43
0.0
 43
0.0
 43
1.0
 77
     0
 47
0.0208333333333333
 47
0.0
 47
0.0
 47
0.0
 47
0.0
 47
0.0208333333333333
 47
0.0
 47
0.0
 47
0.0
 47
0.0
 47
1.0
 47
0.0
 47
0.0
 47
0.0
 47
0.0
 47
1.0
171
     0
 49
0.0208333333333333
 49
0.0
 49
0.0
 49
0.0
 49
0.0
 49
0.0208333333333333
 49
0.0
 49
0.0
 49
0.0
 49
0.0
 49
1.0
 49
0.0
 49
0.0
 49
0.0
 49
0.0
 49
1.0
175
     0
142
0.0208333333333333
142
0.0
142
0.0
142
0.0
142
0.0
142
0.0208333333333333
142
0.0
142
0.0
142
0.0
142
0.0
142
1.0
142
0.0
142
0.0
142
0.0
142
0.0
142
1.0
179
     0
144
0.0208333333333333
144
0.0
144
0.0
144
0.0
144
0.0
144
0.0208333333333333
144
0.0
144
0.0
144
0.0
144
0.0
144
1.0
144
0.0
144
0.0
144
0.0
144
0.0
144
1.0
147
0.0208333333333333
147
0.0
147
0.0
147
0.0
147
0.0
147
0.0208333333333333
147
0.0
147
0.0
147
0.0
147
0.0
147
1.0
147
0.0
147
0.0
147
0.0
147
0.0
147
1.0
  0
MATERIAL
  5
1FD8
102
{ACAD_XDICTIONARY
360
1FD9
102
}
102
{ACAD_REACTORS
330
1792
102
}
330
1792
100
AcDbMaterial
  1
ByLayer
 72
     0
 43
0.0208333333333333
 43
0.0
 43
0.0
 43
0.0
 43
0.0
 43
0.0208333333333333
 43
0.0
 43
0.0
 43
0.0
 43
0.0
 43
1.0
 43
0.0
 43
0.0
 43
0.0
 43
0.0
 43
1.0
 77
     0
 47
0.0208333333333333
 47
0.0
 47
0.0
 47
0.0
 47
0.0
 47
0.0208333333333333
 47
0.0
 47
0.0
 47
0.0
 47
0.0
 47
1.0
 47
0.0
 47
0.0
 47
0.0
 47
0.0
 47
1.0
171
     0
 49
0.0208333333333333
 49
0.0
 49
0.0
 49
0.0
 49
0.0
 49
0.0208333333333333
 49
0.0
 49
0.0
 49
0.0
 49
0.0
 49
1.0
 49
0.0
 49
0.0
 49
0.0
 49
0.0
 49
1.0
175
     0
142
0.0208333333333333
142
0.0
142
0.0
142
0.0
142
0.0
142
0.0208333333333333
142
0.0
142
0.0
142
0.0
142
0.0
142
1.0
142
0.0
142
0.0
142
0.0
142
0.0
142
1.0
179
     0
144
0.0208333333333333
144
0.0
144
0.0
144
0.0
144
0.0
144
0.0208333333333333
144
0.0
144
0.0
144
0.0
144
0.0
144
1.0
144
0.0
144
0.0
144
0.0
144
0.0
144
1.0
147
0.0208333333333333
147
0.0
147
0.0
147
0.0
147
0.0
147
0.0208333333333333
147
0.0
147
0.0
147
0.0
147
0.0
147
1.0
147
0.0
147
0.0
147
0.0
147
0.0
147
1.0
  0
MATERIAL
  5
1FE8
102
{ACAD_XDICTIONARY
360
1FE9
102
}
102
{ACAD_REACTORS
330
1792
102
}
330
1792
100
AcDbMaterial
  1
Global
 72
     0
 43
0.0208333333333333
 43
0.0
 43
0.0
 43
0.0
 43
0.0
 43
0.0208333333333333
 43
0.0
 43
0.0
 43
0.0
 43
0.0
 43
1.0
 43
0.0
 43
0.0
 43
0.0
 43
0.0
 43
1.0
 77
     0
 47
0.0208333333333333
 47
0.0
 47
0.0
 47
0.0
 47
0.0
 47
0.0208333333333333
 47
0.0
 47
0.0
 47
0.0
 47
0.0
 47
1.0
 47
0.0
 47
0.0
 47
0.0
 47
0.0
 47
1.0
171
     0
 49
0.0208333333333333
 49
0.0
 49
0.0
 49
0.0
 49
0.0
 49
0.0208333333333333
 49
0.0
 49
0.0
 49
0.0
 49
0.0
 49
1.0
 49
0.0
 49
0.0
 49
0.0
 49
0.0
 49
1.0
175
     0
142
0.0208333333333333
142
0.0
142
0.0
142
0.0
142
0.0
142
0.0208333333333333
142
0.0
142
0.0
142
0.0
142
0.0
142
1.0
142
0.0
142
0.0
142
0.0
142
0.0
142
1.0
179
     0
144
0.0208333333333333
144
0.0
144
0.0
144
0.0
144
0.0
144
0.0208333333333333
144
0.0
144
0.0
144
0.0
144
0.0
144
1.0
144
0.0
144
0.0
144
0.0
144
0.0
144
1.0
147
0.0208333333333333
147
0.0
147
0.0
147
0.0
147
0.0
147
0.0208333333333333
147
0.0
147
0.0
147
0.0
147
0.0
147
1.0
147
0.0
147
0.0
147
0.0
147
0.0
147
1.0
  0
MLEADERSTYLE
  5
201C
102
{ACAD_REACTORS
330
201B
102
}
330
201B
100
AcDbMLeaderStyle
170
     2
171
     1
172
     0
 90
        2
 40
0.0
 41
0.0
173
     1
 91
-1056964608
340
13
 92
       -2
290
     1
 42
0.09
291
     1
 43
0.36
  3
Standard
 44
0.18
300

342
11
174
     1
178
     6
175
     1
176
     0
 93
-1056964608
 45
0.18
292
     0
297
     0
 46
0.18
 94
-1056964608
 47
1.0
 49
1.0
140
1.0
293
     1
141
0.0
294
     1
177
     0
142
1.0
295
     0
296
     0
143
0.125
1001
ACAD_MLEADERVER
1070
     2
  0
MLINESTYLE
  5
17
102
{ACAD_REACTORS
330
16
102
}
330
16
100
AcDbMlineStyle
  2
STANDARD
 70
     0
  3

 62
   256
 51
90.0
 52
90.0
 71
     2
 49
0.5
 62
   256
  6
BYLAYER
 49
-0.5
 62
   256
  6
BYLAYER
  0
ACDBPLACEHOLDER
  5
F
102
{ACAD_REACTORS
330
E
102
}
330
E
  0
SCALE
  5
200A
102
{ACAD_REACTORS
330
2009
102
}
330
2009
100
AcDbScale
 70
     0
300
1:1
140
1.0
141
1.0
290
     1
  0
SCALE
  5
200B
102
{ACAD_REACTORS
330
2009
102
}
330
2009
100
AcDbScale
 70
     0
300
1/128" = 1'-0"
140
0.0078125
141
12.0
290
     0
  0
SCALE
  5
200C
102
{ACAD_REACTORS
330
2009
102
}
330
2009
100
AcDbScale
 70
     0
300
1/64" = 1'-0"
140
0.015625
141
12.0
290
     0
  0
SCALE
  5
200D
102
{ACAD_REACTORS
330
2009
102
}
330
2009
100
AcDbScale
 70
     0
300
1/32" = 1'-0"
140
0.03125
141
12.0
290
     0
  0
SCALE
  5
200E
102
{ACAD_REACTORS
330
2009
102
}
330
2009
100
AcDbScale
 70
     0
300
1/16" = 1'-0"
140
0.0625
141
12.0
290
     0
  0
SCALE
  5
200F
102
{ACAD_REACTORS
330
2009
102
}
330
2009
100
AcDbScale
 70
     0
300
3/32" = 1'-0"
140
0.09375
141
12.0
290
     0
  0
SCALE
  5
2010
102
{ACAD_REACTORS
330
2009
102
}
330
2009
100
AcDbScale
 70
     0
300
1/8" = 1'-0"
140
0.125
141
12.0
290
     0
  0
SCALE
  5
2011
102
{ACAD_REACTORS
330
2009
102
}
330
2009
100
AcDbScale
 70
     0
300
3/16" = 1'-0"
140
0.1875
141
12.0
290
     0
  0
SCALE
  5
2012
102
{ACAD_REACTORS
330
2009
102
}
330
2009
100
AcDbScale
 70
     0
300
1/4" = 1'-0"
140
0.25
141
12.0
290
     0
  0
SCALE
  5
2013
102
{ACAD_REACTORS
330
2009
102
}
330
2009
100
AcDbScale
 70
     0
300
3/8" = 1'-0"
140
0.375
141
12.0
290
     0
  0
SCALE
  5
2014
102
{ACAD_REACTORS
330
2009
102
}
330
2009
100
AcDbScale
 70
     0
300
1/2" = 1'-0"
140
0.5
141
12.0
290
     0
  0
SCALE
  5
2015
102
{ACAD_REACTORS
330
2009
102
}
330
2009
100
AcDbScale
 70
     0
300
3/4" = 1'-0"
140
0.75
141
12.0
290
     0
  0
SCALE
  5
2016
102
{ACAD_REACTORS
330
2009
102
}
330
2009
100
AcDbScale
 70
     0
300
1" = 1'-0"
140
1.0
141
12.0
290
     0
  0
SCALE
  5
2017
102
{ACAD_REACTORS
330
2009
102
}
330
2009
100
AcDbScale
 70
     0
300
1-1/2" = 1'-0"
140
1.5
141
12.0
290
     0
  0
SCALE
  5
2018
102
{ACAD_REACTORS
330
2009
102
}
330
2009
100
AcDbScale
 70
     0
300
3" = 1'-0"
140
3.0
141
12.0
290
     0
  0
SCALE
  5
2019
102
{ACAD_REACTORS
330
2009
102
}
330
2009
100
AcDbScale
 70
     0
300
6" = 1'-0"
140
6.0
141
12.0
290
     0
  0
SCALE
  5
201A
102
{ACAD_REACTORS
330
2009
102
}
330
2009
100
AcDbScale
 70
     0
300
1'-0" = 1'-0"
140
12.0
141
12.0
290
     0
  0
ACDBSECTIONVIEWSTYLE
  5
201E
102
{ACAD_XDICTIONARY
360
2087
102
}
102
{ACAD_REACTORS
330
201D
102
}
330
201D
100
AcDbModelDocViewStyle
 70
     0
  3
Imperial24
290
     0
100
AcDbSectionViewStyle
 70
     0
 71
     0
 90
       78
 71
     1
340
11
 40
0.24
340
0
340
0
 40
0.24
300
I, O, Q, S, X, Z
 40
0.48
 90
        3
 40
0.18
 90
        1
 71
     2
340
15
 90
       25
340
15
 90
       50
 40
0.24
 40
0.0
 40
0.24
 71
     3
340
11
 40
0.24
 90
        1
 40
0.75
 90
        1
300
%<\AcVar ViewType \f "%tc1">% %<\AcVar ViewSectionStartId>%-%<\AcVar ViewSectionEndId>%\PSCALE %<\AcVar ViewScale \f "%sn">%
 71
     4
300
ANSI31
 40
1.0
 90
        0
290
     0
290
     0
 90
        6
 40
0.0
 40
1.570796326794896
 40
0.2617993877991494
 40
1.308996938995747
 40
-0.2617993877991494
 40
1.832595714594046
  0
TABLESTYLE
  5
17A6
102
{ACAD_XDICTIONARY
360
32AE
102
}
102
{ACAD_REACTORS
330
17A5
102
}
330
17A5
100
AcDbTableStyle
  3
Standard
 70
     0
 71
     0
 40
0.06
 41
0.06
280
     0
281
     0
  7
STANDARD
140
0.18
170
     2
 62
     0
 63
     7
283
     0
274
    -2
284
     1
 64
     0
275
    -2
285
     1
 65
     0
276
    -2
286
     1
 66
     0
277
    -2
287
     1
 67
     0
278
    -2
288
     1
 68
     0
279
    -2
289
     1
 69
     0
  7
STANDARD
140
0.25
170
     5
 62
     0
 63
     7
283
     0
274
    -2
284
     1
 64
     0
275
    -2
285
     1
 65
     0
276
    -2
286
     1
 66
     0
277
    -2
287
     1
 67
     0
278
    -2
288
     1
 68
     0
279
    -2
289
     1
 69
     0
  7
STANDARD
140
0.18
170
     5
 62
     0
 63
     7
283
     0
274
    -2
284
     1
 64
     0
275
    -2
285
     1
 65
     0
276
    -2
286
     1
 66
     0
277
    -2
287
     1
 67
     0
278
    -2
288
     1
 68
     0
279
    -2
289
     1
 69
     0
1001
ACAD
1000
AcRTDxfName
1000
TABLESTYLE
  0
VISUALSTYLE
  5
1FF6
102
{ACAD_XDICTIONARY
360
32CD
102
}
102
{ACAD_REACTORS
330
1FF0
102
}
330
1FF0
100
AcDbVisualStyle
  2
2dWireframe
 70
     4
 71
     0
 72
     2
 73
     0
 90
        0
 40
-0.6
 41
-30.0
 62
     5
 63
     7
 74
     1
 91
        4
 64
     7
 65
   257
 75
     1
175
     1
 42
1.0
 92
        0
 66
   257
 43
1.0
 76
     1
 77
     6
 78
     2
 67
     7
 79
     5
170
     0
171
     0
290
     0
174
     0
 93
        1
 44
0.0
173
     0
291
     0
 45
0.0
1001
ACAD
1000
AcDbSavedByObjectVersion
1070
     0
  0
VISUALSTYLE
  5
1FF5
102
{ACAD_XDICTIONARY
360
32CB
102
}
102
{ACAD_REACTORS
330
1FF0
102
}
330
1FF0
100
AcDbVisualStyle
  2
Basic
 70
     7
 71
     1
 72
     0
 73
     1
 90
        0
 40
-0.6
 41
-30.0
 62
     5
 63
     7
 74
     0
 91
        4
 64
     7
 65
   257
 75
     1
175
     1
 42
1.0
 92
        8
 66
     7
 43
1.0
 76
     1
 77
     6
 78
     2
 67
     7
 79
     5
170
     0
171
     0
290
     0
174
     0
 93
        1
 44
0.0
173
     0
291
     1
 45
0.0
1001
ACAD
1000
AcDbSavedByObjectVersion
1070
     0
  0
VISUALSTYLE
  5
1FFC
102
{ACAD_XDICTIONARY
360
32D9
102
}
102
{ACAD_REACTORS
330
1FF0
102
}
330
1FF0
100
AcDbVisualStyle
  2
Brighten
 70
    12
 71
     2
 72
     2
 73
     0
 90
        0
 40
-0.6
 41
-30.0
 62
     5
 63
     7
 74
     1
 91
        4
 64
     7
 65
   257
 75
     1
175
     1
 42
1.0
 92
        8
 66
     7
 43
1.0
 76
     1
 77
     6
 78
     2
 67
     7
 79
     5
170
     0
171
     0
290
     0
174
     0
 93
        1
 44
50.0
173
     0
291
     1
 45
0.0
1001
ACAD
1000
AcDbSavedByObjectVersion
1070
     0
  0
VISUALSTYLE
  5
2000
102
{ACAD_XDICTIONARY
360
32E1
102
}
102
{ACAD_REACTORS
330
1FF0
102
}
330
1FF0
100
AcDbVisualStyle
  2
ColorChange
 70
    16
 71
     2
 72
     2
 73
     3
 90
        0
 40
-0.6
 41
-30.0
 62
     5
 63
     8
 74
     1
 91
        4
 64
     7
 65
   257
 75
     1
175
     1
 42
1.0
 92
        8
 66
     8
 43
1.0
 76
     1
 77
     6
 78
     2
 67
     7
 79
     5
170
     0
171
     0
290
     0
174
     0
 93
        1
 44
0.0
173
     0
291
     1
 45
0.0
1001
ACAD
1000
AcDbSavedByObjectVersion
1070
     0
  0
VISUALSTYLE
  5
1FF9
102
{ACAD_XDICTIONARY
360
32D3
102
}
102
{ACAD_REACTORS
330
1FF0
102
}
330
1FF0
100
AcDbVisualStyle
  2
Conceptual
 70
     9
 71
     3
 72
     2
 73
     0
 90
        0
 40
-0.6
 41
-30.0
 62
     5
 63
     7
 74
     2
 91
        2
 64
     7
 65
   257
 75
     1
175
     1
 42
179.0
 92
        8
 66
     7
 43
1.0
 76
     1
 77
     6
 78
     2
 67
     7
 79
     3
170
     0
171
     0
290
     0
174
     0
 93
        1
 44
0.0
173
     0
291
     0
 45
0.0
1001
ACAD
1000
AcDbSavedByObjectVersion
1070
     0
  0
VISUALSTYLE
  5
1FFB
102
{ACAD_XDICTIONARY
360
32D7
102
}
102
{ACAD_REACTORS
330
1FF0
102
}
330
1FF0
100
AcDbVisualStyle
  2
Dim
 70
    11
 71
     2
 72
     2
 73
     0
 90
        0
 40
-0.6
 41
-30.0
 62
     5
 63
     7
 74
     1
 91
        4
 64
     7
 65
   257
 75
     1
175
     1
 42
1.0
 92
        8
 66
     7
 43
1.0
 76
     1
 77
     6
 78
     2
 67
     7
 79
     5
170
     0
171
     0
290
     0
174
     0
 93
        1
 44
-50.0
173
     0
291
     1
 45
0.0
1001
ACAD
1000
AcDbSavedByObjectVersion
1070
     0
  0
VISUALSTYLE
  5
2008
102
{ACAD_XDICTIONARY
360
32F1
102
}
102
{ACAD_REACTORS
330
1FF0
102
}
330
1FF0
100
AcDbVisualStyle
  2
EdgeColorOff
 70
    22
 71
     2
 72
     2
 73
     0
 90
        0
 40
-0.6
 41
-30.0
 62
     5
 63
     7
 74
     1
 91
        4
 64
     7
 65
   257
 75
     1
175
     1
 42
1.0
 92
        8
 66
     7
 43
1.0
 76
     1
 77
     6
 78
     2
 67
     7
 79
     5
170
     0
171
     0
290
     0
174
     0
 93
        1
 44
0.0
173
     0
291
     1
 45
0.0
1001
ACAD
1000
AcDbSavedByObjectVersion
1070
     0
  0
VISUALSTYLE
  5
1FFF
102
{ACAD_XDICTIONARY
360
32DF
102
}
102
{ACAD_REACTORS
330
1FF0
102
}
330
1FF0
100
AcDbVisualStyle
  2
Facepattern
 70
    15
 71
     2
 72
     2
 73
     0
 90
        0
 40
-0.6
 41
-30.0
 62
     5
 63
     7
 74
     1
 91
        4
 64
     7
 65
   257
 75
     1
175
     1
 42
1.0
 92
        8
 66
     7
 43
1.0
 76
     1
 77
     6
 78
     2
 67
     7
 79
     5
170
     0
171
     0
290
     0
174
     0
 93
        1
 44
0.0
173
     0
291
     1
 45
0.0
1001
ACAD
1000
AcDbSavedByObjectVersion
1070
     0
  0
VISUALSTYLE
  5
1FF1
102
{ACAD_XDICTIONARY
360
32C3
102
}
102
{ACAD_REACTORS
330
1FF0
102
}
330
1FF0
100
AcDbVisualStyle
  2
Flat
 70
     0
 71
     2
 72
     1
 73
     1
 90
        2
 40
-0.6
 41
30.0
 62
     5
 63
     7
 74
     0
 91
        0
 64
     7
 65
   257
 75
     1
175
     1
 42
1.0
 92
        8
 66
     7
 43
1.0
 76
     1
 77
     6
 78
     2
 67
     7
 79
     5
170
     0
171
     0
290
     0
174
     0
 93
       13
 44
0.0
173
     0
291
     1
 45
0.0
1001
ACAD
1000
AcDbSavedByObjectVersion
1070
     0
  0
VISUALSTYLE
  5
1FF2
102
{ACAD_XDICTIONARY
360
32C5
102
}
102
{ACAD_REACTORS
330
1FF0
102
}
330
1FF0
100
AcDbVisualStyle
  2
FlatWithEdges
 70
     1
 71
     2
 72
     1
 73
     1
 90
        2
 40
-0.6
 41
30.0
 62
     5
 63
     7
 74
     1
 91
        0
 64
     7
 65
   257
 75
     1
175
     1
 42
1.0
 92
        0
 66
   257
 43
1.0
 76
     1
 77
     6
 78
     2
 67
     7
 79
     5
170
     0
171
     0
290
     0
174
     0
 93
       13
 44
0.0
173
     0
291
     1
 45
0.0
1001
ACAD
1000
AcDbSavedByObjectVersion
1070
     0
  0
VISUALSTYLE
  5
1FF3
102
{ACAD_XDICTIONARY
360
32C7
102
}
102
{ACAD_REACTORS
330
1FF0
102
}
330
1FF0
100
AcDbVisualStyle
  2
Gouraud
 70
     2
 71
     2
 72
     2
 73
     1
 90
        2
 40
-0.6
 41
30.0
 62
     5
 63
     7
 74
     0
 91
        0
 64
     7
 65
   257
 75
     1
175
     1
 42
1.0
 92
        0
 66
     7
 43
1.0
 76
     1
 77
     6
 78
     2
 67
     7
 79
     5
170
     0
171
     0
290
     0
174
     0
 93
       13
 44
0.0
173
     0
291
     1
 45
0.0
1001
ACAD
1000
AcDbSavedByObjectVersion
1070
     0
  0
VISUALSTYLE
  5
1FF4
102
{ACAD_XDICTIONARY
360
32C9
102
}
102
{ACAD_REACTORS
330
1FF0
102
}
330
1FF0
100
AcDbVisualStyle
  2
GouraudWithEdges
 70
     3
 71
     2
 72
     2
 73
     1
 90
        2
 40
-0.6
 41
30.0
 62
     5
 63
     7
 74
     1
 91
        0
 64
     7
 65
   257
 75
     1
175
     1
 42
1.0
 92
        0
 66
   257
 43
1.0
 76
     1
 77
     6
 78
     2
 67
     7
 79
     5
170
     0
171
     0
290
     0
174
     0
 93
       13
 44
0.0
173
     0
291
     1
 45
0.0
1001
ACAD
1000
AcDbSavedByObjectVersion
1070
     0
  0
VISUALSTYLE
  5
1FF8
102
{ACAD_XDICTIONARY
360
32D1
102
}
102
{ACAD_REACTORS
330
1FF0
102
}
330
1FF0
100
AcDbVisualStyle
  2
Hidden
 70
     6
 71
     1
 72
     2
 73
     2
 90
        0
 40
-0.6
 41
-30.0
 62
     5
 63
     7
 74
     2
 91
        2
 64
     7
 65
   257
 75
     2
175
     1
 42
40.0
 92
        0
 66
   257
 43
1.0
 76
     1
 77
     6
 78
     2
 67
     7
 79
     3
170
     0
171
     0
290
     0
174
     0
 93
        1
 44
0.0
173
     0
291
     0
 45
0.0
1001
ACAD
1000
AcDbSavedByObjectVersion
1070
     0
  0
VISUALSTYLE
  5
2006
102
{ACAD_XDICTIONARY
360
32ED
102
}
102
{ACAD_REACTORS
330
1FF0
102
}
330
1FF0
100
AcDbVisualStyle
  2
JitterOff
 70
    20
 71
     2
 72
     2
 73
     0
 90
        0
 40
-0.6
 41
-30.0
 62
     5
 63
     7
 74
     1
 91
        4
 64
     7
 65
   257
 75
     1
175
     1
 42
1.0
 92
       10
 66
     7
 43
1.0
 76
     1
 77
     6
 78
     2
 67
     7
 79
     5
170
     0
171
     0
290
     0
174
     0
 93
        1
 44
0.0
173
     0
291
     1
 45
0.0
1001
ACAD
1000
AcDbSavedByObjectVersion
1070
     0
  0
VISUALSTYLE
  5
1FFE
102
{ACAD_XDICTIONARY
360
32DD
102
}
102
{ACAD_REACTORS
330
1FF0
102
}
330
1FF0
100
AcDbVisualStyle
  2
Linepattern
 70
    14
 71
     2
 72
     2
 73
     0
 90
        0
 40
-0.6
 41
-30.0
 62
     5
 63
     7
 74
     1
 91
        4
 64
     7
 65
   257
 75
     7
175
     7
 42
1.0
 92
        8
 66
     7
 43
1.0
 76
     1
 77
     6
 78
     2
 67
     7
 79
     5
170
     0
171
     0
290
     0
174
     0
 93
        1
 44
0.0
173
     0
291
     1
 45
0.0
1001
ACAD
1000
AcDbSavedByObjectVersion
1070
     0
  0
VISUALSTYLE
  5
2007
102
{ACAD_XDICTIONARY
360
32EF
102
}
102
{ACAD_REACTORS
330
1FF0
102
}
330
1FF0
100
AcDbVisualStyle
  2
OverhangOff
 70
    21
 71
     2
 72
     2
 73
     0
 90
        0
 40
-0.6
 41
-30.0
 62
     5
 63
     7
 74
     1
 91
        4
 64
     7
 65
   257
 75
     1
175
     1
 42
1.0
 92
        9
 66
     7
 43
1.0
 76
     1
 77
     6
 78
     2
 67
     7
 79
     5
170
     0
171
     0
290
     0
174
     0
 93
        1
 44
0.0
173
     0
291
     1
 45
0.0
1001
ACAD
1000
AcDbSavedByObjectVersion
1070
     0
  0
VISUALSTYLE
  5
1FFA
102
{ACAD_XDICTIONARY
360
32D5
102
}
102
{ACAD_REACTORS
330
1FF0
102
}
330
1FF0
100
AcDbVisualStyle
  2
Realistic
 70
     8
 71
     2
 72
     3
 73
     0
 90
        2
 40
-0.6
 41
30.0
 62
     5
 63
     7
 74
     0
 91
        0
 64
     7
 65
   257
 75
     1
175
     1
 42
1.0
 92
        8
 66
   257
 43
1.0
 76
     1
 77
     6
 78
     2
 67
     7
 79
     3
170
     0
171
     0
290
     0
174
     0
 93
       13
 44
0.0
173
     0
291
     0
 45
0.0
1001
ACAD
1000
AcDbSavedByObjectVersion
1070
     0
  0
VISUALSTYLE
  5
2005
102
{ACAD_XDICTIONARY
360
32EB
102
}
102
{ACAD_REACTORS
330
1FF0
102
}
330
1FF0
100
AcDbVisualStyle
  2
Shaded
 70
    27
 71
     2
 72
     2
 73
     1
 90
        2
 40
-0.6
 41
30.0
 62
     5
 63
     7
 74
     0
 91
        4
 64
     7
 65
   257
 75
     1
175
     1
 42
1.0
 92
        8
 66
   257
 43
1.0
 76
     1
 77
     6
 78
     2
 67
     8
 79
     3
170
     0
171
     0
290
     0
174
     0
 93
        5
 44
0.0
173
     0
291
     0
 45
0.0
1001
ACAD
1000
AcDbSavedByObjectVersion
1070
     0
  0
VISUALSTYLE
  5
2004
102
{ACAD_XDICTIONARY
360
32E9
102
}
102
{ACAD_REACTORS
330
1FF0
102
}
330
1FF0
100
AcDbVisualStyle
  2
Shaded with edges
 70
    26
 71
     2
 72
     2
 73
     1
 90
        2
 40
-0.6
 41
30.0
 62
     5
 63
     7
 74
     1
 91
       10
 64
     7
 65
   257
 75
     2
175
     1
 42
1.0
 92
        8
 66
   257
 43
1.0
 76
     1
 77
     6
 78
     2
 67
     7
 79
     3
170
     0
171
     0
290
     0
174
     0
 93
        5
 44
0.0
173
     0
291
     0
 45
0.0
1001
ACAD
1000
AcDbSavedByObjectVersion
1070
     0
  0
VISUALSTYLE
  5
2001
102
{ACAD_XDICTIONARY
360
32E3
102
}
102
{ACAD_REACTORS
330
1FF0
102
}
330
1FF0
100
AcDbVisualStyle
  2
Shades of Gray
 70
    23
 71
     2
 72
     2
 73
     3
 90
        0
 40
-0.6
 41
-30.0
 62
     5
 63
     7
 74
     2
 91
        2
 64
     7
 65
     7
 75
     1
175
     1
 42
40.0
 92
        8
 66
     7
 43
1.0
 76
     1
 77
     6
 78
     2
 67
     7
 79
     3
170
     0
171
     0
290
     0
174
     0
 93
        1
 44
0.0
173
     0
291
     0
 45
0.0
1001
ACAD
1000
AcDbSavedByObjectVersion
1070
     0
  0
VISUALSTYLE
  5
2002
102
{ACAD_XDICTIONARY
360
32E5
102
}
102
{ACAD_REACTORS
330
1FF0
102
}
330
1FF0
100
AcDbVisualStyle
  2
Sketchy
 70
    24
 71
     1
 72
     2
 73
     2
 90
        0
 40
-0.6
 41
-30.0
 62
     5
 63
     7
 74
     2
 91
        2
 64
     7
 65
     7
 75
     1
175
     1
 42
40.0
 92
       11
 66
     7
 43
1.0
 76
     1
 77
     6
 78
     2
 67
     7
 79
     6
170
     0
171
     0
290
     0
174
     0
 93
        1
 44
0.0
173
     0
291
     0
 45
0.0
1001
ACAD
1000
AcDbSavedByObjectVersion
1070
     0
  0
VISUALSTYLE
  5
1FFD
102
{ACAD_XDICTIONARY
360
32DB
102
}
102
{ACAD_REACTORS
330
1FF0
102
}
330
1FF0
100
AcDbVisualStyle
  2
Thicken
 70
    13
 71
     2
 72
     2
 73
     0
 90
        0
 40
-0.6
 41
-30.0
 62
     5
 63
     7
 74
     1
 91
        4
 64
     7
 65
   257
 75
     1
175
     1
 42
1.0
 92
       12
 66
     7
 43
1.0
 76
     1
 77
     6
 78
     2
 67
     7
 79
     5
170
     0
171
     0
290
     0
174
     0
 93
        1
 44
0.0
173
     0
291
     1
 45
0.0
1001
ACAD
1000
AcDbSavedByObjectVersion
1070
     0
  0
VISUALSTYLE
  5
1FF7
102
{ACAD_XDICTIONARY
360
32CF
102
}
102
{ACAD_REACTORS
330
1FF0
102
}
330
1FF0
100
AcDbVisualStyle
  2
Wireframe
 70
     5
 71
     0
 72
     2
 73
     0
 90
        0
 40
-0.6
 41
-30.0
 62
     5
 63
     7
 74
     1
 91
        4
 64
     7
 65
   257
 75
     1
175
     1
 42
1.0
 92
        0
 66
   257
 43
1.0
 76
     1
 77
     6
 78
     2
 67
     7
 79
     3
170
     0
171
     0
290
     0
174
     0
 93
        1
 44
0.0
173
     0
291
     0
 45
0.0
1001
ACAD
1000
AcDbSavedByObjectVersion
1070
     0
  0
VISUALSTYLE
  5
2003
102
{ACAD_XDICTIONARY
360
32E7
102
}
102
{ACAD_REACTORS
330
1FF0
102
}
330
1FF0
100
AcDbVisualStyle
  2
X-Ray
 70
    25
 71
     2
 72
     2
 73
     1
 90
        1
 40
0.5
 41
-30.0
 62
     5
 63
     7
 74
     1
 91
        0
 64
     7
 65
   257
 75
     1
175
     1
 42
1.0
 92
        8
 66
     7
 43
1.0
 76
     1
 77
     6
 78
     2
 67
     7
 79
     3
170
     0
171
     0
290
     0
174
     0
 93
       13
 44
0.0
173
     0
291
     0
 45
0.0
1001
ACAD
1000
AcDbSavedByObjectVersion
1070
     0
  0
DICTIONARYVAR
  5
2090
102
{ACAD_REACTORS
330
17B5
102
}
330
17B5
100
DictionaryVariables
280
     0
  1
1:1
  0
DICTIONARYVAR
  5
208C
102
{ACAD_REACTORS
330
17B5
102
}
330
17B5
100
DictionaryVariables
280
     0
  1
STANDARD
  0
DICTIONARYVAR
  5
17B6
102
{ACAD_REACTORS
330
17B5
102
}
330
17B5
100
DictionaryVariables
280
     0
  1
STANDARD
  0
DICTIONARYVAR
  5
208D
102
{ACAD_REACTORS
330
17B5
102
}
330
17B5
100
DictionaryVariables
280
     0
  1
Imperial24
  0
DICTIONARYVAR
  5
208E
102
{ACAD_REACTORS
330
17B5
102
}
330
17B5
100
DictionaryVariables
280
     0
  1
Imperial24
  0
DICTIONARYVAR
  5
1C49
102
{ACAD_REACTORS
330
17B5
102
}
330
17B5
100
DictionaryVariables
280
     0
  1
1
  0
DICTIONARYVAR
  5
32AC
102
{ACAD_REACTORS
330
17B5
102
}
330
17B5
100
DictionaryVariables
280
     0
  1
0
  0
DICTIONARYVAR
  5
2092
102
{ACAD_REACTORS
330
17B5
102
}
330
17B5
100
DictionaryVariables
280
     0
  1
1
  0
DICTIONARYVAR
  5
2093
102
{ACAD_REACTORS
330
17B5
102
}
330
17B5
100
DictionaryVariables
280
     0
  1
15
  0
DICTIONARYVAR
  5
2091
102
{ACAD_REACTORS
330
17B5
102
}
330
17B5
100
DictionaryVariables
280
     0
  1
0
  0
DICTIONARYVAR
  5
208F
102
{ACAD_REACTORS
330
17B5
102
}
330
17B5
100
DictionaryVariables
280
     0
  1
0
  0
DICTIONARYVAR
  5
1C4A
102
{ACAD_REACTORS
330
17B5
102
}
330
17B5
100
DictionaryVariables
280
     0
  1

  0
DICTIONARYVAR
  5
32AB
102
{ACAD_REACTORS
330
17B5
102
}
330
17B5
100
DictionaryVariables
280
     0
  1
127
  0
DICTIONARYVAR
  5
32AD
102
{ACAD_REACTORS
330
17B5
102
}
330
17B5
100
DictionaryVariables
280
     0
  1
2
  0
DICTIONARY
  5
32BA
102
{ACAD_REACTORS
330
32B8
102
}
330
32B8
100
AcDbDictionary
281
     1
  0
DICTIONARY
  5
32B9
102
{ACAD_REACTORS
330
32B8
102
}
330
32B8
100
AcDbDictionary
281
     1
  3
8796086760624
350
32B3
  3
8796086760640
350
32B4
  3
8796086760656
350
32B5
  3
8796086760672
350
32B6
  3
8796086760688
350
32B7
  0
ACDBASSOCNETWORK
  5
26BF
102
{ACAD_REACTORS
330
26BE
102
}
330
26BE
100
AcDbAssocAction
 90
        1
 90
        1
330
2591
360
0
 90
        2
 90
        0
 90
        0
100
AcDbAssocNetwork
 90
        0
 90
        2
 90
        1
360
268C
 90
        1
330
268C
  0
XRECORD
  5
32F8
102
{ACAD_REACTORS
330
32F7
102
}
330
32F7
100
AcDbXrecord
280
     1
1070
     0
1070
     1
1070
     1
  0
DICTIONARY
  5
2089
330
2020
100
AcDbDictionary
280
     1
281
     1
  3
ACAD_XREC_ROUNDTRIP
360
32F5
  0
DICTIONARY
  5
32BD
330
21
100
AcDbDictionary
280
     1
281
     1
  3
ACAD_XREC_ROUNDTRIP
360
32BE
  0
DICTIONARY
  5
32BB
330
1D
100
AcDbDictionary
280
     1
281
     1
  3
ACAD_XREC_ROUNDTRIP
360
32BC
  0
DICTIONARY
  5
1FE1
330
1FE0
100
AcDbDictionary
280
     1
281
     1
  3
ACAD_XREC_ROUNDTRIP
360
32C1
  3
BUMPTILE
360
1FE3
  3
DIFFUSETILE
360
1FE2
  3
OPACITYTILE
360
1FE6
  3
REFLECTIONTILE
360
1FE5
  3
REFRACTIONTILE
360
1FE7
  3
SPECULARTILE
360
1FE4
  0
DICTIONARY
  5
1FD9
330
1FD8
100
AcDbDictionary
280
     1
281
     1
  3
ACAD_XREC_ROUNDTRIP
360
32C0
  3
BUMPTILE
360
1FDB
  3
DIFFUSETILE
360
1FDA
  3
OPACITYTILE
360
1FDE
  3
REFLECTIONTILE
360
1FDD
  3
REFRACTIONTILE
360
1FDF
  3
SPECULARTILE
360
1FDC
  0
DICTIONARY
  5
1FE9
330
1FE8
100
AcDbDictionary
280
     1
281
     1
  3
ACAD_XREC_ROUNDTRIP
360
32C2
  3
BUMPTILE
360
1FEB
  3
DIFFUSETILE
360
1FEA
  3
OPACITYTILE
360
1FEE
  3
REFLECTIONTILE
360
1FED
  3
REFRACTIONTILE
360
1FEF
  3
SPECULARTILE
360
1FEC
  0
DICTIONARY
  5
2087
330
201E
100
AcDbDictionary
280
     1
281
     1
  3
ACAD_XREC_ROUNDTRIP
360
32F4
  0
DICTIONARY
  5
32AE
330
17A6
100
AcDbDictionary
280
     1
281
     1
  3
ACAD_ROUNDTRIP_2008_TABLESTYLE_CELLSTYLEMAP
360
32AF
  3
ACAD_XREC_ROUNDTRIP
360
32BF
  0
DICTIONARY
  5
32CD
330
1FF6
100
AcDbDictionary
280
     1
281
     1
  3
ACAD_XREC_ROUNDTRIP
360
32CE
  0
DICTIONARY
  5
32CB
330
1FF5
100
AcDbDictionary
280
     1
281
     1
  3
ACAD_XREC_ROUNDTRIP
360
32CC
  0
DICTIONARY
  5
32D9
330
1FFC
100
AcDbDictionary
280
     1
281
     1
  3
ACAD_XREC_ROUNDTRIP
360
32DA
  0
DICTIONARY
  5
32E1
330
2000
100
AcDbDictionary
280
     1
281
     1
  3
ACAD_XREC_ROUNDTRIP
360
32E2
  0
DICTIONARY
  5
32D3
330
1FF9
100
AcDbDictionary
280
     1
281
     1
  3
ACAD_XREC_ROUNDTRIP
360
32D4
  0
DICTIONARY
  5
32D7
330
1FFB
100
AcDbDictionary
280
     1
281
     1
  3
ACAD_XREC_ROUNDTRIP
360
32D8
  0
DICTIONARY
  5
32F1
330
2008
100
AcDbDictionary
280
     1
281
     1
  3
ACAD_XREC_ROUNDTRIP
360
32F2
  0
DICTIONARY
  5
32DF
330
1FFF
100
AcDbDictionary
280
     1
281
     1
  3
ACAD_XREC_ROUNDTRIP
360
32E0
  0
DICTIONARY
  5
32C3
330
1FF1
100
AcDbDictionary
280
     1
281
     1
  3
ACAD_XREC_ROUNDTRIP
360
32C4
  0
DICTIONARY
  5
32C5
330
1FF2
100
AcDbDictionary
280
     1
281
     1
  3
ACAD_XREC_ROUNDTRIP
360
32C6
  0
DICTIONARY
  5
32C7
330
1FF3
100
AcDbDictionary
280
     1
281
     1
  3
ACAD_XREC_ROUNDTRIP
360
32C8
  0
DICTIONARY
  5
32C9
330
1FF4
100
AcDbDictionary
280
     1
281
     1
  3
ACAD_XREC_ROUNDTRIP
360
32CA
  0
DICTIONARY
  5
32D1
330
1FF8
100
AcDbDictionary
280
     1
281
     1
  3
ACAD_XREC_ROUNDTRIP
360
32D2
  0
DICTIONARY
  5
32ED
330
2006
100
AcDbDictionary
280
     1
281
     1
  3
ACAD_XREC_ROUNDTRIP
360
32EE
  0
DICTIONARY
  5
32DD
330
1FFE
100
AcDbDictionary
280
     1
281
     1
  3
ACAD_XREC_ROUNDTRIP
360
32DE
  0
DICTIONARY
  5
32EF
330
2007
100
AcDbDictionary
280
     1
281
     1
  3
ACAD_XREC_ROUNDTRIP
360
32F0
  0
DICTIONARY
  5
32D5
330
1FFA
100
AcDbDictionary
280
     1
281
     1
  3
ACAD_XREC_ROUNDTRIP
360
32D6
  0
DICTIONARY
  5
32EB
330
2005
100
AcDbDictionary
280
     1
281
     1
  3
ACAD_XREC_ROUNDTRIP
360
32EC
  0
DICTIONARY
  5
32E9
330
2004
100
AcDbDictionary
280
     1
281
     1
  3
ACAD_XREC_ROUNDTRIP
360
32EA
  0
DICTIONARY
  5
32E3
330
2001
100
AcDbDictionary
280
     1
281
     1
  3
ACAD_XREC_ROUNDTRIP
360
32E4
  0
DICTIONARY
  5
32E5
330
2002
100
AcDbDictionary
280
     1
281
     1
  3
ACAD_XREC_ROUNDTRIP
360
32E6
  0
DICTIONARY
  5
32DB
330
1FFD
100
AcDbDictionary
280
     1
281
     1
  3
ACAD_XREC_ROUNDTRIP
360
32DC
  0
DICTIONARY
  5
32CF
330
1FF7
100
AcDbDictionary
280
     1
281
     1
  3
ACAD_XREC_ROUNDTRIP
360
32D0
  0
DICTIONARY
  5
32E7
330
2003
100
AcDbDictionary
280
     1
281
     1
  3
ACAD_XREC_ROUNDTRIP
360
32E8
  0
XRECORD
  5
32B3
102
{ACAD_REACTORS
330
32B9
102
}
330
32B9
100
AcDbXrecord
280
     1
  1
AcDb_Thumbnail_Schema
102
{ATTRRECORD
341
32B4
  2
AcDbDs::TreatedAsObjectData
280
     1
291
     1
102
ATTRRECORD}
102
{ATTRRECORD
341
32B5
  2
AcDbDs::Legacy
280
     1
291
     1
102
ATTRRECORD}
  2
AcDbDs::ID
280
    10
 91
        8
102
{ATTRRECORD
341
32B6
  2
AcDs:Indexable
280
     1
291
     1
102
ATTRRECORD}
102
{ATTRRECORD
341
32B7
  2
AcDbDs::HandleAttribute
280
     7
282
     1
102
ATTRRECORD}
  2
Thumbnail_Data
280
    15
 91
        0
  0
XRECORD
  5
32B4
102
{ACAD_REACTORS
330
32B9
102
}
330
32B9
100
AcDbXrecord
280
     1
  1
AcDbDs::TreatedAsObjectDataSchema
  2
AcDbDs::TreatedAsObjectData
280
     1
 91
        0
  0
XRECORD
  5
32B5
102
{ACAD_REACTORS
330
32B9
102
}
330
32B9
100
AcDbXrecord
280
     1
  1
AcDbDs::LegacySchema
  2
AcDbDs::Legacy
280
     1
 91
        0
  0
XRECORD
  5
32B6
102
{ACAD_REACTORS
330
32B9
102
}
330
32B9
100
AcDbXrecord
280
     1
  1
AcDbDs::IndexedPropertySchema
  2
AcDs:Indexable
280
     1
 91
        0
  0
XRECORD
  5
32B7
102
{ACAD_REACTORS
330
32B9
102
}
330
32B9
100
AcDbXrecord
280
     1
  1
AcDbDs::HandleAttributeSchema
  2
AcDbDs::HandleAttribute
280
     7
 91
        1
284
     1
  0
ACDBASSOCACTION
  5
268C
330
26BF
100
AcDbAssocAction
 90
        1
 90
        1
330
26BF
360
268D
 90
        2
 90
        3
 90
        3
360
268E
360
268F
360
2690
  0
XRECORD
  5
32F5
102
{ACAD_REACTORS
330
2089
102
}
330
2089
100
AcDbXrecord
280
     1
102
DISPLAYNAME
  1
Imperial24
102
FLAGS
 90
        0
  0
XRECORD
  5
32BE
102
{ACAD_REACTORS
330
32BD
102
}
330
32BD
100
AcDbXrecord
280
     1
102
SHADEPLOT
 70
     0
102
SHADEPLOTRESLEVEL
 70
     2
102
SHADEPLOTCUSTOMDPI
 70
   300
  0
XRECORD
  5
32BC
102
{ACAD_REACTORS
330
32BB
102
}
330
32BB
100
AcDbXrecord
280
     1
102
SHADEPLOT
 70
     0
102
SHADEPLOTRESLEVEL
 70
     2
102
SHADEPLOTCUSTOMDPI
 70
   300
  0
XRECORD
  5
32C1
102
{ACAD_REACTORS
330
1FE1
102
}
330
1FE1
100
AcDbXrecord
280
     1
102
MATERIAL
148
0.0
149
0.0
149
0.0
 93
        0
 94
      127
282
     0
 72
     0
 77
     0
171
     0
175
     0
179
     0
273
     0
  0
XRECORD
  5
1FE3
102
{ACAD_REACTORS
330
1FE1
102
}
330
1FE1
100
AcDbXrecord
280
     1
270
     1
271
     1
  0
XRECORD
  5
1FE2
102
{ACAD_REACTORS
330
1FE1
102
}
330
1FE1
100
AcDbXrecord
280
     1
270
     1
271
     1
  0
XRECORD
  5
1FE6
102
{ACAD_REACTORS
330
1FE1
102
}
330
1FE1
100
AcDbXrecord
280
     1
270
     1
271
     1
  0
XRECORD
  5
1FE5
102
{ACAD_REACTORS
330
1FE1
102
}
330
1FE1
100
AcDbXrecord
280
     1
270
     1
271
     1
  0
XRECORD
  5
1FE7
102
{ACAD_REACTORS
330
1FE1
102
}
330
1FE1
100
AcDbXrecord
280
     1
270
     1
271
     1
  0
XRECORD
  5
1FE4
102
{ACAD_REACTORS
330
1FE1
102
}
330
1FE1
100
AcDbXrecord
280
     1
270
     1
271
     1
  0
XRECORD
  5
32C0
102
{ACAD_REACTORS
330
1FD9
102
}
330
1FD9
100
AcDbXrecord
280
     1
102
MATERIAL
148
0.0
149
0.0
149
0.0
 93
        0
 94
      127
282
     0
 72
     0
 77
     0
171
     0
175
     0
179
     0
273
     0
  0
XRECORD
  5
1FDB
102
{ACAD_REACTORS
330
1FD9
102
}
330
1FD9
100
AcDbXrecord
280
     1
270
     1
271
     1
  0
XRECORD
  5
1FDA
102
{ACAD_REACTORS
330
1FD9
102
}
330
1FD9
100
AcDbXrecord
280
     1
270
     1
271
     1
  0
XRECORD
  5
1FDE
102
{ACAD_REACTORS
330
1FD9
102
}
330
1FD9
100
AcDbXrecord
280
     1
270
     1
271
     1
  0
XRECORD
  5
1FDD
102
{ACAD_REACTORS
330
1FD9
102
}
330
1FD9
100
AcDbXrecord
280
     1
270
     1
271
     1
  0
XRECORD
  5
1FDF
102
{ACAD_REACTORS
330
1FD9
102
}
330
1FD9
100
AcDbXrecord
280
     1
270
     1
271
     1
  0
XRECORD
  5
1FDC
102
{ACAD_REACTORS
330
1FD9
102
}
330
1FD9
100
AcDbXrecord
280
     1
270
     1
271
     1
  0
XRECORD
  5
32C2
102
{ACAD_REACTORS
330
1FE9
102
}
330
1FE9
100
AcDbXrecord
280
     1
102
MATERIAL
148
0.0
149
0.0
149
0.0
 93
        0
 94
      127
282
     0
 72
     0
 77
     0
171
     0
175
     0
179
     0
273
     0
  0
XRECORD
  5
1FEB
102
{ACAD_REACTORS
330
1FE9
102
}
330
1FE9
100
AcDbXrecord
280
     1
270
     1
271
     1
  0
XRECORD
  5
1FEA
102
{ACAD_REACTORS
330
1FE9
102
}
330
1FE9
100
AcDbXrecord
280
     1
270
     1
271
     1
  0
XRECORD
  5
1FEE
102
{ACAD_REACTORS
330
1FE9
102
}
330
1FE9
100
AcDbXrecord
280
     1
270
     1
271
     1
  0
XRECORD
  5
1FED
102
{ACAD_REACTORS
330
1FE9
102
}
330
1FE9
100
AcDbXrecord
280
     1
270
     1
271
     1
  0
XRECORD
  5
1FEF
102
{ACAD_REACTORS
330
1FE9
102
}
330
1FE9
100
AcDbXrecord
280
     1
270
     1
271
     1
  0
XRECORD
  5
1FEC
102
{ACAD_REACTORS
330
1FE9
102
}
330
1FE9
100
AcDbXrecord
280
     1
270
     1
271
     1
  0
XRECORD
  5
32F4
102
{ACAD_REACTORS
330
2087
102
}
330
2087
100
AcDbXrecord
280
     1
102
DISPLAYNAME
  1
Imperial24
102
FLAGS
 90
        0
  0
CELLSTYLEMAP
  5
32AF
102
{ACAD_REACTORS
330
32AE
102
}
330
32AE
100
AcDbCellStyleMap
 90
        3
300
CELLSTYLE
  1
TABLEFORMAT_BEGIN
 90
        5
170
     1
 91
        0
 92
    32768
 62
   257
 93
        1
300
CONTENTFORMAT
  1
CONTENTFORMAT_BEGIN
 90
        0
 91
        0
 92
        4
 93
        0
300

 40
0.0
140
1.0
 94
        5
 62
     0
340
11
144
0.25
309
CONTENTFORMAT_END
171
     0
 94
        6
 95
        1
302
GRIDFORMAT
  1
GRIDFORMAT_BEGIN
 90
        0
 91
        1
 62
     0
 92
       -2
340
0
 93
        0
 40
0.045
309
GRIDFORMAT_END
 95
        2
302
GRIDFORMAT
  1
GRIDFORMAT_BEGIN
 90
        0
 91
        1
 62
     0
 92
       -2
340
0
 93
        0
 40
0.045
309
GRIDFORMAT_END
 95
        4
302
GRIDFORMAT
  1
GRIDFORMAT_BEGIN
 90
        0
 91
        1
 62
     0
 92
       -2
340
0
 93
        0
 40
0.045
309
GRIDFORMAT_END
 95
        8
302
GRIDFORMAT
  1
GRIDFORMAT_BEGIN
 90
        0
 91
        1
 62
     0
 92
       -2
340
0
 93
        0
 40
0.045
309
GRIDFORMAT_END
 95
       16
302
GRIDFORMAT
  1
GRIDFORMAT_BEGIN
 90
        0
 91
        1
 62
     0
 92
       -2
340
0
 93
        0
 40
0.045
309
GRIDFORMAT_END
 95
       32
302
GRIDFORMAT
  1
GRIDFORMAT_BEGIN
 90
        0
 91
        1
 62
     0
 92
       -2
340
0
 93
        0
 40
0.045
309
GRIDFORMAT_END
309
TABLEFORMAT_END
  1
CELLSTYLE_BEGIN
 90
        1
 91
        1
300
_TITLE
309
CELLSTYLE_END
300
CELLSTYLE
  1
TABLEFORMAT_BEGIN
 90
        5
170
     1
 91
        0
 92
        0
 62
   257
 93
        1
300
CONTENTFORMAT
  1
CONTENTFORMAT_BEGIN
 90
        0
 91
        0
 92
        4
 93
        0
300

 40
0.0
140
1.0
 94
        5
 62
     0
340
11
144
0.18
309
CONTENTFORMAT_END
171
     0
 94
        6
 95
        1
302
GRIDFORMAT
  1
GRIDFORMAT_BEGIN
 90
        0
 91
        1
 62
     0
 92
       -2
340
0
 93
        0
 40
0.045
309
GRIDFORMAT_END
 95
        2
302
GRIDFORMAT
  1
GRIDFORMAT_BEGIN
 90
        0
 91
        1
 62
     0
 92
       -2
340
0
 93
        0
 40
0.045
309
GRIDFORMAT_END
 95
        4
302
GRIDFORMAT
  1
GRIDFORMAT_BEGIN
 90
        0
 91
        1
 62
     0
 92
       -2
340
0
 93
        0
 40
0.045
309
GRIDFORMAT_END
 95
        8
302
GRIDFORMAT
  1
GRIDFORMAT_BEGIN
 90
        0
 91
        1
 62
     0
 92
       -2
340
0
 93
        0
 40
0.045
309
GRIDFORMAT_END
 95
       16
302
GRIDFORMAT
  1
GRIDFORMAT_BEGIN
 90
        0
 91
        1
 62
     0
 92
       -2
340
0
 93
        0
 40
0.045
309
GRIDFORMAT_END
 95
       32
302
GRIDFORMAT
  1
GRIDFORMAT_BEGIN
 90
        0
 91
        1
 62
     0
 92
       -2
340
0
 93
        0
 40
0.045
309
GRIDFORMAT_END
309
TABLEFORMAT_END
  1
CELLSTYLE_BEGIN
 90
        2
 91
        1
300
_HEADER
309
CELLSTYLE_END
300
CELLSTYLE
  1
TABLEFORMAT_BEGIN
 90
        5
170
     1
 91
        0
 92
        0
 62
   257
 93
        1
300
CONTENTFORMAT
  1
CONTENTFORMAT_BEGIN
 90
        0
 91
        0
 92
        4
 93
        0
300

 40
0.0
140
1.0
 94
        2
 62
     0
340
11
144
0.18
309
CONTENTFORMAT_END
171
     0
 94
        6
 95
        1
302
GRIDFORMAT
  1
GRIDFORMAT_BEGIN
 90
        0
 91
        1
 62
     0
 92
       -2
340
0
 93
        0
 40
0.045
309
GRIDFORMAT_END
 95
        2
302
GRIDFORMAT
  1
GRIDFORMAT_BEGIN
 90
        0
 91
        1
 62
     0
 92
       -2
340
0
 93
        0
 40
0.045
309
GRIDFORMAT_END
 95
        4
302
GRIDFORMAT
  1
GRIDFORMAT_BEGIN
 90
        0
 91
        1
 62
     0
 92
       -2
340
0
 93
        0
 40
0.045
309
GRIDFORMAT_END
 95
        8
302
GRIDFORMAT
  1
GRIDFORMAT_BEGIN
 90
        0
 91
        1
 62
     0
 92
       -2
340
0
 93
        0
 40
0.045
309
GRIDFORMAT_END
 95
       16
302
GRIDFORMAT
  1
GRIDFORMAT_BEGIN
 90
        0
 91
        1
 62
     0
 92
       -2
340
0
 93
        0
 40
0.045
309
GRIDFORMAT_END
 95
       32
302
GRIDFORMAT
  1
GRIDFORMAT_BEGIN
 90
        0
 91
        1
 62
     0
 92
       -2
340
0
 93
        0
 40
0.045
309
GRIDFORMAT_END
309
TABLEFORMAT_END
  1
CELLSTYLE_BEGIN
 90
        3
 91
        2
300
_DATA
309
CELLSTYLE_END
  0
XRECORD
  5
32BF
102
{ACAD_REACTORS
330
32AE
102
}
330
32AE
100
AcDbXrecord
280
     1
102
ACAD_ROUNDTRIP_PRE2007_TABLESTYLE
 90
        4
 91
        0
  1

 92
        4
 93
        0
  2

 94
        4
 95
        0
  3

  0
XRECORD
  5
32CE
102
{ACAD_REACTORS
330
32CD
102
}
330
32CD
100
AcDbXrecord
280
     1
102
RTVSPost2010Prop28
280
     1
102
RTVSPost2010PropOp28
 70
     1
102
RTVSPost2010Prop29
280
     1
102
RTVSPost2010PropOp29
 70
     1
102
RTVSPost2010Prop30
280
     0
102
RTVSPost2010PropOp30
 70
     1
102
RTVSPost2010Prop31
280
     0
102
RTVSPost2010PropOp31
 70
     1
102
RTVSPost2010Prop32
280
     0
102
RTVSPost2010PropOp32
 70
     1
102
RTVSPost2010Prop33
280
     0
102
RTVSPost2010PropOp33
 70
     1
102
RTVSPost2010Prop34
280
     0
102
RTVSPost2010PropOp34
 70
     1
102
RTVSPost2010Prop35
280
     0
102
RTVSPost2010PropOp35
 70
     1
102
RTVSPost2010Prop36
280
     0
102
RTVSPost2010PropOp36
 70
     1
102
RTVSPost2010Prop37
 90
       50
102
RTVSPost2010PropOp37
 70
     1
102
RTVSPost2010Prop38
140
0.0
102
RTVSPost2010PropOp38
 70
     1
102
RTVSPost2010Prop39
140
1.0
102
RTVSPost2010PropOp39
 70
     1
102
RTVSPost2010Prop40
 90
        0
102
RTVSPost2010PropOp40
 70
     1
102
RTVSPost2010Prop41ColorIndex
 90
       18
102
RTVSPost2010Prop41ColorRGB
 90
        0
102
RTVSPost2010PropOp41
 70
     1
102
RTVSPost2010Prop42
 90
       50
102
RTVSPost2010PropOp42
 70
     1
102
RTVSPost2010Prop43
 90
        3
102
RTVSPost2010PropOp43
 70
     1
102
RTVSPost2010Prop44ColorIndex
 90
        5
102
RTVSPost2010Prop44ColorRGB
 90
      255
102
RTVSPost2010PropOp44
 70
     1
102
RTVSPost2010Prop45
280
     0
102
RTVSPost2010PropOp45
 70
     1
102
RTVSPost2010Prop46
 90
       50
102
RTVSPost2010PropOp46
 70
     1
102
RTVSPost2010Prop47
 90
       50
102
RTVSPost2010PropOp47
 70
     1
102
RTVSPost2010Prop48
 90
       50
102
RTVSPost2010PropOp48
 70
     1
102
RTVSPost2010Prop49
280
     0
102
RTVSPost2010PropOp49
 70
     1
102
RTVSPost2010Prop50
 90
       50
102
RTVSPost2010PropOp50
 70
     1
102
RTVSPost2010Prop51ColorIndex
 90
      256
102
RTVSPost2010Prop51ColorRGB
 90
-16777216
102
RTVSPost2010PropOp51
 70
     0
102
RTVSPost2010Prop52
140
1.0
102
RTVSPost2010PropOp52
 70
     0
102
RTVSPost2010Prop53
 90
        2
102
RTVSPost2010PropOp53
 70
     1
102
RTVSPost2010Prop54
  1
strokes_ogs.tif
102
RTVSPost2010PropOp54
 70
     1
102
RTVSPost2010Prop55
280
     0
102
RTVSPost2010PropOp55
 70
     1
102
RTVSPost2010Prop56
140
1.0
102
RTVSPost2010PropOp56
 70
     1
102
RTVSPost2010Prop57
140
1.0
102
RTVSPost2010PropOp57
 70
     1
102
RTVSPropertyOp0
 70
     1
102
RTVSPropertyOp1
 70
     1
102
RTVSPropertyOp2
 70
     1
102
RTVSPropertyOp3
 70
     1
102
RTVSPropertyOp4
 70
     1
102
RTVSPropertyOp5
 70
     1
102
RTVSPropertyOp6
 70
     1
102
RTVSPropertyOp7
 70
     1
102
RTVSPropertyOp8
 70
     1
102
RTVSPropertyOp9
 70
     1
102
RTVSPropertyOp10
 70
     1
102
RTVSPropertyOp11
 70
     1
102
RTVSPropertyOp12
 70
     1
102
RTVSPropertyOp13
 70
     1
102
RTVSPropertyOp14
 70
     1
102
RTVSPropertyOp15
 70
     1
102
RTVSPropertyOp16
 70
     1
102
RTVSPropertyOp17
 70
     1
102
RTVSPropertyOp18
 70
     1
102
RTVSPropertyOp19
 70
     1
102
RTVSPropertyOp20
 70
     1
102
RTVSPropertyOp21
 70
     1
102
RTVSPropertyOp22
 70
     1
102
RTVSPropertyOp23
 70
     1
102
RTVSPropertyOp24
 70
     1
102
RTVSPropertyOp25
 70
     1
102
RTVSPropertyOp26
 70
     1
102
RTVSPropertyOp27
 70
     1
102
RTVSPropertyOp28
 70
     1
102
RTVSPropertyOp29
 70
     1
102
RTVSPropertyOp30
 70
     1
102
RTVSPropertyOp31
 70
     1
102
RTVSPropertyOp32
 70
     1
102
RTVSPropertyOp33
 70
     1
102
RTVSPropertyOp34
 70
     1
102
RTVSPropertyOp35
 70
     1
102
RTVSPropertyOp36
 70
     1
102
RTVSPropertyOp37
 70
     1
102
RTVSPropertyOp38
 70
     1
102
RTVSPropertyOp39
 70
     1
102
RTVSPropertyOp40
 70
     1
102
RTVSPropertyOp41
 70
     1
102
RTVSPropertyOp42
 70
     1
102
RTVSPropertyOp43
 70
     1
102
RTVSPropertyOp44
 70
     1
102
RTVSPropertyOp45
 70
     1
102
RTVSPropertyOp46
 70
     1
102
RTVSPropertyOp47
 70
     1
102
RTVSPropertyOp48
 70
     1
102
RTVSPropertyOp49
 70
     1
102
RTVSPropertyOp50
 70
     1
102
RTVSPropertyOp51
 70
     0
102
RTVSPropertyOp52
 70
     0
102
RTVSPropertyOp53
 70
     1
102
RTVSPropertyOp54
 70
     1
102
RTVSPropertyOp55
 70
     1
102
RTVSPropertyOp56
 70
     1
102
RTVSPropertyOp57
 70
     1
102
RTVSPropertyOp58
 70
     1
102
RTVSPropertyOp59
 70
     1
102
RTVSPropertyOp60
 70
     1
102
RTVSPropertyOp61
 70
     1
102
RTVSPropertyOp62
 70
     1
  0
XRECORD
  5
32CC
102
{ACAD_REACTORS
330
32CB
102
}
330
32CB
100
AcDbXrecord
280
     1
102
RTVSPost2010Prop28
280
     0
102
RTVSPost2010PropOp28
 70
     1
102
RTVSPost2010Prop29
280
     1
102
RTVSPost2010PropOp29
 70
     1
102
RTVSPost2010Prop30
280
     1
102
RTVSPost2010PropOp30
 70
     1
102
RTVSPost2010Prop31
280
     0
102
RTVSPost2010PropOp31
 70
     1
102
RTVSPost2010Prop32
280
     0
102
RTVSPost2010PropOp32
 70
     1
102
RTVSPost2010Prop33
280
     0
102
RTVSPost2010PropOp33
 70
     1
102
RTVSPost2010Prop34
280
     0
102
RTVSPost2010PropOp34
 70
     1
102
RTVSPost2010Prop35
280
     0
102
RTVSPost2010PropOp35
 70
     1
102
RTVSPost2010Prop36
280
     0
102
RTVSPost2010PropOp36
 70
     1
102
RTVSPost2010Prop37
 90
       50
102
RTVSPost2010PropOp37
 70
     1
102
RTVSPost2010Prop38
140
0.0
102
RTVSPost2010PropOp38
 70
     1
102
RTVSPost2010Prop39
140
1.0
102
RTVSPost2010PropOp39
 70
     1
102
RTVSPost2010Prop40
 90
        0
102
RTVSPost2010PropOp40
 70
     1
102
RTVSPost2010Prop41ColorIndex
 90
       18
102
RTVSPost2010Prop41ColorRGB
 90
        0
102
RTVSPost2010PropOp41
 70
     1
102
RTVSPost2010Prop42
 90
       50
102
RTVSPost2010PropOp42
 70
     1
102
RTVSPost2010Prop43
 90
        3
102
RTVSPost2010PropOp43
 70
     1
102
RTVSPost2010Prop44ColorIndex
 90
        5
102
RTVSPost2010Prop44ColorRGB
 90
      255
102
RTVSPost2010PropOp44
 70
     1
102
RTVSPost2010Prop45
280
     0
102
RTVSPost2010PropOp45
 70
     1
102
RTVSPost2010Prop46
 90
       50
102
RTVSPost2010PropOp46
 70
     1
102
RTVSPost2010Prop47
 90
       50
102
RTVSPost2010PropOp47
 70
     1
102
RTVSPost2010Prop48
 90
       50
102
RTVSPost2010PropOp48
 70
     1
102
RTVSPost2010Prop49
280
     0
102
RTVSPost2010PropOp49
 70
     1
102
RTVSPost2010Prop50
 90
       50
102
RTVSPost2010PropOp50
 70
     1
102
RTVSPost2010Prop51ColorIndex
 90
      256
102
RTVSPost2010Prop51ColorRGB
 90
-16777216
102
RTVSPost2010PropOp51
 70
     0
102
RTVSPost2010Prop52
140
1.0
102
RTVSPost2010PropOp52
 70
     0
102
RTVSPost2010Prop53
 90
        2
102
RTVSPost2010PropOp53
 70
     1
102
RTVSPost2010Prop54
  1
strokes_ogs.tif
102
RTVSPost2010PropOp54
 70
     1
102
RTVSPost2010Prop55
280
     0
102
RTVSPost2010PropOp55
 70
     1
102
RTVSPost2010Prop56
140
1.0
102
RTVSPost2010PropOp56
 70
     1
102
RTVSPost2010Prop57
140
1.0
102
RTVSPost2010PropOp57
 70
     1
102
RTVSPropertyOp0
 70
     1
102
RTVSPropertyOp1
 70
     1
102
RTVSPropertyOp2
 70
     1
102
RTVSPropertyOp3
 70
     1
102
RTVSPropertyOp4
 70
     1
102
RTVSPropertyOp5
 70
     1
102
RTVSPropertyOp6
 70
     1
102
RTVSPropertyOp7
 70
     1
102
RTVSPropertyOp8
 70
     1
102
RTVSPropertyOp9
 70
     1
102
RTVSPropertyOp10
 70
     1
102
RTVSPropertyOp11
 70
     1
102
RTVSPropertyOp12
 70
     1
102
RTVSPropertyOp13
 70
     1
102
RTVSPropertyOp14
 70
     1
102
RTVSPropertyOp15
 70
     1
102
RTVSPropertyOp16
 70
     1
102
RTVSPropertyOp17
 70
     1
102
RTVSPropertyOp18
 70
     1
102
RTVSPropertyOp19
 70
     1
102
RTVSPropertyOp20
 70
     1
102
RTVSPropertyOp21
 70
     1
102
RTVSPropertyOp22
 70
     1
102
RTVSPropertyOp23
 70
     1
102
RTVSPropertyOp24
 70
     1
102
RTVSPropertyOp25
 70
     1
102
RTVSPropertyOp26
 70
     1
102
RTVSPropertyOp27
 70
     1
102
RTVSPropertyOp28
 70
     1
102
RTVSPropertyOp29
 70
     1
102
RTVSPropertyOp30
 70
     1
102
RTVSPropertyOp31
 70
     1
102
RTVSPropertyOp32
 70
     1
102
RTVSPropertyOp33
 70
     1
102
RTVSPropertyOp34
 70
     1
102
RTVSPropertyOp35
 70
     1
102
RTVSPropertyOp36
 70
     1
102
RTVSPropertyOp37
 70
     1
102
RTVSPropertyOp38
 70
     1
102
RTVSPropertyOp39
 70
     1
102
RTVSPropertyOp40
 70
     1
102
RTVSPropertyOp41
 70
     1
102
RTVSPropertyOp42
 70
     1
102
RTVSPropertyOp43
 70
     1
102
RTVSPropertyOp44
 70
     1
102
RTVSPropertyOp45
 70
     1
102
RTVSPropertyOp46
 70
     1
102
RTVSPropertyOp47
 70
     1
102
RTVSPropertyOp48
 70
     1
102
RTVSPropertyOp49
 70
     1
102
RTVSPropertyOp50
 70
     1
102
RTVSPropertyOp51
 70
     0
102
RTVSPropertyOp52
 70
     0
102
RTVSPropertyOp53
 70
     1
102
RTVSPropertyOp54
 70
     1
102
RTVSPropertyOp55
 70
     1
102
RTVSPropertyOp56
 70
     1
102
RTVSPropertyOp57
 70
     1
102
RTVSPropertyOp58
 70
     1
102
RTVSPropertyOp59
 70
     1
102
RTVSPropertyOp60
 70
     1
102
RTVSPropertyOp61
 70
     1
102
RTVSPropertyOp62
 70
     1
  0
XRECORD
  5
32DA
102
{ACAD_REACTORS
330
32D9
102
}
330
32D9
100
AcDbXrecord
280
     1
102
RTVSPost2010Prop28
280
     0
102
RTVSPost2010PropOp28
 70
     1
102
RTVSPost2010Prop29
280
     1
102
RTVSPost2010PropOp29
 70
     1
102
RTVSPost2010Prop30
280
     1
102
RTVSPost2010PropOp30
 70
     1
102
RTVSPost2010Prop31
280
     0
102
RTVSPost2010PropOp31
 70
     1
102
RTVSPost2010Prop32
280
     0
102
RTVSPost2010PropOp32
 70
     1
102
RTVSPost2010Prop33
280
     0
102
RTVSPost2010PropOp33
 70
     1
102
RTVSPost2010Prop34
280
     0
102
RTVSPost2010PropOp34
 70
     1
102
RTVSPost2010Prop35
280
     0
102
RTVSPost2010PropOp35
 70
     1
102
RTVSPost2010Prop36
280
     0
102
RTVSPost2010PropOp36
 70
     1
102
RTVSPost2010Prop37
 90
       50
102
RTVSPost2010PropOp37
 70
     1
102
RTVSPost2010Prop38
140
0.0
102
RTVSPost2010PropOp38
 70
     1
102
RTVSPost2010Prop39
140
1.0
102
RTVSPost2010PropOp39
 70
     1
102
RTVSPost2010Prop40
 90
        0
102
RTVSPost2010PropOp40
 70
     1
102
RTVSPost2010Prop41ColorIndex
 90
       18
102
RTVSPost2010Prop41ColorRGB
 90
        0
102
RTVSPost2010PropOp41
 70
     1
102
RTVSPost2010Prop42
 90
       50
102
RTVSPost2010PropOp42
 70
     1
102
RTVSPost2010Prop43
 90
        3
102
RTVSPost2010PropOp43
 70
     1
102
RTVSPost2010Prop44ColorIndex
 90
        5
102
RTVSPost2010Prop44ColorRGB
 90
      255
102
RTVSPost2010PropOp44
 70
     1
102
RTVSPost2010Prop45
280
     0
102
RTVSPost2010PropOp45
 70
     1
102
RTVSPost2010Prop46
 90
       50
102
RTVSPost2010PropOp46
 70
     1
102
RTVSPost2010Prop47
 90
       50
102
RTVSPost2010PropOp47
 70
     1
102
RTVSPost2010Prop48
 90
       50
102
RTVSPost2010PropOp48
 70
     1
102
RTVSPost2010Prop49
280
     0
102
RTVSPost2010PropOp49
 70
     1
102
RTVSPost2010Prop50
 90
       50
102
RTVSPost2010PropOp50
 70
     1
102
RTVSPost2010Prop51ColorIndex
 90
      256
102
RTVSPost2010Prop51ColorRGB
 90
-16777216
102
RTVSPost2010PropOp51
 70
     0
102
RTVSPost2010Prop52
140
1.0
102
RTVSPost2010PropOp52
 70
     0
102
RTVSPost2010Prop53
 90
        2
102
RTVSPost2010PropOp53
 70
     1
102
RTVSPost2010Prop54
  1
strokes_ogs.tif
102
RTVSPost2010PropOp54
 70
     1
102
RTVSPost2010Prop55
280
     0
102
RTVSPost2010PropOp55
 70
     1
102
RTVSPost2010Prop56
140
1.0
102
RTVSPost2010PropOp56
 70
     1
102
RTVSPost2010Prop57
140
1.0
102
RTVSPost2010PropOp57
 70
     1
102
RTVSPropertyOp0
 70
     1
102
RTVSPropertyOp1
 70
     1
102
RTVSPropertyOp2
 70
     1
102
RTVSPropertyOp3
 70
     1
102
RTVSPropertyOp4
 70
     1
102
RTVSPropertyOp5
 70
     1
102
RTVSPropertyOp6
 70
     1
102
RTVSPropertyOp7
 70
     1
102
RTVSPropertyOp8
 70
     1
102
RTVSPropertyOp9
 70
     1
102
RTVSPropertyOp10
 70
     1
102
RTVSPropertyOp11
 70
     1
102
RTVSPropertyOp12
 70
     1
102
RTVSPropertyOp13
 70
     1
102
RTVSPropertyOp14
 70
     1
102
RTVSPropertyOp15
 70
     1
102
RTVSPropertyOp16
 70
     1
102
RTVSPropertyOp17
 70
     1
102
RTVSPropertyOp18
 70
     1
102
RTVSPropertyOp19
 70
     1
102
RTVSPropertyOp20
 70
     1
102
RTVSPropertyOp21
 70
     1
102
RTVSPropertyOp22
 70
     1
102
RTVSPropertyOp23
 70
     1
102
RTVSPropertyOp24
 70
     1
102
RTVSPropertyOp25
 70
     1
102
RTVSPropertyOp26
 70
     1
102
RTVSPropertyOp27
 70
     1
102
RTVSPropertyOp28
 70
     1
102
RTVSPropertyOp29
 70
     1
102
RTVSPropertyOp30
 70
     1
102
RTVSPropertyOp31
 70
     1
102
RTVSPropertyOp32
 70
     1
102
RTVSPropertyOp33
 70
     1
102
RTVSPropertyOp34
 70
     1
102
RTVSPropertyOp35
 70
     1
102
RTVSPropertyOp36
 70
     1
102
RTVSPropertyOp37
 70
     1
102
RTVSPropertyOp38
 70
     1
102
RTVSPropertyOp39
 70
     1
102
RTVSPropertyOp40
 70
     1
102
RTVSPropertyOp41
 70
     1
102
RTVSPropertyOp42
 70
     1
102
RTVSPropertyOp43
 70
     1
102
RTVSPropertyOp44
 70
     1
102
RTVSPropertyOp45
 70
     1
102
RTVSPropertyOp46
 70
     1
102
RTVSPropertyOp47
 70
     1
102
RTVSPropertyOp48
 70
     1
102
RTVSPropertyOp49
 70
     1
102
RTVSPropertyOp50
 70
     1
102
RTVSPropertyOp51
 70
     0
102
RTVSPropertyOp52
 70
     0
102
RTVSPropertyOp53
 70
     1
102
RTVSPropertyOp54
 70
     1
102
RTVSPropertyOp55
 70
     1
102
RTVSPropertyOp56
 70
     1
102
RTVSPropertyOp57
 70
     1
102
RTVSPropertyOp58
 70
     1
102
RTVSPropertyOp59
 70
     1
102
RTVSPropertyOp60
 70
     1
102
RTVSPropertyOp61
 70
     1
102
RTVSPropertyOp62
 70
     1
  0
XRECORD
  5
32E2
102
{ACAD_REACTORS
330
32E1
102
}
330
32E1
100
AcDbXrecord
280
     1
102
RTVSPost2010Prop28
280
     0
102
RTVSPost2010PropOp28
 70
     1
102
RTVSPost2010Prop29
280
     1
102
RTVSPost2010PropOp29
 70
     1
102
RTVSPost2010Prop30
280
     1
102
RTVSPost2010PropOp30
 70
     1
102
RTVSPost2010Prop31
280
     0
102
RTVSPost2010PropOp31
 70
     1
102
RTVSPost2010Prop32
280
     0
102
RTVSPost2010PropOp32
 70
     1
102
RTVSPost2010Prop33
280
     0
102
RTVSPost2010PropOp33
 70
     1
102
RTVSPost2010Prop34
280
     0
102
RTVSPost2010PropOp34
 70
     1
102
RTVSPost2010Prop35
280
     0
102
RTVSPost2010PropOp35
 70
     1
102
RTVSPost2010Prop36
280
     0
102
RTVSPost2010PropOp36
 70
     1
102
RTVSPost2010Prop37
 90
       50
102
RTVSPost2010PropOp37
 70
     1
102
RTVSPost2010Prop38
140
0.0
102
RTVSPost2010PropOp38
 70
     1
102
RTVSPost2010Prop39
140
1.0
102
RTVSPost2010PropOp39
 70
     1
102
RTVSPost2010Prop40
 90
        0
102
RTVSPost2010PropOp40
 70
     1
102
RTVSPost2010Prop41ColorIndex
 90
       18
102
RTVSPost2010Prop41ColorRGB
 90
        0
102
RTVSPost2010PropOp41
 70
     1
102
RTVSPost2010Prop42
 90
       50
102
RTVSPost2010PropOp42
 70
     1
102
RTVSPost2010Prop43
 90
        3
102
RTVSPost2010PropOp43
 70
     1
102
RTVSPost2010Prop44ColorIndex
 90
        5
102
RTVSPost2010Prop44ColorRGB
 90
      255
102
RTVSPost2010PropOp44
 70
     1
102
RTVSPost2010Prop45
280
     0
102
RTVSPost2010PropOp45
 70
     1
102
RTVSPost2010Prop46
 90
       50
102
RTVSPost2010PropOp46
 70
     1
102
RTVSPost2010Prop47
 90
       50
102
RTVSPost2010PropOp47
 70
     1
102
RTVSPost2010Prop48
 90
       50
102
RTVSPost2010PropOp48
 70
     1
102
RTVSPost2010Prop49
280
     0
102
RTVSPost2010PropOp49
 70
     1
102
RTVSPost2010Prop50
 90
       50
102
RTVSPost2010PropOp50
 70
     1
102
RTVSPost2010Prop51ColorIndex
 90
      256
102
RTVSPost2010Prop51ColorRGB
 90
-16777216
102
RTVSPost2010PropOp51
 70
     0
102
RTVSPost2010Prop52
140
1.0
102
RTVSPost2010PropOp52
 70
     0
102
RTVSPost2010Prop53
 90
        2
102
RTVSPost2010PropOp53
 70
     1
102
RTVSPost2010Prop54
  1
strokes_ogs.tif
102
RTVSPost2010PropOp54
 70
     1
102
RTVSPost2010Prop55
280
     0
102
RTVSPost2010PropOp55
 70
     1
102
RTVSPost2010Prop56
140
1.0
102
RTVSPost2010PropOp56
 70
     1
102
RTVSPost2010Prop57
140
1.0
102
RTVSPost2010PropOp57
 70
     1
102
RTVSPropertyOp0
 70
     1
102
RTVSPropertyOp1
 70
     1
102
RTVSPropertyOp2
 70
     1
102
RTVSPropertyOp3
 70
     1
102
RTVSPropertyOp4
 70
     1
102
RTVSPropertyOp5
 70
     1
102
RTVSPropertyOp6
 70
     1
102
RTVSPropertyOp7
 70
     1
102
RTVSPropertyOp8
 70
     1
102
RTVSPropertyOp9
 70
     1
102
RTVSPropertyOp10
 70
     1
102
RTVSPropertyOp11
 70
     1
102
RTVSPropertyOp12
 70
     1
102
RTVSPropertyOp13
 70
     1
102
RTVSPropertyOp14
 70
     1
102
RTVSPropertyOp15
 70
     1
102
RTVSPropertyOp16
 70
     1
102
RTVSPropertyOp17
 70
     1
102
RTVSPropertyOp18
 70
     1
102
RTVSPropertyOp19
 70
     1
102
RTVSPropertyOp20
 70
     1
102
RTVSPropertyOp21
 70
     1
102
RTVSPropertyOp22
 70
     1
102
RTVSPropertyOp23
 70
     1
102
RTVSPropertyOp24
 70
     1
102
RTVSPropertyOp25
 70
     1
102
RTVSPropertyOp26
 70
     1
102
RTVSPropertyOp27
 70
     1
102
RTVSPropertyOp28
 70
     1
102
RTVSPropertyOp29
 70
     1
102
RTVSPropertyOp30
 70
     1
102
RTVSPropertyOp31
 70
     1
102
RTVSPropertyOp32
 70
     1
102
RTVSPropertyOp33
 70
     1
102
RTVSPropertyOp34
 70
     1
102
RTVSPropertyOp35
 70
     1
102
RTVSPropertyOp36
 70
     1
102
RTVSPropertyOp37
 70
     1
102
RTVSPropertyOp38
 70
     1
102
RTVSPropertyOp39
 70
     1
102
RTVSPropertyOp40
 70
     1
102
RTVSPropertyOp41
 70
     1
102
RTVSPropertyOp42
 70
     1
102
RTVSPropertyOp43
 70
     1
102
RTVSPropertyOp44
 70
     1
102
RTVSPropertyOp45
 70
     1
102
RTVSPropertyOp46
 70
     1
102
RTVSPropertyOp47
 70
     1
102
RTVSPropertyOp48
 70
     1
102
RTVSPropertyOp49
 70
     1
102
RTVSPropertyOp50
 70
     1
102
RTVSPropertyOp51
 70
     0
102
RTVSPropertyOp52
 70
     0
102
RTVSPropertyOp53
 70
     1
102
RTVSPropertyOp54
 70
     1
102
RTVSPropertyOp55
 70
     1
102
RTVSPropertyOp56
 70
     1
102
RTVSPropertyOp57
 70
     1
102
RTVSPropertyOp58
 70
     1
102
RTVSPropertyOp59
 70
     1
102
RTVSPropertyOp60
 70
     1
102
RTVSPropertyOp61
 70
     1
102
RTVSPropertyOp62
 70
     1
  0
XRECORD
  5
32D4
102
{ACAD_REACTORS
330
32D3
102
}
330
32D3
100
AcDbXrecord
280
     1
102
RTVSPost2010Prop28
280
     0
102
RTVSPost2010PropOp28
 70
     1
102
RTVSPost2010Prop29
280
     1
102
RTVSPost2010PropOp29
 70
     1
102
RTVSPost2010Prop30
280
     1
102
RTVSPost2010PropOp30
 70
     1
102
RTVSPost2010Prop31
280
     0
102
RTVSPost2010PropOp31
 70
     1
102
RTVSPost2010Prop32
280
     0
102
RTVSPost2010PropOp32
 70
     1
102
RTVSPost2010Prop33
280
     0
102
RTVSPost2010PropOp33
 70
     1
102
RTVSPost2010Prop34
280
     0
102
RTVSPost2010PropOp34
 70
     1
102
RTVSPost2010Prop35
280
     0
102
RTVSPost2010PropOp35
 70
     1
102
RTVSPost2010Prop36
280
     0
102
RTVSPost2010PropOp36
 70
     1
102
RTVSPost2010Prop37
 90
       50
102
RTVSPost2010PropOp37
 70
     1
102
RTVSPost2010Prop38
140
0.0
102
RTVSPost2010PropOp38
 70
     1
102
RTVSPost2010Prop39
140
1.0
102
RTVSPost2010PropOp39
 70
     1
102
RTVSPost2010Prop40
 90
        0
102
RTVSPost2010PropOp40
 70
     1
102
RTVSPost2010Prop41ColorIndex
 90
       18
102
RTVSPost2010Prop41ColorRGB
 90
        0
102
RTVSPost2010PropOp41
 70
     1
102
RTVSPost2010Prop42
 90
       50
102
RTVSPost2010PropOp42
 70
     1
102
RTVSPost2010Prop43
 90
        3
102
RTVSPost2010PropOp43
 70
     1
102
RTVSPost2010Prop44ColorIndex
 90
        5
102
RTVSPost2010Prop44ColorRGB
 90
      255
102
RTVSPost2010PropOp44
 70
     1
102
RTVSPost2010Prop45
280
     0
102
RTVSPost2010PropOp45
 70
     1
102
RTVSPost2010Prop46
 90
       50
102
RTVSPost2010PropOp46
 70
     1
102
RTVSPost2010Prop47
 90
       50
102
RTVSPost2010PropOp47
 70
     1
102
RTVSPost2010Prop48
 90
       50
102
RTVSPost2010PropOp48
 70
     1
102
RTVSPost2010Prop49
280
     0
102
RTVSPost2010PropOp49
 70
     1
102
RTVSPost2010Prop50
 90
       50
102
RTVSPost2010PropOp50
 70
     1
102
RTVSPost2010Prop51ColorIndex
 90
      256
102
RTVSPost2010Prop51ColorRGB
 90
-16777216
102
RTVSPost2010PropOp51
 70
     0
102
RTVSPost2010Prop52
140
1.0
102
RTVSPost2010PropOp52
 70
     0
102
RTVSPost2010Prop53
 90
        2
102
RTVSPost2010PropOp53
 70
     1
102
RTVSPost2010Prop54
  1
strokes_ogs.tif
102
RTVSPost2010PropOp54
 70
     1
102
RTVSPost2010Prop55
280
     0
102
RTVSPost2010PropOp55
 70
     1
102
RTVSPost2010Prop56
140
1.0
102
RTVSPost2010PropOp56
 70
     1
102
RTVSPost2010Prop57
140
1.0
102
RTVSPost2010PropOp57
 70
     1
102
RTVSPropertyOp0
 70
     1
102
RTVSPropertyOp1
 70
     1
102
RTVSPropertyOp2
 70
     1
102
RTVSPropertyOp3
 70
     1
102
RTVSPropertyOp4
 70
     1
102
RTVSPropertyOp5
 70
     1
102
RTVSPropertyOp6
 70
     1
102
RTVSPropertyOp7
 70
     1
102
RTVSPropertyOp8
 70
     1
102
RTVSPropertyOp9
 70
     1
102
RTVSPropertyOp10
 70
     1
102
RTVSPropertyOp11
 70
     1
102
RTVSPropertyOp12
 70
     1
102
RTVSPropertyOp13
 70
     1
102
RTVSPropertyOp14
 70
     1
102
RTVSPropertyOp15
 70
     1
102
RTVSPropertyOp16
 70
     1
102
RTVSPropertyOp17
 70
     1
102
RTVSPropertyOp18
 70
     1
102
RTVSPropertyOp19
 70
     1
102
RTVSPropertyOp20
 70
     1
102
RTVSPropertyOp21
 70
     1
102
RTVSPropertyOp22
 70
     1
102
RTVSPropertyOp23
 70
     1
102
RTVSPropertyOp24
 70
     1
102
RTVSPropertyOp25
 70
     1
102
RTVSPropertyOp26
 70
     1
102
RTVSPropertyOp27
 70
     1
102
RTVSPropertyOp28
 70
     1
102
RTVSPropertyOp29
 70
     1
102
RTVSPropertyOp30
 70
     1
102
RTVSPropertyOp31
 70
     1
102
RTVSPropertyOp32
 70
     1
102
RTVSPropertyOp33
 70
     1
102
RTVSPropertyOp34
 70
     1
102
RTVSPropertyOp35
 70
     1
102
RTVSPropertyOp36
 70
     1
102
RTVSPropertyOp37
 70
     1
102
RTVSPropertyOp38
 70
     1
102
RTVSPropertyOp39
 70
     1
102
RTVSPropertyOp40
 70
     1
102
RTVSPropertyOp41
 70
     1
102
RTVSPropertyOp42
 70
     1
102
RTVSPropertyOp43
 70
     1
102
RTVSPropertyOp44
 70
     1
102
RTVSPropertyOp45
 70
     1
102
RTVSPropertyOp46
 70
     1
102
RTVSPropertyOp47
 70
     1
102
RTVSPropertyOp48
 70
     1
102
RTVSPropertyOp49
 70
     1
102
RTVSPropertyOp50
 70
     1
102
RTVSPropertyOp51
 70
     0
102
RTVSPropertyOp52
 70
     0
102
RTVSPropertyOp53
 70
     1
102
RTVSPropertyOp54
 70
     1
102
RTVSPropertyOp55
 70
     1
102
RTVSPropertyOp56
 70
     1
102
RTVSPropertyOp57
 70
     1
102
RTVSPropertyOp58
 70
     1
102
RTVSPropertyOp59
 70
     1
102
RTVSPropertyOp60
 70
     1
102
RTVSPropertyOp61
 70
     1
102
RTVSPropertyOp62
 70
     1
  0
XRECORD
  5
32D8
102
{ACAD_REACTORS
330
32D7
102
}
330
32D7
100
AcDbXrecord
280
     1
102
RTVSPost2010Prop28
280
     0
102
RTVSPost2010PropOp28
 70
     1
102
RTVSPost2010Prop29
280
     1
102
RTVSPost2010PropOp29
 70
     1
102
RTVSPost2010Prop30
280
     1
102
RTVSPost2010PropOp30
 70
     1
102
RTVSPost2010Prop31
280
     0
102
RTVSPost2010PropOp31
 70
     1
102
RTVSPost2010Prop32
280
     0
102
RTVSPost2010PropOp32
 70
     1
102
RTVSPost2010Prop33
280
     0
102
RTVSPost2010PropOp33
 70
     1
102
RTVSPost2010Prop34
280
     0
102
RTVSPost2010PropOp34
 70
     1
102
RTVSPost2010Prop35
280
     0
102
RTVSPost2010PropOp35
 70
     1
102
RTVSPost2010Prop36
280
     0
102
RTVSPost2010PropOp36
 70
     1
102
RTVSPost2010Prop37
 90
       50
102
RTVSPost2010PropOp37
 70
     1
102
RTVSPost2010Prop38
140
0.0
102
RTVSPost2010PropOp38
 70
     1
102
RTVSPost2010Prop39
140
1.0
102
RTVSPost2010PropOp39
 70
     1
102
RTVSPost2010Prop40
 90
        0
102
RTVSPost2010PropOp40
 70
     1
102
RTVSPost2010Prop41ColorIndex
 90
       18
102
RTVSPost2010Prop41ColorRGB
 90
        0
102
RTVSPost2010PropOp41
 70
     1
102
RTVSPost2010Prop42
 90
       50
102
RTVSPost2010PropOp42
 70
     1
102
RTVSPost2010Prop43
 90
        3
102
RTVSPost2010PropOp43
 70
     1
102
RTVSPost2010Prop44ColorIndex
 90
        5
102
RTVSPost2010Prop44ColorRGB
 90
      255
102
RTVSPost2010PropOp44
 70
     1
102
RTVSPost2010Prop45
280
     0
102
RTVSPost2010PropOp45
 70
     1
102
RTVSPost2010Prop46
 90
       50
102
RTVSPost2010PropOp46
 70
     1
102
RTVSPost2010Prop47
 90
       50
102
RTVSPost2010PropOp47
 70
     1
102
RTVSPost2010Prop48
 90
       50
102
RTVSPost2010PropOp48
 70
     1
102
RTVSPost2010Prop49
280
     0
102
RTVSPost2010PropOp49
 70
     1
102
RTVSPost2010Prop50
 90
       50
102
RTVSPost2010PropOp50
 70
     1
102
RTVSPost2010Prop51ColorIndex
 90
      256
102
RTVSPost2010Prop51ColorRGB
 90
-16777216
102
RTVSPost2010PropOp51
 70
     0
102
RTVSPost2010Prop52
140
1.0
102
RTVSPost2010PropOp52
 70
     0
102
RTVSPost2010Prop53
 90
        2
102
RTVSPost2010PropOp53
 70
     1
102
RTVSPost2010Prop54
  1
strokes_ogs.tif
102
RTVSPost2010PropOp54
 70
     1
102
RTVSPost2010Prop55
280
     0
102
RTVSPost2010PropOp55
 70
     1
102
RTVSPost2010Prop56
140
1.0
102
RTVSPost2010PropOp56
 70
     1
102
RTVSPost2010Prop57
140
1.0
102
RTVSPost2010PropOp57
 70
     1
102
RTVSPropertyOp0
 70
     1
102
RTVSPropertyOp1
 70
     1
102
RTVSPropertyOp2
 70
     1
102
RTVSPropertyOp3
 70
     1
102
RTVSPropertyOp4
 70
     1
102
RTVSPropertyOp5
 70
     1
102
RTVSPropertyOp6
 70
     1
102
RTVSPropertyOp7
 70
     1
102
RTVSPropertyOp8
 70
     1
102
RTVSPropertyOp9
 70
     1
102
RTVSPropertyOp10
 70
     1
102
RTVSPropertyOp11
 70
     1
102
RTVSPropertyOp12
 70
     1
102
RTVSPropertyOp13
 70
     1
102
RTVSPropertyOp14
 70
     1
102
RTVSPropertyOp15
 70
     1
102
RTVSPropertyOp16
 70
     1
102
RTVSPropertyOp17
 70
     1
102
RTVSPropertyOp18
 70
     1
102
RTVSPropertyOp19
 70
     1
102
RTVSPropertyOp20
 70
     1
102
RTVSPropertyOp21
 70
     1
102
RTVSPropertyOp22
 70
     1
102
RTVSPropertyOp23
 70
     1
102
RTVSPropertyOp24
 70
     1
102
RTVSPropertyOp25
 70
     1
102
RTVSPropertyOp26
 70
     1
102
RTVSPropertyOp27
 70
     1
102
RTVSPropertyOp28
 70
     1
102
RTVSPropertyOp29
 70
     1
102
RTVSPropertyOp30
 70
     1
102
RTVSPropertyOp31
 70
     1
102
RTVSPropertyOp32
 70
     1
102
RTVSPropertyOp33
 70
     1
102
RTVSPropertyOp34
 70
     1
102
RTVSPropertyOp35
 70
     1
102
RTVSPropertyOp36
 70
     1
102
RTVSPropertyOp37
 70
     1
102
RTVSPropertyOp38
 70
     1
102
RTVSPropertyOp39
 70
     1
102
RTVSPropertyOp40
 70
     1
102
RTVSPropertyOp41
 70
     1
102
RTVSPropertyOp42
 70
     1
102
RTVSPropertyOp43
 70
     1
102
RTVSPropertyOp44
 70
     1
102
RTVSPropertyOp45
 70
     1
102
RTVSPropertyOp46
 70
     1
102
RTVSPropertyOp47
 70
     1
102
RTVSPropertyOp48
 70
     1
102
RTVSPropertyOp49
 70
     1
102
RTVSPropertyOp50
 70
     1
102
RTVSPropertyOp51
 70
     0
102
RTVSPropertyOp52
 70
     0
102
RTVSPropertyOp53
 70
     1
102
RTVSPropertyOp54
 70
     1
102
RTVSPropertyOp55
 70
     1
102
RTVSPropertyOp56
 70
     1
102
RTVSPropertyOp57
 70
     1
102
RTVSPropertyOp58
 70
     1
102
RTVSPropertyOp59
 70
     1
102
RTVSPropertyOp60
 70
     1
102
RTVSPropertyOp61
 70
     1
102
RTVSPropertyOp62
 70
     1
  0
XRECORD
  5
32F2
102
{ACAD_REACTORS
330
32F1
102
}
330
32F1
100
AcDbXrecord
280
     1
102
RTVSPost2010Prop28
280
     0
102
RTVSPost2010PropOp28
 70
     1
102
RTVSPost2010Prop29
280
     1
102
RTVSPost2010PropOp29
 70
     1
102
RTVSPost2010Prop30
280
     1
102
RTVSPost2010PropOp30
 70
     1
102
RTVSPost2010Prop31
280
     0
102
RTVSPost2010PropOp31
 70
     1
102
RTVSPost2010Prop32
280
     0
102
RTVSPost2010PropOp32
 70
     1
102
RTVSPost2010Prop33
280
     0
102
RTVSPost2010PropOp33
 70
     1
102
RTVSPost2010Prop34
280
     0
102
RTVSPost2010PropOp34
 70
     1
102
RTVSPost2010Prop35
280
     0
102
RTVSPost2010PropOp35
 70
     1
102
RTVSPost2010Prop36
280
     0
102
RTVSPost2010PropOp36
 70
     1
102
RTVSPost2010Prop37
 90
       50
102
RTVSPost2010PropOp37
 70
     0
102
RTVSPost2010Prop38
140
0.0
102
RTVSPost2010PropOp38
 70
     0
102
RTVSPost2010Prop39
140
1.0
102
RTVSPost2010PropOp39
 70
     0
102
RTVSPost2010Prop40
 90
        0
102
RTVSPost2010PropOp40
 70
     0
102
RTVSPost2010Prop41ColorIndex
 90
       18
102
RTVSPost2010Prop41ColorRGB
 90
        0
102
RTVSPost2010PropOp41
 70
     0
102
RTVSPost2010Prop42
 90
       50
102
RTVSPost2010PropOp42
 70
     0
102
RTVSPost2010Prop43
 90
        3
102
RTVSPost2010PropOp43
 70
     0
102
RTVSPost2010Prop44ColorIndex
 90
        5
102
RTVSPost2010Prop44ColorRGB
 90
      255
102
RTVSPost2010PropOp44
 70
     0
102
RTVSPost2010Prop45
280
     0
102
RTVSPost2010PropOp45
 70
     1
102
RTVSPost2010Prop46
 90
       50
102
RTVSPost2010PropOp46
 70
     0
102
RTVSPost2010Prop47
 90
       50
102
RTVSPost2010PropOp47
 70
     0
102
RTVSPost2010Prop48
 90
       50
102
RTVSPost2010PropOp48
 70
     0
102
RTVSPost2010Prop49
280
     0
102
RTVSPost2010PropOp49
 70
     1
102
RTVSPost2010Prop50
 90
       50
102
RTVSPost2010PropOp50
 70
     0
102
RTVSPost2010Prop51ColorIndex
 90
      256
102
RTVSPost2010Prop51ColorRGB
 90
-16777216
102
RTVSPost2010PropOp51
 70
     0
102
RTVSPost2010Prop52
140
1.0
102
RTVSPost2010PropOp52
 70
     0
102
RTVSPost2010Prop53
 90
        2
102
RTVSPost2010PropOp53
 70
     0
102
RTVSPost2010Prop54
  1
strokes_ogs.tif
102
RTVSPost2010PropOp54
 70
     0
102
RTVSPost2010Prop55
280
     0
102
RTVSPost2010PropOp55
 70
     1
102
RTVSPost2010Prop56
140
1.0
102
RTVSPost2010PropOp56
 70
     0
102
RTVSPost2010Prop57
140
1.0
102
RTVSPost2010PropOp57
 70
     0
102
RTVSPropertyOp0
 70
     0
102
RTVSPropertyOp1
 70
     0
102
RTVSPropertyOp2
 70
     0
102
RTVSPropertyOp3
 70
     0
102
RTVSPropertyOp4
 70
     0
102
RTVSPropertyOp5
 70
     0
102
RTVSPropertyOp6
 70
     0
102
RTVSPropertyOp7
 70
     0
102
RTVSPropertyOp8
 70
     0
102
RTVSPropertyOp9
 70
     0
102
RTVSPropertyOp10
 70
     0
102
RTVSPropertyOp11
 70
     0
102
RTVSPropertyOp12
 70
     0
102
RTVSPropertyOp13
 70
     0
102
RTVSPropertyOp14
 70
     2
102
RTVSPropertyOp15
 70
     0
102
RTVSPropertyOp16
 70
     0
102
RTVSPropertyOp17
 70
     0
102
RTVSPropertyOp18
 70
     0
102
RTVSPropertyOp19
 70
     0
102
RTVSPropertyOp20
 70
     0
102
RTVSPropertyOp21
 70
     0
102
RTVSPropertyOp22
 70
     0
102
RTVSPropertyOp23
 70
     0
102
RTVSPropertyOp24
 70
     0
102
RTVSPropertyOp25
 70
     0
102
RTVSPropertyOp26
 70
     0
102
RTVSPropertyOp27
 70
     0
102
RTVSPropertyOp28
 70
     1
102
RTVSPropertyOp29
 70
     1
102
RTVSPropertyOp30
 70
     1
102
RTVSPropertyOp31
 70
     1
102
RTVSPropertyOp32
 70
     1
102
RTVSPropertyOp33
 70
     1
102
RTVSPropertyOp34
 70
     1
102
RTVSPropertyOp35
 70
     1
102
RTVSPropertyOp36
 70
     1
102
RTVSPropertyOp37
 70
     0
102
RTVSPropertyOp38
 70
     0
102
RTVSPropertyOp39
 70
     0
102
RTVSPropertyOp40
 70
     0
102
RTVSPropertyOp41
 70
     0
102
RTVSPropertyOp42
 70
     0
102
RTVSPropertyOp43
 70
     0
102
RTVSPropertyOp44
 70
     0
102
RTVSPropertyOp45
 70
     1
102
RTVSPropertyOp46
 70
     0
102
RTVSPropertyOp47
 70
     0
102
RTVSPropertyOp48
 70
     0
102
RTVSPropertyOp49
 70
     1
102
RTVSPropertyOp50
 70
     0
102
RTVSPropertyOp51
 70
     0
102
RTVSPropertyOp52
 70
     0
102
RTVSPropertyOp53
 70
     0
102
RTVSPropertyOp54
 70
     0
102
RTVSPropertyOp55
 70
     1
102
RTVSPropertyOp56
 70
     0
102
RTVSPropertyOp57
 70
     0
102
RTVSPropertyOp58
 70
     1
102
RTVSPropertyOp59
 70
     1
102
RTVSPropertyOp60
 70
     1
102
RTVSPropertyOp61
 70
     1
102
RTVSPropertyOp62
 70
     1
  0
XRECORD
  5
32E0
102
{ACAD_REACTORS
330
32DF
102
}
330
32DF
100
AcDbXrecord
280
     1
102
RTVSPost2010Prop28
280
     0
102
RTVSPost2010PropOp28
 70
     1
102
RTVSPost2010Prop29
280
     1
102
RTVSPost2010PropOp29
 70
     1
102
RTVSPost2010Prop30
280
     1
102
RTVSPost2010PropOp30
 70
     1
102
RTVSPost2010Prop31
280
     0
102
RTVSPost2010PropOp31
 70
     1
102
RTVSPost2010Prop32
280
     0
102
RTVSPost2010PropOp32
 70
     1
102
RTVSPost2010Prop33
280
     0
102
RTVSPost2010PropOp33
 70
     1
102
RTVSPost2010Prop34
280
     0
102
RTVSPost2010PropOp34
 70
     1
102
RTVSPost2010Prop35
280
     0
102
RTVSPost2010PropOp35
 70
     1
102
RTVSPost2010Prop36
280
     0
102
RTVSPost2010PropOp36
 70
     1
102
RTVSPost2010Prop37
 90
       50
102
RTVSPost2010PropOp37
 70
     1
102
RTVSPost2010Prop38
140
0.0
102
RTVSPost2010PropOp38
 70
     1
102
RTVSPost2010Prop39
140
1.0
102
RTVSPost2010PropOp39
 70
     1
102
RTVSPost2010Prop40
 90
        0
102
RTVSPost2010PropOp40
 70
     1
102
RTVSPost2010Prop41ColorIndex
 90
       18
102
RTVSPost2010Prop41ColorRGB
 90
        0
102
RTVSPost2010PropOp41
 70
     1
102
RTVSPost2010Prop42
 90
       50
102
RTVSPost2010PropOp42
 70
     1
102
RTVSPost2010Prop43
 90
        3
102
RTVSPost2010PropOp43
 70
     1
102
RTVSPost2010Prop44ColorIndex
 90
        5
102
RTVSPost2010Prop44ColorRGB
 90
      255
102
RTVSPost2010PropOp44
 70
     1
102
RTVSPost2010Prop45
280
     0
102
RTVSPost2010PropOp45
 70
     1
102
RTVSPost2010Prop46
 90
       50
102
RTVSPost2010PropOp46
 70
     1
102
RTVSPost2010Prop47
 90
       50
102
RTVSPost2010PropOp47
 70
     1
102
RTVSPost2010Prop48
 90
       50
102
RTVSPost2010PropOp48
 70
     1
102
RTVSPost2010Prop49
280
     0
102
RTVSPost2010PropOp49
 70
     1
102
RTVSPost2010Prop50
 90
       50
102
RTVSPost2010PropOp50
 70
     1
102
RTVSPost2010Prop51ColorIndex
 90
      256
102
RTVSPost2010Prop51ColorRGB
 90
-16777216
102
RTVSPost2010PropOp51
 70
     0
102
RTVSPost2010Prop52
140
1.0
102
RTVSPost2010PropOp52
 70
     0
102
RTVSPost2010Prop53
 90
        2
102
RTVSPost2010PropOp53
 70
     1
102
RTVSPost2010Prop54
  1
strokes_ogs.tif
102
RTVSPost2010PropOp54
 70
     1
102
RTVSPost2010Prop55
280
     0
102
RTVSPost2010PropOp55
 70
     1
102
RTVSPost2010Prop56
140
1.0
102
RTVSPost2010PropOp56
 70
     1
102
RTVSPost2010Prop57
140
1.0
102
RTVSPost2010PropOp57
 70
     1
102
RTVSPropertyOp0
 70
     1
102
RTVSPropertyOp1
 70
     1
102
RTVSPropertyOp2
 70
     1
102
RTVSPropertyOp3
 70
     1
102
RTVSPropertyOp4
 70
     1
102
RTVSPropertyOp5
 70
     1
102
RTVSPropertyOp6
 70
     1
102
RTVSPropertyOp7
 70
     1
102
RTVSPropertyOp8
 70
     1
102
RTVSPropertyOp9
 70
     1
102
RTVSPropertyOp10
 70
     1
102
RTVSPropertyOp11
 70
     1
102
RTVSPropertyOp12
 70
     1
102
RTVSPropertyOp13
 70
     1
102
RTVSPropertyOp14
 70
     1
102
RTVSPropertyOp15
 70
     1
102
RTVSPropertyOp16
 70
     1
102
RTVSPropertyOp17
 70
     1
102
RTVSPropertyOp18
 70
     1
102
RTVSPropertyOp19
 70
     1
102
RTVSPropertyOp20
 70
     1
102
RTVSPropertyOp21
 70
     1
102
RTVSPropertyOp22
 70
     1
102
RTVSPropertyOp23
 70
     1
102
RTVSPropertyOp24
 70
     1
102
RTVSPropertyOp25
 70
     1
102
RTVSPropertyOp26
 70
     1
102
RTVSPropertyOp27
 70
     1
102
RTVSPropertyOp28
 70
     1
102
RTVSPropertyOp29
 70
     1
102
RTVSPropertyOp30
 70
     1
102
RTVSPropertyOp31
 70
     1
102
RTVSPropertyOp32
 70
     1
102
RTVSPropertyOp33
 70
     1
102
RTVSPropertyOp34
 70
     1
102
RTVSPropertyOp35
 70
     1
102
RTVSPropertyOp36
 70
     1
102
RTVSPropertyOp37
 70
     1
102
RTVSPropertyOp38
 70
     1
102
RTVSPropertyOp39
 70
     1
102
RTVSPropertyOp40
 70
     1
102
RTVSPropertyOp41
 70
     1
102
RTVSPropertyOp42
 70
     1
102
RTVSPropertyOp43
 70
     1
102
RTVSPropertyOp44
 70
     1
102
RTVSPropertyOp45
 70
     1
102
RTVSPropertyOp46
 70
     1
102
RTVSPropertyOp47
 70
     1
102
RTVSPropertyOp48
 70
     1
102
RTVSPropertyOp49
 70
     1
102
RTVSPropertyOp50
 70
     1
102
RTVSPropertyOp51
 70
     0
102
RTVSPropertyOp52
 70
     0
102
RTVSPropertyOp53
 70
     1
102
RTVSPropertyOp54
 70
     1
102
RTVSPropertyOp55
 70
     1
102
RTVSPropertyOp56
 70
     1
102
RTVSPropertyOp57
 70
     1
102
RTVSPropertyOp58
 70
     1
102
RTVSPropertyOp59
 70
     1
102
RTVSPropertyOp60
 70
     1
102
RTVSPropertyOp61
 70
     1
102
RTVSPropertyOp62
 70
     1
  0
XRECORD
  5
32C4
102
{ACAD_REACTORS
330
32C3
102
}
330
32C3
100
AcDbXrecord
280
     1
102
RTVSPost2010Prop28
280
     0
102
RTVSPost2010PropOp28
 70
     1
102
RTVSPost2010Prop29
280
     1
102
RTVSPost2010PropOp29
 70
     1
102
RTVSPost2010Prop30
280
     1
102
RTVSPost2010PropOp30
 70
     1
102
RTVSPost2010Prop31
280
     0
102
RTVSPost2010PropOp31
 70
     1
102
RTVSPost2010Prop32
280
     0
102
RTVSPost2010PropOp32
 70
     1
102
RTVSPost2010Prop33
280
     0
102
RTVSPost2010PropOp33
 70
     1
102
RTVSPost2010Prop34
280
     0
102
RTVSPost2010PropOp34
 70
     1
102
RTVSPost2010Prop35
280
     0
102
RTVSPost2010PropOp35
 70
     1
102
RTVSPost2010Prop36
280
     0
102
RTVSPost2010PropOp36
 70
     1
102
RTVSPost2010Prop37
 90
       50
102
RTVSPost2010PropOp37
 70
     1
102
RTVSPost2010Prop38
140
0.0
102
RTVSPost2010PropOp38
 70
     1
102
RTVSPost2010Prop39
140
1.0
102
RTVSPost2010PropOp39
 70
     1
102
RTVSPost2010Prop40
 90
        0
102
RTVSPost2010PropOp40
 70
     1
102
RTVSPost2010Prop41ColorIndex
 90
       18
102
RTVSPost2010Prop41ColorRGB
 90
        0
102
RTVSPost2010PropOp41
 70
     1
102
RTVSPost2010Prop42
 90
       50
102
RTVSPost2010PropOp42
 70
     1
102
RTVSPost2010Prop43
 90
        3
102
RTVSPost2010PropOp43
 70
     1
102
RTVSPost2010Prop44ColorIndex
 90
        5
102
RTVSPost2010Prop44ColorRGB
 90
      255
102
RTVSPost2010PropOp44
 70
     1
102
RTVSPost2010Prop45
280
     0
102
RTVSPost2010PropOp45
 70
     1
102
RTVSPost2010Prop46
 90
       50
102
RTVSPost2010PropOp46
 70
     1
102
RTVSPost2010Prop47
 90
       50
102
RTVSPost2010PropOp47
 70
     1
102
RTVSPost2010Prop48
 90
       50
102
RTVSPost2010PropOp48
 70
     1
102
RTVSPost2010Prop49
280
     0
102
RTVSPost2010PropOp49
 70
     1
102
RTVSPost2010Prop50
 90
       50
102
RTVSPost2010PropOp50
 70
     1
102
RTVSPost2010Prop51ColorIndex
 90
      256
102
RTVSPost2010Prop51ColorRGB
 90
-16777216
102
RTVSPost2010PropOp51
 70
     0
102
RTVSPost2010Prop52
140
1.0
102
RTVSPost2010PropOp52
 70
     0
102
RTVSPost2010Prop53
 90
        2
102
RTVSPost2010PropOp53
 70
     1
102
RTVSPost2010Prop54
  1
strokes_ogs.tif
102
RTVSPost2010PropOp54
 70
     1
102
RTVSPost2010Prop55
280
     0
102
RTVSPost2010PropOp55
 70
     1
102
RTVSPost2010Prop56
140
1.0
102
RTVSPost2010PropOp56
 70
     1
102
RTVSPost2010Prop57
140
1.0
102
RTVSPost2010PropOp57
 70
     1
102
RTVSPropertyOp0
 70
     1
102
RTVSPropertyOp1
 70
     1
102
RTVSPropertyOp2
 70
     1
102
RTVSPropertyOp3
 70
     1
102
RTVSPropertyOp4
 70
     1
102
RTVSPropertyOp5
 70
     1
102
RTVSPropertyOp6
 70
     1
102
RTVSPropertyOp7
 70
     1
102
RTVSPropertyOp8
 70
     1
102
RTVSPropertyOp9
 70
     1
102
RTVSPropertyOp10
 70
     1
102
RTVSPropertyOp11
 70
     1
102
RTVSPropertyOp12
 70
     1
102
RTVSPropertyOp13
 70
     1
102
RTVSPropertyOp14
 70
     1
102
RTVSPropertyOp15
 70
     1
102
RTVSPropertyOp16
 70
     1
102
RTVSPropertyOp17
 70
     1
102
RTVSPropertyOp18
 70
     1
102
RTVSPropertyOp19
 70
     1
102
RTVSPropertyOp20
 70
     1
102
RTVSPropertyOp21
 70
     1
102
RTVSPropertyOp22
 70
     1
102
RTVSPropertyOp23
 70
     1
102
RTVSPropertyOp24
 70
     1
102
RTVSPropertyOp25
 70
     1
102
RTVSPropertyOp26
 70
     1
102
RTVSPropertyOp27
 70
     1
102
RTVSPropertyOp28
 70
     1
102
RTVSPropertyOp29
 70
     1
102
RTVSPropertyOp30
 70
     1
102
RTVSPropertyOp31
 70
     1
102
RTVSPropertyOp32
 70
     1
102
RTVSPropertyOp33
 70
     1
102
RTVSPropertyOp34
 70
     1
102
RTVSPropertyOp35
 70
     1
102
RTVSPropertyOp36
 70
     1
102
RTVSPropertyOp37
 70
     1
102
RTVSPropertyOp38
 70
     1
102
RTVSPropertyOp39
 70
     1
102
RTVSPropertyOp40
 70
     1
102
RTVSPropertyOp41
 70
     1
102
RTVSPropertyOp42
 70
     1
102
RTVSPropertyOp43
 70
     1
102
RTVSPropertyOp44
 70
     1
102
RTVSPropertyOp45
 70
     1
102
RTVSPropertyOp46
 70
     1
102
RTVSPropertyOp47
 70
     1
102
RTVSPropertyOp48
 70
     1
102
RTVSPropertyOp49
 70
     1
102
RTVSPropertyOp50
 70
     1
102
RTVSPropertyOp51
 70
     0
102
RTVSPropertyOp52
 70
     0
102
RTVSPropertyOp53
 70
     1
102
RTVSPropertyOp54
 70
     1
102
RTVSPropertyOp55
 70
     1
102
RTVSPropertyOp56
 70
     1
102
RTVSPropertyOp57
 70
     1
102
RTVSPropertyOp58
 70
     1
102
RTVSPropertyOp59
 70
     1
102
RTVSPropertyOp60
 70
     1
102
RTVSPropertyOp61
 70
     1
102
RTVSPropertyOp62
 70
     1
  0
XRECORD
  5
32C6
102
{ACAD_REACTORS
330
32C5
102
}
330
32C5
100
AcDbXrecord
280
     1
102
RTVSPost2010Prop28
280
     0
102
RTVSPost2010PropOp28
 70
     1
102
RTVSPost2010Prop29
280
     1
102
RTVSPost2010PropOp29
 70
     1
102
RTVSPost2010Prop30
280
     1
102
RTVSPost2010PropOp30
 70
     1
102
RTVSPost2010Prop31
280
     0
102
RTVSPost2010PropOp31
 70
     1
102
RTVSPost2010Prop32
280
     0
102
RTVSPost2010PropOp32
 70
     1
102
RTVSPost2010Prop33
280
     0
102
RTVSPost2010PropOp33
 70
     1
102
RTVSPost2010Prop34
280
     0
102
RTVSPost2010PropOp34
 70
     1
102
RTVSPost2010Prop35
280
     0
102
RTVSPost2010PropOp35
 70
     1
102
RTVSPost2010Prop36
280
     0
102
RTVSPost2010PropOp36
 70
     1
102
RTVSPost2010Prop37
 90
       50
102
RTVSPost2010PropOp37
 70
     1
102
RTVSPost2010Prop38
140
0.0
102
RTVSPost2010PropOp38
 70
     1
102
RTVSPost2010Prop39
140
1.0
102
RTVSPost2010PropOp39
 70
     1
102
RTVSPost2010Prop40
 90
        0
102
RTVSPost2010PropOp40
 70
     1
102
RTVSPost2010Prop41ColorIndex
 90
       18
102
RTVSPost2010Prop41ColorRGB
 90
        0
102
RTVSPost2010PropOp41
 70
     1
102
RTVSPost2010Prop42
 90
       50
102
RTVSPost2010PropOp42
 70
     1
102
RTVSPost2010Prop43
 90
        3
102
RTVSPost2010PropOp43
 70
     1
102
RTVSPost2010Prop44ColorIndex
 90
        5
102
RTVSPost2010Prop44ColorRGB
 90
      255
102
RTVSPost2010PropOp44
 70
     1
102
RTVSPost2010Prop45
280
     0
102
RTVSPost2010PropOp45
 70
     1
102
RTVSPost2010Prop46
 90
       50
102
RTVSPost2010PropOp46
 70
     1
102
RTVSPost2010Prop47
 90
       50
102
RTVSPost2010PropOp47
 70
     1
102
RTVSPost2010Prop48
 90
       50
102
RTVSPost2010PropOp48
 70
     1
102
RTVSPost2010Prop49
280
     0
102
RTVSPost2010PropOp49
 70
     1
102
RTVSPost2010Prop50
 90
       50
102
RTVSPost2010PropOp50
 70
     1
102
RTVSPost2010Prop51ColorIndex
 90
      256
102
RTVSPost2010Prop51ColorRGB
 90
-16777216
102
RTVSPost2010PropOp51
 70
     0
102
RTVSPost2010Prop52
140
1.0
102
RTVSPost2010PropOp52
 70
     0
102
RTVSPost2010Prop53
 90
        2
102
RTVSPost2010PropOp53
 70
     1
102
RTVSPost2010Prop54
  1
strokes_ogs.tif
102
RTVSPost2010PropOp54
 70
     1
102
RTVSPost2010Prop55
280
     0
102
RTVSPost2010PropOp55
 70
     1
102
RTVSPost2010Prop56
140
1.0
102
RTVSPost2010PropOp56
 70
     1
102
RTVSPost2010Prop57
140
1.0
102
RTVSPost2010PropOp57
 70
     1
102
RTVSPropertyOp0
 70
     1
102
RTVSPropertyOp1
 70
     1
102
RTVSPropertyOp2
 70
     1
102
RTVSPropertyOp3
 70
     1
102
RTVSPropertyOp4
 70
     1
102
RTVSPropertyOp5
 70
     1
102
RTVSPropertyOp6
 70
     1
102
RTVSPropertyOp7
 70
     1
102
RTVSPropertyOp8
 70
     1
102
RTVSPropertyOp9
 70
     1
102
RTVSPropertyOp10
 70
     1
102
RTVSPropertyOp11
 70
     1
102
RTVSPropertyOp12
 70
     1
102
RTVSPropertyOp13
 70
     1
102
RTVSPropertyOp14
 70
     1
102
RTVSPropertyOp15
 70
     1
102
RTVSPropertyOp16
 70
     1
102
RTVSPropertyOp17
 70
     1
102
RTVSPropertyOp18
 70
     1
102
RTVSPropertyOp19
 70
     1
102
RTVSPropertyOp20
 70
     1
102
RTVSPropertyOp21
 70
     1
102
RTVSPropertyOp22
 70
     1
102
RTVSPropertyOp23
 70
     1
102
RTVSPropertyOp24
 70
     1
102
RTVSPropertyOp25
 70
     1
102
RTVSPropertyOp26
 70
     1
102
RTVSPropertyOp27
 70
     1
102
RTVSPropertyOp28
 70
     1
102
RTVSPropertyOp29
 70
     1
102
RTVSPropertyOp30
 70
     1
102
RTVSPropertyOp31
 70
     1
102
RTVSPropertyOp32
 70
     1
102
RTVSPropertyOp33
 70
     1
102
RTVSPropertyOp34
 70
     1
102
RTVSPropertyOp35
 70
     1
102
RTVSPropertyOp36
 70
     1
102
RTVSPropertyOp37
 70
     1
102
RTVSPropertyOp38
 70
     1
102
RTVSPropertyOp39
 70
     1
102
RTVSPropertyOp40
 70
     1
102
RTVSPropertyOp41
 70
     1
102
RTVSPropertyOp42
 70
     1
102
RTVSPropertyOp43
 70
     1
102
RTVSPropertyOp44
 70
     1
102
RTVSPropertyOp45
 70
     1
102
RTVSPropertyOp46
 70
     1
102
RTVSPropertyOp47
 70
     1
102
RTVSPropertyOp48
 70
     1
102
RTVSPropertyOp49
 70
     1
102
RTVSPropertyOp50
 70
     1
102
RTVSPropertyOp51
 70
     0
102
RTVSPropertyOp52
 70
     0
102
RTVSPropertyOp53
 70
     1
102
RTVSPropertyOp54
 70
     1
102
RTVSPropertyOp55
 70
     1
102
RTVSPropertyOp56
 70
     1
102
RTVSPropertyOp57
 70
     1
102
RTVSPropertyOp58
 70
     1
102
RTVSPropertyOp59
 70
     1
102
RTVSPropertyOp60
 70
     1
102
RTVSPropertyOp61
 70
     1
102
RTVSPropertyOp62
 70
     1
  0
XRECORD
  5
32C8
102
{ACAD_REACTORS
330
32C7
102
}
330
32C7
100
AcDbXrecord
280
     1
102
RTVSPost2010Prop28
280
     0
102
RTVSPost2010PropOp28
 70
     1
102
RTVSPost2010Prop29
280
     1
102
RTVSPost2010PropOp29
 70
     1
102
RTVSPost2010Prop30
280
     1
102
RTVSPost2010PropOp30
 70
     1
102
RTVSPost2010Prop31
280
     0
102
RTVSPost2010PropOp31
 70
     1
102
RTVSPost2010Prop32
280
     0
102
RTVSPost2010PropOp32
 70
     1
102
RTVSPost2010Prop33
280
     0
102
RTVSPost2010PropOp33
 70
     1
102
RTVSPost2010Prop34
280
     0
102
RTVSPost2010PropOp34
 70
     1
102
RTVSPost2010Prop35
280
     0
102
RTVSPost2010PropOp35
 70
     1
102
RTVSPost2010Prop36
280
     0
102
RTVSPost2010PropOp36
 70
     1
102
RTVSPost2010Prop37
 90
       50
102
RTVSPost2010PropOp37
 70
     1
102
RTVSPost2010Prop38
140
0.0
102
RTVSPost2010PropOp38
 70
     1
102
RTVSPost2010Prop39
140
1.0
102
RTVSPost2010PropOp39
 70
     1
102
RTVSPost2010Prop40
 90
        0
102
RTVSPost2010PropOp40
 70
     1
102
RTVSPost2010Prop41ColorIndex
 90
       18
102
RTVSPost2010Prop41ColorRGB
 90
        0
102
RTVSPost2010PropOp41
 70
     1
102
RTVSPost2010Prop42
 90
       50
102
RTVSPost2010PropOp42
 70
     1
102
RTVSPost2010Prop43
 90
        3
102
RTVSPost2010PropOp43
 70
     1
102
RTVSPost2010Prop44ColorIndex
 90
        5
102
RTVSPost2010Prop44ColorRGB
 90
      255
102
RTVSPost2010PropOp44
 70
     1
102
RTVSPost2010Prop45
280
     0
102
RTVSPost2010PropOp45
 70
     1
102
RTVSPost2010Prop46
 90
       50
102
RTVSPost2010PropOp46
 70
     1
102
RTVSPost2010Prop47
 90
       50
102
RTVSPost2010PropOp47
 70
     1
102
RTVSPost2010Prop48
 90
       50
102
RTVSPost2010PropOp48
 70
     1
102
RTVSPost2010Prop49
280
     0
102
RTVSPost2010PropOp49
 70
     1
102
RTVSPost2010Prop50
 90
       50
102
RTVSPost2010PropOp50
 70
     1
102
RTVSPost2010Prop51ColorIndex
 90
      256
102
RTVSPost2010Prop51ColorRGB
 90
-16777216
102
RTVSPost2010PropOp51
 70
     0
102
RTVSPost2010Prop52
140
1.0
102
RTVSPost2010PropOp52
 70
     0
102
RTVSPost2010Prop53
 90
        2
102
RTVSPost2010PropOp53
 70
     1
102
RTVSPost2010Prop54
  1
strokes_ogs.tif
102
RTVSPost2010PropOp54
 70
     1
102
RTVSPost2010Prop55
280
     0
102
RTVSPost2010PropOp55
 70
     1
102
RTVSPost2010Prop56
140
1.0
102
RTVSPost2010PropOp56
 70
     1
102
RTVSPost2010Prop57
140
1.0
102
RTVSPost2010PropOp57
 70
     1
102
RTVSPropertyOp0
 70
     1
102
RTVSPropertyOp1
 70
     1
102
RTVSPropertyOp2
 70
     1
102
RTVSPropertyOp3
 70
     1
102
RTVSPropertyOp4
 70
     1
102
RTVSPropertyOp5
 70
     1
102
RTVSPropertyOp6
 70
     1
102
RTVSPropertyOp7
 70
     1
102
RTVSPropertyOp8
 70
     1
102
RTVSPropertyOp9
 70
     1
102
RTVSPropertyOp10
 70
     1
102
RTVSPropertyOp11
 70
     1
102
RTVSPropertyOp12
 70
     1
102
RTVSPropertyOp13
 70
     1
102
RTVSPropertyOp14
 70
     1
102
RTVSPropertyOp15
 70
     1
102
RTVSPropertyOp16
 70
     1
102
RTVSPropertyOp17
 70
     1
102
RTVSPropertyOp18
 70
     1
102
RTVSPropertyOp19
 70
     1
102
RTVSPropertyOp20
 70
     1
102
RTVSPropertyOp21
 70
     1
102
RTVSPropertyOp22
 70
     1
102
RTVSPropertyOp23
 70
     1
102
RTVSPropertyOp24
 70
     1
102
RTVSPropertyOp25
 70
     1
102
RTVSPropertyOp26
 70
     1
102
RTVSPropertyOp27
 70
     1
102
RTVSPropertyOp28
 70
     1
102
RTVSPropertyOp29
 70
     1
102
RTVSPropertyOp30
 70
     1
102
RTVSPropertyOp31
 70
     1
102
RTVSPropertyOp32
 70
     1
102
RTVSPropertyOp33
 70
     1
102
RTVSPropertyOp34
 70
     1
102
RTVSPropertyOp35
 70
     1
102
RTVSPropertyOp36
 70
     1
102
RTVSPropertyOp37
 70
     1
102
RTVSPropertyOp38
 70
     1
102
RTVSPropertyOp39
 70
     1
102
RTVSPropertyOp40
 70
     1
102
RTVSPropertyOp41
 70
     1
102
RTVSPropertyOp42
 70
     1
102
RTVSPropertyOp43
 70
     1
102
RTVSPropertyOp44
 70
     1
102
RTVSPropertyOp45
 70
     1
102
RTVSPropertyOp46
 70
     1
102
RTVSPropertyOp47
 70
     1
102
RTVSPropertyOp48
 70
     1
102
RTVSPropertyOp49
 70
     1
102
RTVSPropertyOp50
 70
     1
102
RTVSPropertyOp51
 70
     0
102
RTVSPropertyOp52
 70
     0
102
RTVSPropertyOp53
 70
     1
102
RTVSPropertyOp54
 70
     1
102
RTVSPropertyOp55
 70
     1
102
RTVSPropertyOp56
 70
     1
102
RTVSPropertyOp57
 70
     1
102
RTVSPropertyOp58
 70
     1
102
RTVSPropertyOp59
 70
     1
102
RTVSPropertyOp60
 70
     1
102
RTVSPropertyOp61
 70
     1
102
RTVSPropertyOp62
 70
     1
  0
XRECORD
  5
32CA
102
{ACAD_REACTORS
330
32C9
102
}
330
32C9
100
AcDbXrecord
280
     1
102
RTVSPost2010Prop28
280
     0
102
RTVSPost2010PropOp28
 70
     1
102
RTVSPost2010Prop29
280
     1
102
RTVSPost2010PropOp29
 70
     1
102
RTVSPost2010Prop30
280
     1
102
RTVSPost2010PropOp30
 70
     1
102
RTVSPost2010Prop31
280
     0
102
RTVSPost2010PropOp31
 70
     1
102
RTVSPost2010Prop32
280
     0
102
RTVSPost2010PropOp32
 70
     1
102
RTVSPost2010Prop33
280
     0
102
RTVSPost2010PropOp33
 70
     1
102
RTVSPost2010Prop34
280
     0
102
RTVSPost2010PropOp34
 70
     1
102
RTVSPost2010Prop35
280
     0
102
RTVSPost2010PropOp35
 70
     1
102
RTVSPost2010Prop36
280
     0
102
RTVSPost2010PropOp36
 70
     1
102
RTVSPost2010Prop37
 90
       50
102
RTVSPost2010PropOp37
 70
     1
102
RTVSPost2010Prop38
140
0.0
102
RTVSPost2010PropOp38
 70
     1
102
RTVSPost2010Prop39
140
1.0
102
RTVSPost2010PropOp39
 70
     1
102
RTVSPost2010Prop40
 90
        0
102
RTVSPost2010PropOp40
 70
     1
102
RTVSPost2010Prop41ColorIndex
 90
       18
102
RTVSPost2010Prop41ColorRGB
 90
        0
102
RTVSPost2010PropOp41
 70
     1
102
RTVSPost2010Prop42
 90
       50
102
RTVSPost2010PropOp42
 70
     1
102
RTVSPost2010Prop43
 90
        3
102
RTVSPost2010PropOp43
 70
     1
102
RTVSPost2010Prop44ColorIndex
 90
        5
102
RTVSPost2010Prop44ColorRGB
 90
      255
102
RTVSPost2010PropOp44
 70
     1
102
RTVSPost2010Prop45
280
     0
102
RTVSPost2010PropOp45
 70
     1
102
RTVSPost2010Prop46
 90
       50
102
RTVSPost2010PropOp46
 70
     1
102
RTVSPost2010Prop47
 90
       50
102
RTVSPost2010PropOp47
 70
     1
102
RTVSPost2010Prop48
 90
       50
102
RTVSPost2010PropOp48
 70
     1
102
RTVSPost2010Prop49
280
     0
102
RTVSPost2010PropOp49
 70
     1
102
RTVSPost2010Prop50
 90
       50
102
RTVSPost2010PropOp50
 70
     1
102
RTVSPost2010Prop51ColorIndex
 90
      256
102
RTVSPost2010Prop51ColorRGB
 90
-16777216
102
RTVSPost2010PropOp51
 70
     0
102
RTVSPost2010Prop52
140
1.0
102
RTVSPost2010PropOp52
 70
     0
102
RTVSPost2010Prop53
 90
        2
102
RTVSPost2010PropOp53
 70
     1
102
RTVSPost2010Prop54
  1
strokes_ogs.tif
102
RTVSPost2010PropOp54
 70
     1
102
RTVSPost2010Prop55
280
     0
102
RTVSPost2010PropOp55
 70
     1
102
RTVSPost2010Prop56
140
1.0
102
RTVSPost2010PropOp56
 70
     1
102
RTVSPost2010Prop57
140
1.0
102
RTVSPost2010PropOp57
 70
     1
102
RTVSPropertyOp0
 70
     1
102
RTVSPropertyOp1
 70
     1
102
RTVSPropertyOp2
 70
     1
102
RTVSPropertyOp3
 70
     1
102
RTVSPropertyOp4
 70
     1
102
RTVSPropertyOp5
 70
     1
102
RTVSPropertyOp6
 70
     1
102
RTVSPropertyOp7
 70
     1
102
RTVSPropertyOp8
 70
     1
102
RTVSPropertyOp9
 70
     1
102
RTVSPropertyOp10
 70
     1
102
RTVSPropertyOp11
 70
     1
102
RTVSPropertyOp12
 70
     1
102
RTVSPropertyOp13
 70
     1
102
RTVSPropertyOp14
 70
     1
102
RTVSPropertyOp15
 70
     1
102
RTVSPropertyOp16
 70
     1
102
RTVSPropertyOp17
 70
     1
102
RTVSPropertyOp18
 70
     1
102
RTVSPropertyOp19
 70
     1
102
RTVSPropertyOp20
 70
     1
102
RTVSPropertyOp21
 70
     1
102
RTVSPropertyOp22
 70
     1
102
RTVSPropertyOp23
 70
     1
102
RTVSPropertyOp24
 70
     1
102
RTVSPropertyOp25
 70
     1
102
RTVSPropertyOp26
 70
     1
102
RTVSPropertyOp27
 70
     1
102
RTVSPropertyOp28
 70
     1
102
RTVSPropertyOp29
 70
     1
102
RTVSPropertyOp30
 70
     1
102
RTVSPropertyOp31
 70
     1
102
RTVSPropertyOp32
 70
     1
102
RTVSPropertyOp33
 70
     1
102
RTVSPropertyOp34
 70
     1
102
RTVSPropertyOp35
 70
     1
102
RTVSPropertyOp36
 70
     1
102
RTVSPropertyOp37
 70
     1
102
RTVSPropertyOp38
 70
     1
102
RTVSPropertyOp39
 70
     1
102
RTVSPropertyOp40
 70
     1
102
RTVSPropertyOp41
 70
     1
102
RTVSPropertyOp42
 70
     1
102
RTVSPropertyOp43
 70
     1
102
RTVSPropertyOp44
 70
     1
102
RTVSPropertyOp45
 70
     1
102
RTVSPropertyOp46
 70
     1
102
RTVSPropertyOp47
 70
     1
102
RTVSPropertyOp48
 70
     1
102
RTVSPropertyOp49
 70
     1
102
RTVSPropertyOp50
 70
     1
102
RTVSPropertyOp51
 70
     0
102
RTVSPropertyOp52
 70
     0
102
RTVSPropertyOp53
 70
     1
102
RTVSPropertyOp54
 70
     1
102
RTVSPropertyOp55
 70
     1
102
RTVSPropertyOp56
 70
     1
102
RTVSPropertyOp57
 70
     1
102
RTVSPropertyOp58
 70
     1
102
RTVSPropertyOp59
 70
     1
102
RTVSPropertyOp60
 70
     1
102
RTVSPropertyOp61
 70
     1
102
RTVSPropertyOp62
 70
     1
  0
XRECORD
  5
32D2
102
{ACAD_REACTORS
330
32D1
102
}
330
32D1
100
AcDbXrecord
280
     1
102
RTVSPost2010Prop28
280
     0
102
RTVSPost2010PropOp28
 70
     1
102
RTVSPost2010Prop29
280
     1
102
RTVSPost2010PropOp29
 70
     1
102
RTVSPost2010Prop30
280
     1
102
RTVSPost2010PropOp30
 70
     1
102
RTVSPost2010Prop31
280
     0
102
RTVSPost2010PropOp31
 70
     1
102
RTVSPost2010Prop32
280
     0
102
RTVSPost2010PropOp32
 70
     1
102
RTVSPost2010Prop33
280
     0
102
RTVSPost2010PropOp33
 70
     1
102
RTVSPost2010Prop34
280
     0
102
RTVSPost2010PropOp34
 70
     1
102
RTVSPost2010Prop35
280
     0
102
RTVSPost2010PropOp35
 70
     1
102
RTVSPost2010Prop36
280
     0
102
RTVSPost2010PropOp36
 70
     1
102
RTVSPost2010Prop37
 90
       50
102
RTVSPost2010PropOp37
 70
     1
102
RTVSPost2010Prop38
140
0.0
102
RTVSPost2010PropOp38
 70
     1
102
RTVSPost2010Prop39
140
1.0
102
RTVSPost2010PropOp39
 70
     1
102
RTVSPost2010Prop40
 90
        0
102
RTVSPost2010PropOp40
 70
     1
102
RTVSPost2010Prop41ColorIndex
 90
       18
102
RTVSPost2010Prop41ColorRGB
 90
        0
102
RTVSPost2010PropOp41
 70
     1
102
RTVSPost2010Prop42
 90
       50
102
RTVSPost2010PropOp42
 70
     1
102
RTVSPost2010Prop43
 90
        3
102
RTVSPost2010PropOp43
 70
     1
102
RTVSPost2010Prop44ColorIndex
 90
        5
102
RTVSPost2010Prop44ColorRGB
 90
      255
102
RTVSPost2010PropOp44
 70
     1
102
RTVSPost2010Prop45
280
     0
102
RTVSPost2010PropOp45
 70
     1
102
RTVSPost2010Prop46
 90
       50
102
RTVSPost2010PropOp46
 70
     1
102
RTVSPost2010Prop47
 90
       50
102
RTVSPost2010PropOp47
 70
     1
102
RTVSPost2010Prop48
 90
       50
102
RTVSPost2010PropOp48
 70
     1
102
RTVSPost2010Prop49
280
     0
102
RTVSPost2010PropOp49
 70
     1
102
RTVSPost2010Prop50
 90
       50
102
RTVSPost2010PropOp50
 70
     1
102
RTVSPost2010Prop51ColorIndex
 90
      256
102
RTVSPost2010Prop51ColorRGB
 90
-16777216
102
RTVSPost2010PropOp51
 70
     0
102
RTVSPost2010Prop52
140
1.0
102
RTVSPost2010PropOp52
 70
     0
102
RTVSPost2010Prop53
 90
        2
102
RTVSPost2010PropOp53
 70
     1
102
RTVSPost2010Prop54
  1
strokes_ogs.tif
102
RTVSPost2010PropOp54
 70
     1
102
RTVSPost2010Prop55
280
     0
102
RTVSPost2010PropOp55
 70
     1
102
RTVSPost2010Prop56
140
1.0
102
RTVSPost2010PropOp56
 70
     1
102
RTVSPost2010Prop57
140
1.0
102
RTVSPost2010PropOp57
 70
     1
102
RTVSPropertyOp0
 70
     1
102
RTVSPropertyOp1
 70
     1
102
RTVSPropertyOp2
 70
     1
102
RTVSPropertyOp3
 70
     1
102
RTVSPropertyOp4
 70
     1
102
RTVSPropertyOp5
 70
     1
102
RTVSPropertyOp6
 70
     1
102
RTVSPropertyOp7
 70
     1
102
RTVSPropertyOp8
 70
     1
102
RTVSPropertyOp9
 70
     1
102
RTVSPropertyOp10
 70
     1
102
RTVSPropertyOp11
 70
     1
102
RTVSPropertyOp12
 70
     1
102
RTVSPropertyOp13
 70
     1
102
RTVSPropertyOp14
 70
     1
102
RTVSPropertyOp15
 70
     1
102
RTVSPropertyOp16
 70
     1
102
RTVSPropertyOp17
 70
     1
102
RTVSPropertyOp18
 70
     1
102
RTVSPropertyOp19
 70
     1
102
RTVSPropertyOp20
 70
     1
102
RTVSPropertyOp21
 70
     1
102
RTVSPropertyOp22
 70
     1
102
RTVSPropertyOp23
 70
     1
102
RTVSPropertyOp24
 70
     1
102
RTVSPropertyOp25
 70
     1
102
RTVSPropertyOp26
 70
     1
102
RTVSPropertyOp27
 70
     1
102
RTVSPropertyOp28
 70
     1
102
RTVSPropertyOp29
 70
     1
102
RTVSPropertyOp30
 70
     1
102
RTVSPropertyOp31
 70
     1
102
RTVSPropertyOp32
 70
     1
102
RTVSPropertyOp33
 70
     1
102
RTVSPropertyOp34
 70
     1
102
RTVSPropertyOp35
 70
     1
102
RTVSPropertyOp36
 70
     1
102
RTVSPropertyOp37
 70
     1
102
RTVSPropertyOp38
 70
     1
102
RTVSPropertyOp39
 70
     1
102
RTVSPropertyOp40
 70
     1
102
RTVSPropertyOp41
 70
     1
102
RTVSPropertyOp42
 70
     1
102
RTVSPropertyOp43
 70
     1
102
RTVSPropertyOp44
 70
     1
102
RTVSPropertyOp45
 70
     1
102
RTVSPropertyOp46
 70
     1
102
RTVSPropertyOp47
 70
     1
102
RTVSPropertyOp48
 70
     1
102
RTVSPropertyOp49
 70
     1
102
RTVSPropertyOp50
 70
     1
102
RTVSPropertyOp51
 70
     0
102
RTVSPropertyOp52
 70
     0
102
RTVSPropertyOp53
 70
     1
102
RTVSPropertyOp54
 70
     1
102
RTVSPropertyOp55
 70
     1
102
RTVSPropertyOp56
 70
     1
102
RTVSPropertyOp57
 70
     1
102
RTVSPropertyOp58
 70
     1
102
RTVSPropertyOp59
 70
     1
102
RTVSPropertyOp60
 70
     1
102
RTVSPropertyOp61
 70
     1
102
RTVSPropertyOp62
 70
     1
  0
XRECORD
  5
32EE
102
{ACAD_REACTORS
330
32ED
102
}
330
32ED
100
AcDbXrecord
280
     1
102
RTVSPost2010Prop28
280
     0
102
RTVSPost2010PropOp28
 70
     1
102
RTVSPost2010Prop29
280
     1
102
RTVSPost2010PropOp29
 70
     1
102
RTVSPost2010Prop30
280
     1
102
RTVSPost2010PropOp30
 70
     1
102
RTVSPost2010Prop31
280
     0
102
RTVSPost2010PropOp31
 70
     1
102
RTVSPost2010Prop32
280
     0
102
RTVSPost2010PropOp32
 70
     1
102
RTVSPost2010Prop33
280
     0
102
RTVSPost2010PropOp33
 70
     1
102
RTVSPost2010Prop34
280
     0
102
RTVSPost2010PropOp34
 70
     1
102
RTVSPost2010Prop35
280
     0
102
RTVSPost2010PropOp35
 70
     1
102
RTVSPost2010Prop36
280
     0
102
RTVSPost2010PropOp36
 70
     1
102
RTVSPost2010Prop37
 90
       50
102
RTVSPost2010PropOp37
 70
     0
102
RTVSPost2010Prop38
140
0.0
102
RTVSPost2010PropOp38
 70
     0
102
RTVSPost2010Prop39
140
1.0
102
RTVSPost2010PropOp39
 70
     0
102
RTVSPost2010Prop40
 90
        0
102
RTVSPost2010PropOp40
 70
     0
102
RTVSPost2010Prop41ColorIndex
 90
       18
102
RTVSPost2010Prop41ColorRGB
 90
        0
102
RTVSPost2010PropOp41
 70
     0
102
RTVSPost2010Prop42
 90
       50
102
RTVSPost2010PropOp42
 70
     0
102
RTVSPost2010Prop43
 90
        3
102
RTVSPost2010PropOp43
 70
     0
102
RTVSPost2010Prop44ColorIndex
 90
        5
102
RTVSPost2010Prop44ColorRGB
 90
      255
102
RTVSPost2010PropOp44
 70
     0
102
RTVSPost2010Prop45
280
     0
102
RTVSPost2010PropOp45
 70
     1
102
RTVSPost2010Prop46
 90
       50
102
RTVSPost2010PropOp46
 70
     0
102
RTVSPost2010Prop47
 90
       50
102
RTVSPost2010PropOp47
 70
     0
102
RTVSPost2010Prop48
 90
       50
102
RTVSPost2010PropOp48
 70
     0
102
RTVSPost2010Prop49
280
     0
102
RTVSPost2010PropOp49
 70
     1
102
RTVSPost2010Prop50
 90
       50
102
RTVSPost2010PropOp50
 70
     0
102
RTVSPost2010Prop51ColorIndex
 90
      256
102
RTVSPost2010Prop51ColorRGB
 90
-16777216
102
RTVSPost2010PropOp51
 70
     0
102
RTVSPost2010Prop52
140
1.0
102
RTVSPost2010PropOp52
 70
     0
102
RTVSPost2010Prop53
 90
        2
102
RTVSPost2010PropOp53
 70
     0
102
RTVSPost2010Prop54
  1
strokes_ogs.tif
102
RTVSPost2010PropOp54
 70
     0
102
RTVSPost2010Prop55
280
     0
102
RTVSPost2010PropOp55
 70
     1
102
RTVSPost2010Prop56
140
1.0
102
RTVSPost2010PropOp56
 70
     0
102
RTVSPost2010Prop57
140
1.0
102
RTVSPost2010PropOp57
 70
     0
102
RTVSPropertyOp0
 70
     0
102
RTVSPropertyOp1
 70
     0
102
RTVSPropertyOp2
 70
     0
102
RTVSPropertyOp3
 70
     0
102
RTVSPropertyOp4
 70
     0
102
RTVSPropertyOp5
 70
     0
102
RTVSPropertyOp6
 70
     0
102
RTVSPropertyOp7
 70
     0
102
RTVSPropertyOp8
 70
     0
102
RTVSPropertyOp9
 70
     0
102
RTVSPropertyOp10
 70
     0
102
RTVSPropertyOp11
 70
     0
102
RTVSPropertyOp12
 70
     0
102
RTVSPropertyOp13
 70
     0
102
RTVSPropertyOp14
 70
     2
102
RTVSPropertyOp15
 70
     0
102
RTVSPropertyOp16
 70
     0
102
RTVSPropertyOp17
 70
     0
102
RTVSPropertyOp18
 70
     0
102
RTVSPropertyOp19
 70
     0
102
RTVSPropertyOp20
 70
     0
102
RTVSPropertyOp21
 70
     0
102
RTVSPropertyOp22
 70
     0
102
RTVSPropertyOp23
 70
     0
102
RTVSPropertyOp24
 70
     0
102
RTVSPropertyOp25
 70
     0
102
RTVSPropertyOp26
 70
     0
102
RTVSPropertyOp27
 70
     0
102
RTVSPropertyOp28
 70
     1
102
RTVSPropertyOp29
 70
     1
102
RTVSPropertyOp30
 70
     1
102
RTVSPropertyOp31
 70
     1
102
RTVSPropertyOp32
 70
     1
102
RTVSPropertyOp33
 70
     1
102
RTVSPropertyOp34
 70
     1
102
RTVSPropertyOp35
 70
     1
102
RTVSPropertyOp36
 70
     1
102
RTVSPropertyOp37
 70
     0
102
RTVSPropertyOp38
 70
     0
102
RTVSPropertyOp39
 70
     0
102
RTVSPropertyOp40
 70
     0
102
RTVSPropertyOp41
 70
     0
102
RTVSPropertyOp42
 70
     0
102
RTVSPropertyOp43
 70
     0
102
RTVSPropertyOp44
 70
     0
102
RTVSPropertyOp45
 70
     1
102
RTVSPropertyOp46
 70
     0
102
RTVSPropertyOp47
 70
     0
102
RTVSPropertyOp48
 70
     0
102
RTVSPropertyOp49
 70
     1
102
RTVSPropertyOp50
 70
     0
102
RTVSPropertyOp51
 70
     0
102
RTVSPropertyOp52
 70
     0
102
RTVSPropertyOp53
 70
     0
102
RTVSPropertyOp54
 70
     0
102
RTVSPropertyOp55
 70
     1
102
RTVSPropertyOp56
 70
     0
102
RTVSPropertyOp57
 70
     0
102
RTVSPropertyOp58
 70
     1
102
RTVSPropertyOp59
 70
     1
102
RTVSPropertyOp60
 70
     1
102
RTVSPropertyOp61
 70
     1
102
RTVSPropertyOp62
 70
     1
  0
XRECORD
  5
32DE
102
{ACAD_REACTORS
330
32DD
102
}
330
32DD
100
AcDbXrecord
280
     1
102
RTVSPost2010Prop28
280
     0
102
RTVSPost2010PropOp28
 70
     1
102
RTVSPost2010Prop29
280
     1
102
RTVSPost2010PropOp29
 70
     1
102
RTVSPost2010Prop30
280
     1
102
RTVSPost2010PropOp30
 70
     1
102
RTVSPost2010Prop31
280
     0
102
RTVSPost2010PropOp31
 70
     1
102
RTVSPost2010Prop32
280
     0
102
RTVSPost2010PropOp32
 70
     1
102
RTVSPost2010Prop33
280
     0
102
RTVSPost2010PropOp33
 70
     1
102
RTVSPost2010Prop34
280
     0
102
RTVSPost2010PropOp34
 70
     1
102
RTVSPost2010Prop35
280
     0
102
RTVSPost2010PropOp35
 70
     1
102
RTVSPost2010Prop36
280
     0
102
RTVSPost2010PropOp36
 70
     1
102
RTVSPost2010Prop37
 90
       50
102
RTVSPost2010PropOp37
 70
     1
102
RTVSPost2010Prop38
140
0.0
102
RTVSPost2010PropOp38
 70
     1
102
RTVSPost2010Prop39
140
1.0
102
RTVSPost2010PropOp39
 70
     1
102
RTVSPost2010Prop40
 90
        0
102
RTVSPost2010PropOp40
 70
     1
102
RTVSPost2010Prop41ColorIndex
 90
       18
102
RTVSPost2010Prop41ColorRGB
 90
        0
102
RTVSPost2010PropOp41
 70
     1
102
RTVSPost2010Prop42
 90
       50
102
RTVSPost2010PropOp42
 70
     1
102
RTVSPost2010Prop43
 90
        3
102
RTVSPost2010PropOp43
 70
     1
102
RTVSPost2010Prop44ColorIndex
 90
        5
102
RTVSPost2010Prop44ColorRGB
 90
      255
102
RTVSPost2010PropOp44
 70
     1
102
RTVSPost2010Prop45
280
     0
102
RTVSPost2010PropOp45
 70
     1
102
RTVSPost2010Prop46
 90
       50
102
RTVSPost2010PropOp46
 70
     1
102
RTVSPost2010Prop47
 90
       50
102
RTVSPost2010PropOp47
 70
     1
102
RTVSPost2010Prop48
 90
       50
102
RTVSPost2010PropOp48
 70
     1
102
RTVSPost2010Prop49
280
     0
102
RTVSPost2010PropOp49
 70
     1
102
RTVSPost2010Prop50
 90
       50
102
RTVSPost2010PropOp50
 70
     1
102
RTVSPost2010Prop51ColorIndex
 90
      256
102
RTVSPost2010Prop51ColorRGB
 90
-16777216
102
RTVSPost2010PropOp51
 70
     0
102
RTVSPost2010Prop52
140
1.0
102
RTVSPost2010PropOp52
 70
     0
102
RTVSPost2010Prop53
 90
        2
102
RTVSPost2010PropOp53
 70
     1
102
RTVSPost2010Prop54
  1
strokes_ogs.tif
102
RTVSPost2010PropOp54
 70
     1
102
RTVSPost2010Prop55
280
     0
102
RTVSPost2010PropOp55
 70
     1
102
RTVSPost2010Prop56
140
1.0
102
RTVSPost2010PropOp56
 70
     1
102
RTVSPost2010Prop57
140
1.0
102
RTVSPost2010PropOp57
 70
     1
102
RTVSPropertyOp0
 70
     1
102
RTVSPropertyOp1
 70
     1
102
RTVSPropertyOp2
 70
     1
102
RTVSPropertyOp3
 70
     1
102
RTVSPropertyOp4
 70
     1
102
RTVSPropertyOp5
 70
     1
102
RTVSPropertyOp6
 70
     1
102
RTVSPropertyOp7
 70
     1
102
RTVSPropertyOp8
 70
     1
102
RTVSPropertyOp9
 70
     1
102
RTVSPropertyOp10
 70
     1
102
RTVSPropertyOp11
 70
     1
102
RTVSPropertyOp12
 70
     1
102
RTVSPropertyOp13
 70
     1
102
RTVSPropertyOp14
 70
     1
102
RTVSPropertyOp15
 70
     1
102
RTVSPropertyOp16
 70
     1
102
RTVSPropertyOp17
 70
     1
102
RTVSPropertyOp18
 70
     1
102
RTVSPropertyOp19
 70
     1
102
RTVSPropertyOp20
 70
     1
102
RTVSPropertyOp21
 70
     1
102
RTVSPropertyOp22
 70
     1
102
RTVSPropertyOp23
 70
     1
102
RTVSPropertyOp24
 70
     1
102
RTVSPropertyOp25
 70
     1
102
RTVSPropertyOp26
 70
     1
102
RTVSPropertyOp27
 70
     1
102
RTVSPropertyOp28
 70
     1
102
RTVSPropertyOp29
 70
     1
102
RTVSPropertyOp30
 70
     1
102
RTVSPropertyOp31
 70
     1
102
RTVSPropertyOp32
 70
     1
102
RTVSPropertyOp33
 70
     1
102
RTVSPropertyOp34
 70
     1
102
RTVSPropertyOp35
 70
     1
102
RTVSPropertyOp36
 70
     1
102
RTVSPropertyOp37
 70
     1
102
RTVSPropertyOp38
 70
     1
102
RTVSPropertyOp39
 70
     1
102
RTVSPropertyOp40
 70
     1
102
RTVSPropertyOp41
 70
     1
102
RTVSPropertyOp42
 70
     1
102
RTVSPropertyOp43
 70
     1
102
RTVSPropertyOp44
 70
     1
102
RTVSPropertyOp45
 70
     1
102
RTVSPropertyOp46
 70
     1
102
RTVSPropertyOp47
 70
     1
102
RTVSPropertyOp48
 70
     1
102
RTVSPropertyOp49
 70
     1
102
RTVSPropertyOp50
 70
     1
102
RTVSPropertyOp51
 70
     0
102
RTVSPropertyOp52
 70
     0
102
RTVSPropertyOp53
 70
     1
102
RTVSPropertyOp54
 70
     1
102
RTVSPropertyOp55
 70
     1
102
RTVSPropertyOp56
 70
     1
102
RTVSPropertyOp57
 70
     1
102
RTVSPropertyOp58
 70
     1
102
RTVSPropertyOp59
 70
     1
102
RTVSPropertyOp60
 70
     1
102
RTVSPropertyOp61
 70
     1
102
RTVSPropertyOp62
 70
     1
  0
XRECORD
  5
32F0
102
{ACAD_REACTORS
330
32EF
102
}
330
32EF
100
AcDbXrecord
280
     1
102
RTVSPost2010Prop28
280
     0
102
RTVSPost2010PropOp28
 70
     1
102
RTVSPost2010Prop29
280
     1
102
RTVSPost2010PropOp29
 70
     1
102
RTVSPost2010Prop30
280
     1
102
RTVSPost2010PropOp30
 70
     1
102
RTVSPost2010Prop31
280
     0
102
RTVSPost2010PropOp31
 70
     1
102
RTVSPost2010Prop32
280
     0
102
RTVSPost2010PropOp32
 70
     1
102
RTVSPost2010Prop33
280
     0
102
RTVSPost2010PropOp33
 70
     1
102
RTVSPost2010Prop34
280
     0
102
RTVSPost2010PropOp34
 70
     1
102
RTVSPost2010Prop35
280
     0
102
RTVSPost2010PropOp35
 70
     1
102
RTVSPost2010Prop36
280
     0
102
RTVSPost2010PropOp36
 70
     1
102
RTVSPost2010Prop37
 90
       50
102
RTVSPost2010PropOp37
 70
     0
102
RTVSPost2010Prop38
140
0.0
102
RTVSPost2010PropOp38
 70
     0
102
RTVSPost2010Prop39
140
1.0
102
RTVSPost2010PropOp39
 70
     0
102
RTVSPost2010Prop40
 90
        0
102
RTVSPost2010PropOp40
 70
     0
102
RTVSPost2010Prop41ColorIndex
 90
       18
102
RTVSPost2010Prop41ColorRGB
 90
        0
102
RTVSPost2010PropOp41
 70
     0
102
RTVSPost2010Prop42
 90
       50
102
RTVSPost2010PropOp42
 70
     0
102
RTVSPost2010Prop43
 90
        3
102
RTVSPost2010PropOp43
 70
     0
102
RTVSPost2010Prop44ColorIndex
 90
        5
102
RTVSPost2010Prop44ColorRGB
 90
      255
102
RTVSPost2010PropOp44
 70
     0
102
RTVSPost2010Prop45
280
     0
102
RTVSPost2010PropOp45
 70
     1
102
RTVSPost2010Prop46
 90
       50
102
RTVSPost2010PropOp46
 70
     0
102
RTVSPost2010Prop47
 90
       50
102
RTVSPost2010PropOp47
 70
     0
102
RTVSPost2010Prop48
 90
       50
102
RTVSPost2010PropOp48
 70
     0
102
RTVSPost2010Prop49
280
     0
102
RTVSPost2010PropOp49
 70
     1
102
RTVSPost2010Prop50
 90
       50
102
RTVSPost2010PropOp50
 70
     0
102
RTVSPost2010Prop51ColorIndex
 90
      256
102
RTVSPost2010Prop51ColorRGB
 90
-16777216
102
RTVSPost2010PropOp51
 70
     0
102
RTVSPost2010Prop52
140
1.0
102
RTVSPost2010PropOp52
 70
     0
102
RTVSPost2010Prop53
 90
        2
102
RTVSPost2010PropOp53
 70
     0
102
RTVSPost2010Prop54
  1
strokes_ogs.tif
102
RTVSPost2010PropOp54
 70
     0
102
RTVSPost2010Prop55
280
     0
102
RTVSPost2010PropOp55
 70
     1
102
RTVSPost2010Prop56
140
1.0
102
RTVSPost2010PropOp56
 70
     0
102
RTVSPost2010Prop57
140
1.0
102
RTVSPost2010PropOp57
 70
     0
102
RTVSPropertyOp0
 70
     0
102
RTVSPropertyOp1
 70
     0
102
RTVSPropertyOp2
 70
     0
102
RTVSPropertyOp3
 70
     0
102
RTVSPropertyOp4
 70
     0
102
RTVSPropertyOp5
 70
     0
102
RTVSPropertyOp6
 70
     0
102
RTVSPropertyOp7
 70
     0
102
RTVSPropertyOp8
 70
     0
102
RTVSPropertyOp9
 70
     0
102
RTVSPropertyOp10
 70
     0
102
RTVSPropertyOp11
 70
     0
102
RTVSPropertyOp12
 70
     0
102
RTVSPropertyOp13
 70
     0
102
RTVSPropertyOp14
 70
     2
102
RTVSPropertyOp15
 70
     0
102
RTVSPropertyOp16
 70
     0
102
RTVSPropertyOp17
 70
     0
102
RTVSPropertyOp18
 70
     0
102
RTVSPropertyOp19
 70
     0
102
RTVSPropertyOp20
 70
     0
102
RTVSPropertyOp21
 70
     0
102
RTVSPropertyOp22
 70
     0
102
RTVSPropertyOp23
 70
     0
102
RTVSPropertyOp24
 70
     0
102
RTVSPropertyOp25
 70
     0
102
RTVSPropertyOp26
 70
     0
102
RTVSPropertyOp27
 70
     0
102
RTVSPropertyOp28
 70
     1
102
RTVSPropertyOp29
 70
     1
102
RTVSPropertyOp30
 70
     1
102
RTVSPropertyOp31
 70
     1
102
RTVSPropertyOp32
 70
     1
102
RTVSPropertyOp33
 70
     1
102
RTVSPropertyOp34
 70
     1
102
RTVSPropertyOp35
 70
     1
102
RTVSPropertyOp36
 70
     1
102
RTVSPropertyOp37
 70
     0
102
RTVSPropertyOp38
 70
     0
102
RTVSPropertyOp39
 70
     0
102
RTVSPropertyOp40
 70
     0
102
RTVSPropertyOp41
 70
     0
102
RTVSPropertyOp42
 70
     0
102
RTVSPropertyOp43
 70
     0
102
RTVSPropertyOp44
 70
     0
102
RTVSPropertyOp45
 70
     1
102
RTVSPropertyOp46
 70
     0
102
RTVSPropertyOp47
 70
     0
102
RTVSPropertyOp48
 70
     0
102
RTVSPropertyOp49
 70
     1
102
RTVSPropertyOp50
 70
     0
102
RTVSPropertyOp51
 70
     0
102
RTVSPropertyOp52
 70
     0
102
RTVSPropertyOp53
 70
     0
102
RTVSPropertyOp54
 70
     0
102
RTVSPropertyOp55
 70
     1
102
RTVSPropertyOp56
 70
     0
102
RTVSPropertyOp57
 70
     0
102
RTVSPropertyOp58
 70
     1
102
RTVSPropertyOp59
 70
     1
102
RTVSPropertyOp60
 70
     1
102
RTVSPropertyOp61
 70
     1
102
RTVSPropertyOp62
 70
     1
  0
XRECORD
  5
32D6
102
{ACAD_REACTORS
330
32D5
102
}
330
32D5
100
AcDbXrecord
280
     1
102
RTVSPost2010Prop28
280
     0
102
RTVSPost2010PropOp28
 70
     1
102
RTVSPost2010Prop29
280
     1
102
RTVSPost2010PropOp29
 70
     1
102
RTVSPost2010Prop30
280
     1
102
RTVSPost2010PropOp30
 70
     1
102
RTVSPost2010Prop31
280
     0
102
RTVSPost2010PropOp31
 70
     1
102
RTVSPost2010Prop32
280
     0
102
RTVSPost2010PropOp32
 70
     1
102
RTVSPost2010Prop33
280
     0
102
RTVSPost2010PropOp33
 70
     1
102
RTVSPost2010Prop34
280
     0
102
RTVSPost2010PropOp34
 70
     1
102
RTVSPost2010Prop35
280
     0
102
RTVSPost2010PropOp35
 70
     1
102
RTVSPost2010Prop36
280
     0
102
RTVSPost2010PropOp36
 70
     1
102
RTVSPost2010Prop37
 90
       50
102
RTVSPost2010PropOp37
 70
     1
102
RTVSPost2010Prop38
140
0.0
102
RTVSPost2010PropOp38
 70
     1
102
RTVSPost2010Prop39
140
1.0
102
RTVSPost2010PropOp39
 70
     1
102
RTVSPost2010Prop40
 90
        0
102
RTVSPost2010PropOp40
 70
     1
102
RTVSPost2010Prop41ColorIndex
 90
       18
102
RTVSPost2010Prop41ColorRGB
 90
        0
102
RTVSPost2010PropOp41
 70
     1
102
RTVSPost2010Prop42
 90
       50
102
RTVSPost2010PropOp42
 70
     1
102
RTVSPost2010Prop43
 90
        3
102
RTVSPost2010PropOp43
 70
     1
102
RTVSPost2010Prop44ColorIndex
 90
        5
102
RTVSPost2010Prop44ColorRGB
 90
      255
102
RTVSPost2010PropOp44
 70
     1
102
RTVSPost2010Prop45
280
     0
102
RTVSPost2010PropOp45
 70
     1
102
RTVSPost2010Prop46
 90
       50
102
RTVSPost2010PropOp46
 70
     1
102
RTVSPost2010Prop47
 90
       50
102
RTVSPost2010PropOp47
 70
     1
102
RTVSPost2010Prop48
 90
       50
102
RTVSPost2010PropOp48
 70
     1
102
RTVSPost2010Prop49
280
     0
102
RTVSPost2010PropOp49
 70
     1
102
RTVSPost2010Prop50
 90
       50
102
RTVSPost2010PropOp50
 70
     1
102
RTVSPost2010Prop51ColorIndex
 90
      256
102
RTVSPost2010Prop51ColorRGB
 90
-16777216
102
RTVSPost2010PropOp51
 70
     0
102
RTVSPost2010Prop52
140
1.0
102
RTVSPost2010PropOp52
 70
     0
102
RTVSPost2010Prop53
 90
        2
102
RTVSPost2010PropOp53
 70
     1
102
RTVSPost2010Prop54
  1
strokes_ogs.tif
102
RTVSPost2010PropOp54
 70
     1
102
RTVSPost2010Prop55
280
     0
102
RTVSPost2010PropOp55
 70
     1
102
RTVSPost2010Prop56
140
1.0
102
RTVSPost2010PropOp56
 70
     1
102
RTVSPost2010Prop57
140
1.0
102
RTVSPost2010PropOp57
 70
     1
102
RTVSPropertyOp0
 70
     1
102
RTVSPropertyOp1
 70
     1
102
RTVSPropertyOp2
 70
     1
102
RTVSPropertyOp3
 70
     1
102
RTVSPropertyOp4
 70
     1
102
RTVSPropertyOp5
 70
     1
102
RTVSPropertyOp6
 70
     1
102
RTVSPropertyOp7
 70
     1
102
RTVSPropertyOp8
 70
     1
102
RTVSPropertyOp9
 70
     1
102
RTVSPropertyOp10
 70
     1
102
RTVSPropertyOp11
 70
     1
102
RTVSPropertyOp12
 70
     1
102
RTVSPropertyOp13
 70
     1
102
RTVSPropertyOp14
 70
     1
102
RTVSPropertyOp15
 70
     1
102
RTVSPropertyOp16
 70
     1
102
RTVSPropertyOp17
 70
     1
102
RTVSPropertyOp18
 70
     1
102
RTVSPropertyOp19
 70
     1
102
RTVSPropertyOp20
 70
     1
102
RTVSPropertyOp21
 70
     1
102
RTVSPropertyOp22
 70
     1
102
RTVSPropertyOp23
 70
     1
102
RTVSPropertyOp24
 70
     1
102
RTVSPropertyOp25
 70
     1
102
RTVSPropertyOp26
 70
     1
102
RTVSPropertyOp27
 70
     1
102
RTVSPropertyOp28
 70
     1
102
RTVSPropertyOp29
 70
     1
102
RTVSPropertyOp30
 70
     1
102
RTVSPropertyOp31
 70
     1
102
RTVSPropertyOp32
 70
     1
102
RTVSPropertyOp33
 70
     1
102
RTVSPropertyOp34
 70
     1
102
RTVSPropertyOp35
 70
     1
102
RTVSPropertyOp36
 70
     1
102
RTVSPropertyOp37
 70
     1
102
RTVSPropertyOp38
 70
     1
102
RTVSPropertyOp39
 70
     1
102
RTVSPropertyOp40
 70
     1
102
RTVSPropertyOp41
 70
     1
102
RTVSPropertyOp42
 70
     1
102
RTVSPropertyOp43
 70
     1
102
RTVSPropertyOp44
 70
     1
102
RTVSPropertyOp45
 70
     1
102
RTVSPropertyOp46
 70
     1
102
RTVSPropertyOp47
 70
     1
102
RTVSPropertyOp48
 70
     1
102
RTVSPropertyOp49
 70
     1
102
RTVSPropertyOp50
 70
     1
102
RTVSPropertyOp51
 70
     0
102
RTVSPropertyOp52
 70
     0
102
RTVSPropertyOp53
 70
     1
102
RTVSPropertyOp54
 70
     1
102
RTVSPropertyOp55
 70
     1
102
RTVSPropertyOp56
 70
     1
102
RTVSPropertyOp57
 70
     1
102
RTVSPropertyOp58
 70
     1
102
RTVSPropertyOp59
 70
     1
102
RTVSPropertyOp60
 70
     1
102
RTVSPropertyOp61
 70
     1
102
RTVSPropertyOp62
 70
     1
  0
XRECORD
  5
32EC
102
{ACAD_REACTORS
330
32EB
102
}
330
32EB
100
AcDbXrecord
280
     1
102
RTVSPost2010Prop28
280
     0
102
RTVSPost2010PropOp28
 70
     1
102
RTVSPost2010Prop29
280
     1
102
RTVSPost2010PropOp29
 70
     1
102
RTVSPost2010Prop30
280
     1
102
RTVSPost2010PropOp30
 70
     1
102
RTVSPost2010Prop31
280
     0
102
RTVSPost2010PropOp31
 70
     1
102
RTVSPost2010Prop32
280
     0
102
RTVSPost2010PropOp32
 70
     1
102
RTVSPost2010Prop33
280
     0
102
RTVSPost2010PropOp33
 70
     1
102
RTVSPost2010Prop34
280
     0
102
RTVSPost2010PropOp34
 70
     1
102
RTVSPost2010Prop35
280
     0
102
RTVSPost2010PropOp35
 70
     1
102
RTVSPost2010Prop36
280
     0
102
RTVSPost2010PropOp36
 70
     1
102
RTVSPost2010Prop37
 90
       50
102
RTVSPost2010PropOp37
 70
     1
102
RTVSPost2010Prop38
140
0.0
102
RTVSPost2010PropOp38
 70
     1
102
RTVSPost2010Prop39
140
1.0
102
RTVSPost2010PropOp39
 70
     1
102
RTVSPost2010Prop40
 90
        0
102
RTVSPost2010PropOp40
 70
     1
102
RTVSPost2010Prop41ColorIndex
 90
       18
102
RTVSPost2010Prop41ColorRGB
 90
        0
102
RTVSPost2010PropOp41
 70
     1
102
RTVSPost2010Prop42
 90
       50
102
RTVSPost2010PropOp42
 70
     1
102
RTVSPost2010Prop43
 90
        3
102
RTVSPost2010PropOp43
 70
     1
102
RTVSPost2010Prop44ColorIndex
 90
        5
102
RTVSPost2010Prop44ColorRGB
 90
      255
102
RTVSPost2010PropOp44
 70
     1
102
RTVSPost2010Prop45
280
     0
102
RTVSPost2010PropOp45
 70
     1
102
RTVSPost2010Prop46
 90
       50
102
RTVSPost2010PropOp46
 70
     1
102
RTVSPost2010Prop47
 90
       50
102
RTVSPost2010PropOp47
 70
     1
102
RTVSPost2010Prop48
 90
       50
102
RTVSPost2010PropOp48
 70
     1
102
RTVSPost2010Prop49
280
     0
102
RTVSPost2010PropOp49
 70
     1
102
RTVSPost2010Prop50
 90
       50
102
RTVSPost2010PropOp50
 70
     1
102
RTVSPost2010Prop51ColorIndex
 90
      256
102
RTVSPost2010Prop51ColorRGB
 90
-16777216
102
RTVSPost2010PropOp51
 70
     0
102
RTVSPost2010Prop52
140
1.0
102
RTVSPost2010PropOp52
 70
     0
102
RTVSPost2010Prop53
 90
        2
102
RTVSPost2010PropOp53
 70
     1
102
RTVSPost2010Prop54
  1
strokes_ogs.tif
102
RTVSPost2010PropOp54
 70
     1
102
RTVSPost2010Prop55
280
     0
102
RTVSPost2010PropOp55
 70
     1
102
RTVSPost2010Prop56
140
1.0
102
RTVSPost2010PropOp56
 70
     1
102
RTVSPost2010Prop57
140
1.0
102
RTVSPost2010PropOp57
 70
     1
102
RTVSPropertyOp0
 70
     1
102
RTVSPropertyOp1
 70
     1
102
RTVSPropertyOp2
 70
     1
102
RTVSPropertyOp3
 70
     1
102
RTVSPropertyOp4
 70
     1
102
RTVSPropertyOp5
 70
     1
102
RTVSPropertyOp6
 70
     1
102
RTVSPropertyOp7
 70
     1
102
RTVSPropertyOp8
 70
     1
102
RTVSPropertyOp9
 70
     1
102
RTVSPropertyOp10
 70
     1
102
RTVSPropertyOp11
 70
     1
102
RTVSPropertyOp12
 70
     1
102
RTVSPropertyOp13
 70
     1
102
RTVSPropertyOp14
 70
     1
102
RTVSPropertyOp15
 70
     1
102
RTVSPropertyOp16
 70
     1
102
RTVSPropertyOp17
 70
     1
102
RTVSPropertyOp18
 70
     1
102
RTVSPropertyOp19
 70
     1
102
RTVSPropertyOp20
 70
     1
102
RTVSPropertyOp21
 70
     1
102
RTVSPropertyOp22
 70
     1
102
RTVSPropertyOp23
 70
     1
102
RTVSPropertyOp24
 70
     1
102
RTVSPropertyOp25
 70
     1
102
RTVSPropertyOp26
 70
     1
102
RTVSPropertyOp27
 70
     1
102
RTVSPropertyOp28
 70
     1
102
RTVSPropertyOp29
 70
     1
102
RTVSPropertyOp30
 70
     1
102
RTVSPropertyOp31
 70
     1
102
RTVSPropertyOp32
 70
     1
102
RTVSPropertyOp33
 70
     1
102
RTVSPropertyOp34
 70
     1
102
RTVSPropertyOp35
 70
     1
102
RTVSPropertyOp36
 70
     1
102
RTVSPropertyOp37
 70
     1
102
RTVSPropertyOp38
 70
     1
102
RTVSPropertyOp39
 70
     1
102
RTVSPropertyOp40
 70
     1
102
RTVSPropertyOp41
 70
     1
102
RTVSPropertyOp42
 70
     1
102
RTVSPropertyOp43
 70
     1
102
RTVSPropertyOp44
 70
     1
102
RTVSPropertyOp45
 70
     1
102
RTVSPropertyOp46
 70
     1
102
RTVSPropertyOp47
 70
     1
102
RTVSPropertyOp48
 70
     1
102
RTVSPropertyOp49
 70
     1
102
RTVSPropertyOp50
 70
     1
102
RTVSPropertyOp51
 70
     0
102
RTVSPropertyOp52
 70
     0
102
RTVSPropertyOp53
 70
     1
102
RTVSPropertyOp54
 70
     1
102
RTVSPropertyOp55
 70
     1
102
RTVSPropertyOp56
 70
     1
102
RTVSPropertyOp57
 70
     1
102
RTVSPropertyOp58
 70
     1
102
RTVSPropertyOp59
 70
     1
102
RTVSPropertyOp60
 70
     1
102
RTVSPropertyOp61
 70
     1
102
RTVSPropertyOp62
 70
     1
  0
XRECORD
  5
32EA
102
{ACAD_REACTORS
330
32E9
102
}
330
32E9
100
AcDbXrecord
280
     1
102
RTVSPost2010Prop28
280
     0
102
RTVSPost2010PropOp28
 70
     1
102
RTVSPost2010Prop29
280
     1
102
RTVSPost2010PropOp29
 70
     1
102
RTVSPost2010Prop30
280
     1
102
RTVSPost2010PropOp30
 70
     1
102
RTVSPost2010Prop31
280
     0
102
RTVSPost2010PropOp31
 70
     1
102
RTVSPost2010Prop32
280
     0
102
RTVSPost2010PropOp32
 70
     1
102
RTVSPost2010Prop33
280
     0
102
RTVSPost2010PropOp33
 70
     1
102
RTVSPost2010Prop34
280
     0
102
RTVSPost2010PropOp34
 70
     1
102
RTVSPost2010Prop35
280
     0
102
RTVSPost2010PropOp35
 70
     1
102
RTVSPost2010Prop36
280
     0
102
RTVSPost2010PropOp36
 70
     1
102
RTVSPost2010Prop37
 90
       50
102
RTVSPost2010PropOp37
 70
     1
102
RTVSPost2010Prop38
140
0.0
102
RTVSPost2010PropOp38
 70
     1
102
RTVSPost2010Prop39
140
1.0
102
RTVSPost2010PropOp39
 70
     1
102
RTVSPost2010Prop40
 90
        0
102
RTVSPost2010PropOp40
 70
     1
102
RTVSPost2010Prop41ColorIndex
 90
       18
102
RTVSPost2010Prop41ColorRGB
 90
        0
102
RTVSPost2010PropOp41
 70
     1
102
RTVSPost2010Prop42
 90
       50
102
RTVSPost2010PropOp42
 70
     1
102
RTVSPost2010Prop43
 90
        3
102
RTVSPost2010PropOp43
 70
     1
102
RTVSPost2010Prop44ColorIndex
 90
        5
102
RTVSPost2010Prop44ColorRGB
 90
      255
102
RTVSPost2010PropOp44
 70
     1
102
RTVSPost2010Prop45
280
     0
102
RTVSPost2010PropOp45
 70
     1
102
RTVSPost2010Prop46
 90
       50
102
RTVSPost2010PropOp46
 70
     1
102
RTVSPost2010Prop47
 90
       50
102
RTVSPost2010PropOp47
 70
     1
102
RTVSPost2010Prop48
 90
       50
102
RTVSPost2010PropOp48
 70
     1
102
RTVSPost2010Prop49
280
     0
102
RTVSPost2010PropOp49
 70
     1
102
RTVSPost2010Prop50
 90
       50
102
RTVSPost2010PropOp50
 70
     1
102
RTVSPost2010Prop51ColorIndex
 90
      256
102
RTVSPost2010Prop51ColorRGB
 90
-16777216
102
RTVSPost2010PropOp51
 70
     0
102
RTVSPost2010Prop52
140
1.0
102
RTVSPost2010PropOp52
 70
     0
102
RTVSPost2010Prop53
 90
        2
102
RTVSPost2010PropOp53
 70
     1
102
RTVSPost2010Prop54
  1
strokes_ogs.tif
102
RTVSPost2010PropOp54
 70
     1
102
RTVSPost2010Prop55
280
     0
102
RTVSPost2010PropOp55
 70
     1
102
RTVSPost2010Prop56
140
1.0
102
RTVSPost2010PropOp56
 70
     1
102
RTVSPost2010Prop57
140
1.0
102
RTVSPost2010PropOp57
 70
     1
102
RTVSPropertyOp0
 70
     1
102
RTVSPropertyOp1
 70
     1
102
RTVSPropertyOp2
 70
     1
102
RTVSPropertyOp3
 70
     1
102
RTVSPropertyOp4
 70
     1
102
RTVSPropertyOp5
 70
     1
102
RTVSPropertyOp6
 70
     1
102
RTVSPropertyOp7
 70
     1
102
RTVSPropertyOp8
 70
     1
102
RTVSPropertyOp9
 70
     1
102
RTVSPropertyOp10
 70
     1
102
RTVSPropertyOp11
 70
     1
102
RTVSPropertyOp12
 70
     1
102
RTVSPropertyOp13
 70
     1
102
RTVSPropertyOp14
 70
     1
102
RTVSPropertyOp15
 70
     1
102
RTVSPropertyOp16
 70
     1
102
RTVSPropertyOp17
 70
     1
102
RTVSPropertyOp18
 70
     1
102
RTVSPropertyOp19
 70
     1
102
RTVSPropertyOp20
 70
     1
102
RTVSPropertyOp21
 70
     1
102
RTVSPropertyOp22
 70
     1
102
RTVSPropertyOp23
 70
     1
102
RTVSPropertyOp24
 70
     1
102
RTVSPropertyOp25
 70
     1
102
RTVSPropertyOp26
 70
     1
102
RTVSPropertyOp27
 70
     1
102
RTVSPropertyOp28
 70
     1
102
RTVSPropertyOp29
 70
     1
102
RTVSPropertyOp30
 70
     1
102
RTVSPropertyOp31
 70
     1
102
RTVSPropertyOp32
 70
     1
102
RTVSPropertyOp33
 70
     1
102
RTVSPropertyOp34
 70
     1
102
RTVSPropertyOp35
 70
     1
102
RTVSPropertyOp36
 70
     1
102
RTVSPropertyOp37
 70
     1
102
RTVSPropertyOp38
 70
     1
102
RTVSPropertyOp39
 70
     1
102
RTVSPropertyOp40
 70
     1
102
RTVSPropertyOp41
 70
     1
102
RTVSPropertyOp42
 70
     1
102
RTVSPropertyOp43
 70
     1
102
RTVSPropertyOp44
 70
     1
102
RTVSPropertyOp45
 70
     1
102
RTVSPropertyOp46
 70
     1
102
RTVSPropertyOp47
 70
     1
102
RTVSPropertyOp48
 70
     1
102
RTVSPropertyOp49
 70
     1
102
RTVSPropertyOp50
 70
     1
102
RTVSPropertyOp51
 70
     0
102
RTVSPropertyOp52
 70
     0
102
RTVSPropertyOp53
 70
     1
102
RTVSPropertyOp54
 70
     1
102
RTVSPropertyOp55
 70
     1
102
RTVSPropertyOp56
 70
     1
102
RTVSPropertyOp57
 70
     1
102
RTVSPropertyOp58
 70
     1
102
RTVSPropertyOp59
 70
     1
102
RTVSPropertyOp60
 70
     1
102
RTVSPropertyOp61
 70
     1
102
RTVSPropertyOp62
 70
     1
  0
XRECORD
  5
32E4
102
{ACAD_REACTORS
330
32E3
102
}
330
32E3
100
AcDbXrecord
280
     1
102
RTVSPost2010Prop28
280
     0
102
RTVSPost2010PropOp28
 70
     1
102
RTVSPost2010Prop29
280
     1
102
RTVSPost2010PropOp29
 70
     1
102
RTVSPost2010Prop30
280
     1
102
RTVSPost2010PropOp30
 70
     1
102
RTVSPost2010Prop31
280
     0
102
RTVSPost2010PropOp31
 70
     1
102
RTVSPost2010Prop32
280
     0
102
RTVSPost2010PropOp32
 70
     1
102
RTVSPost2010Prop33
280
     0
102
RTVSPost2010PropOp33
 70
     1
102
RTVSPost2010Prop34
280
     0
102
RTVSPost2010PropOp34
 70
     1
102
RTVSPost2010Prop35
280
     0
102
RTVSPost2010PropOp35
 70
     1
102
RTVSPost2010Prop36
280
     0
102
RTVSPost2010PropOp36
 70
     1
102
RTVSPost2010Prop37
 90
       50
102
RTVSPost2010PropOp37
 70
     1
102
RTVSPost2010Prop38
140
0.0
102
RTVSPost2010PropOp38
 70
     1
102
RTVSPost2010Prop39
140
1.0
102
RTVSPost2010PropOp39
 70
     1
102
RTVSPost2010Prop40
 90
        0
102
RTVSPost2010PropOp40
 70
     1
102
RTVSPost2010Prop41ColorIndex
 90
       18
102
RTVSPost2010Prop41ColorRGB
 90
        0
102
RTVSPost2010PropOp41
 70
     1
102
RTVSPost2010Prop42
 90
       50
102
RTVSPost2010PropOp42
 70
     1
102
RTVSPost2010Prop43
 90
        3
102
RTVSPost2010PropOp43
 70
     1
102
RTVSPost2010Prop44ColorIndex
 90
        5
102
RTVSPost2010Prop44ColorRGB
 90
      255
102
RTVSPost2010PropOp44
 70
     1
102
RTVSPost2010Prop45
280
     0
102
RTVSPost2010PropOp45
 70
     1
102
RTVSPost2010Prop46
 90
       50
102
RTVSPost2010PropOp46
 70
     1
102
RTVSPost2010Prop47
 90
       50
102
RTVSPost2010PropOp47
 70
     1
102
RTVSPost2010Prop48
 90
       50
102
RTVSPost2010PropOp48
 70
     1
102
RTVSPost2010Prop49
280
     0
102
RTVSPost2010PropOp49
 70
     1
102
RTVSPost2010Prop50
 90
       50
102
RTVSPost2010PropOp50
 70
     1
102
RTVSPost2010Prop51ColorIndex
 90
      256
102
RTVSPost2010Prop51ColorRGB
 90
-16777216
102
RTVSPost2010PropOp51
 70
     0
102
RTVSPost2010Prop52
140
1.0
102
RTVSPost2010PropOp52
 70
     0
102
RTVSPost2010Prop53
 90
        2
102
RTVSPost2010PropOp53
 70
     1
102
RTVSPost2010Prop54
  1
strokes_ogs.tif
102
RTVSPost2010PropOp54
 70
     1
102
RTVSPost2010Prop55
280
     0
102
RTVSPost2010PropOp55
 70
     1
102
RTVSPost2010Prop56
140
1.0
102
RTVSPost2010PropOp56
 70
     1
102
RTVSPost2010Prop57
140
1.0
102
RTVSPost2010PropOp57
 70
     1
102
RTVSPropertyOp0
 70
     1
102
RTVSPropertyOp1
 70
     1
102
RTVSPropertyOp2
 70
     1
102
RTVSPropertyOp3
 70
     1
102
RTVSPropertyOp4
 70
     1
102
RTVSPropertyOp5
 70
     1
102
RTVSPropertyOp6
 70
     1
102
RTVSPropertyOp7
 70
     1
102
RTVSPropertyOp8
 70
     1
102
RTVSPropertyOp9
 70
     1
102
RTVSPropertyOp10
 70
     1
102
RTVSPropertyOp11
 70
     1
102
RTVSPropertyOp12
 70
     1
102
RTVSPropertyOp13
 70
     1
102
RTVSPropertyOp14
 70
     1
102
RTVSPropertyOp15
 70
     1
102
RTVSPropertyOp16
 70
     1
102
RTVSPropertyOp17
 70
     1
102
RTVSPropertyOp18
 70
     1
102
RTVSPropertyOp19
 70
     1
102
RTVSPropertyOp20
 70
     1
102
RTVSPropertyOp21
 70
     1
102
RTVSPropertyOp22
 70
     1
102
RTVSPropertyOp23
 70
     1
102
RTVSPropertyOp24
 70
     1
102
RTVSPropertyOp25
 70
     1
102
RTVSPropertyOp26
 70
     1
102
RTVSPropertyOp27
 70
     1
102
RTVSPropertyOp28
 70
     1
102
RTVSPropertyOp29
 70
     1
102
RTVSPropertyOp30
 70
     1
102
RTVSPropertyOp31
 70
     1
102
RTVSPropertyOp32
 70
     1
102
RTVSPropertyOp33
 70
     1
102
RTVSPropertyOp34
 70
     1
102
RTVSPropertyOp35
 70
     1
102
RTVSPropertyOp36
 70
     1
102
RTVSPropertyOp37
 70
     1
102
RTVSPropertyOp38
 70
     1
102
RTVSPropertyOp39
 70
     1
102
RTVSPropertyOp40
 70
     1
102
RTVSPropertyOp41
 70
     1
102
RTVSPropertyOp42
 70
     1
102
RTVSPropertyOp43
 70
     1
102
RTVSPropertyOp44
 70
     1
102
RTVSPropertyOp45
 70
     1
102
RTVSPropertyOp46
 70
     1
102
RTVSPropertyOp47
 70
     1
102
RTVSPropertyOp48
 70
     1
102
RTVSPropertyOp49
 70
     1
102
RTVSPropertyOp50
 70
     1
102
RTVSPropertyOp51
 70
     0
102
RTVSPropertyOp52
 70
     0
102
RTVSPropertyOp53
 70
     1
102
RTVSPropertyOp54
 70
     1
102
RTVSPropertyOp55
 70
     1
102
RTVSPropertyOp56
 70
     1
102
RTVSPropertyOp57
 70
     1
102
RTVSPropertyOp58
 70
     1
102
RTVSPropertyOp59
 70
     1
102
RTVSPropertyOp60
 70
     1
102
RTVSPropertyOp61
 70
     1
102
RTVSPropertyOp62
 70
     1
  0
XRECORD
  5
32E6
102
{ACAD_REACTORS
330
32E5
102
}
330
32E5
100
AcDbXrecord
280
     1
102
RTVSPost2010Prop28
280
     0
102
RTVSPost2010PropOp28
 70
     1
102
RTVSPost2010Prop29
280
     1
102
RTVSPost2010PropOp29
 70
     1
102
RTVSPost2010Prop30
280
     1
102
RTVSPost2010PropOp30
 70
     1
102
RTVSPost2010Prop31
280
     0
102
RTVSPost2010PropOp31
 70
     1
102
RTVSPost2010Prop32
280
     0
102
RTVSPost2010PropOp32
 70
     1
102
RTVSPost2010Prop33
280
     0
102
RTVSPost2010PropOp33
 70
     1
102
RTVSPost2010Prop34
280
     0
102
RTVSPost2010PropOp34
 70
     1
102
RTVSPost2010Prop35
280
     0
102
RTVSPost2010PropOp35
 70
     1
102
RTVSPost2010Prop36
280
     0
102
RTVSPost2010PropOp36
 70
     1
102
RTVSPost2010Prop37
 90
       50
102
RTVSPost2010PropOp37
 70
     1
102
RTVSPost2010Prop38
140
0.0
102
RTVSPost2010PropOp38
 70
     1
102
RTVSPost2010Prop39
140
1.0
102
RTVSPost2010PropOp39
 70
     1
102
RTVSPost2010Prop40
 90
        0
102
RTVSPost2010PropOp40
 70
     1
102
RTVSPost2010Prop41ColorIndex
 90
       18
102
RTVSPost2010Prop41ColorRGB
 90
        0
102
RTVSPost2010PropOp41
 70
     1
102
RTVSPost2010Prop42
 90
       50
102
RTVSPost2010PropOp42
 70
     1
102
RTVSPost2010Prop43
 90
        3
102
RTVSPost2010PropOp43
 70
     1
102
RTVSPost2010Prop44ColorIndex
 90
        5
102
RTVSPost2010Prop44ColorRGB
 90
      255
102
RTVSPost2010PropOp44
 70
     1
102
RTVSPost2010Prop45
280
     0
102
RTVSPost2010PropOp45
 70
     1
102
RTVSPost2010Prop46
 90
       50
102
RTVSPost2010PropOp46
 70
     1
102
RTVSPost2010Prop47
 90
       50
102
RTVSPost2010PropOp47
 70
     1
102
RTVSPost2010Prop48
 90
       50
102
RTVSPost2010PropOp48
 70
     1
102
RTVSPost2010Prop49
280
     0
102
RTVSPost2010PropOp49
 70
     1
102
RTVSPost2010Prop50
 90
       50
102
RTVSPost2010PropOp50
 70
     1
102
RTVSPost2010Prop51ColorIndex
 90
      256
102
RTVSPost2010Prop51ColorRGB
 90
-16777216
102
RTVSPost2010PropOp51
 70
     0
102
RTVSPost2010Prop52
140
1.0
102
RTVSPost2010PropOp52
 70
     0
102
RTVSPost2010Prop53
 90
        2
102
RTVSPost2010PropOp53
 70
     1
102
RTVSPost2010Prop54
  1
strokes_ogs.tif
102
RTVSPost2010PropOp54
 70
     1
102
RTVSPost2010Prop55
280
     0
102
RTVSPost2010PropOp55
 70
     1
102
RTVSPost2010Prop56
140
1.0
102
RTVSPost2010PropOp56
 70
     1
102
RTVSPost2010Prop57
140
1.0
102
RTVSPost2010PropOp57
 70
     1
102
RTVSPropertyOp0
 70
     1
102
RTVSPropertyOp1
 70
     1
102
RTVSPropertyOp2
 70
     1
102
RTVSPropertyOp3
 70
     1
102
RTVSPropertyOp4
 70
     1
102
RTVSPropertyOp5
 70
     1
102
RTVSPropertyOp6
 70
     1
102
RTVSPropertyOp7
 70
     1
102
RTVSPropertyOp8
 70
     1
102
RTVSPropertyOp9
 70
     1
102
RTVSPropertyOp10
 70
     1
102
RTVSPropertyOp11
 70
     1
102
RTVSPropertyOp12
 70
     1
102
RTVSPropertyOp13
 70
     1
102
RTVSPropertyOp14
 70
     1
102
RTVSPropertyOp15
 70
     1
102
RTVSPropertyOp16
 70
     1
102
RTVSPropertyOp17
 70
     1
102
RTVSPropertyOp18
 70
     1
102
RTVSPropertyOp19
 70
     1
102
RTVSPropertyOp20
 70
     1
102
RTVSPropertyOp21
 70
     1
102
RTVSPropertyOp22
 70
     1
102
RTVSPropertyOp23
 70
     1
102
RTVSPropertyOp24
 70
     1
102
RTVSPropertyOp25
 70
     1
102
RTVSPropertyOp26
 70
     1
102
RTVSPropertyOp27
 70
     1
102
RTVSPropertyOp28
 70
     1
102
RTVSPropertyOp29
 70
     1
102
RTVSPropertyOp30
 70
     1
102
RTVSPropertyOp31
 70
     1
102
RTVSPropertyOp32
 70
     1
102
RTVSPropertyOp33
 70
     1
102
RTVSPropertyOp34
 70
     1
102
RTVSPropertyOp35
 70
     1
102
RTVSPropertyOp36
 70
     1
102
RTVSPropertyOp37
 70
     1
102
RTVSPropertyOp38
 70
     1
102
RTVSPropertyOp39
 70
     1
102
RTVSPropertyOp40
 70
     1
102
RTVSPropertyOp41
 70
     1
102
RTVSPropertyOp42
 70
     1
102
RTVSPropertyOp43
 70
     1
102
RTVSPropertyOp44
 70
     1
102
RTVSPropertyOp45
 70
     1
102
RTVSPropertyOp46
 70
     1
102
RTVSPropertyOp47
 70
     1
102
RTVSPropertyOp48
 70
     1
102
RTVSPropertyOp49
 70
     1
102
RTVSPropertyOp50
 70
     1
102
RTVSPropertyOp51
 70
     0
102
RTVSPropertyOp52
 70
     0
102
RTVSPropertyOp53
 70
     1
102
RTVSPropertyOp54
 70
     1
102
RTVSPropertyOp55
 70
     1
102
RTVSPropertyOp56
 70
     1
102
RTVSPropertyOp57
 70
     1
102
RTVSPropertyOp58
 70
     1
102
RTVSPropertyOp59
 70
     1
102
RTVSPropertyOp60
 70
     1
102
RTVSPropertyOp61
 70
     1
102
RTVSPropertyOp62
 70
     1
  0
XRECORD
  5
32DC
102
{ACAD_REACTORS
330
32DB
102
}
330
32DB
100
AcDbXrecord
280
     1
102
RTVSPost2010Prop28
280
     0
102
RTVSPost2010PropOp28
 70
     1
102
RTVSPost2010Prop29
280
     1
102
RTVSPost2010PropOp29
 70
     1
102
RTVSPost2010Prop30
280
     1
102
RTVSPost2010PropOp30
 70
     1
102
RTVSPost2010Prop31
280
     0
102
RTVSPost2010PropOp31
 70
     1
102
RTVSPost2010Prop32
280
     0
102
RTVSPost2010PropOp32
 70
     1
102
RTVSPost2010Prop33
280
     0
102
RTVSPost2010PropOp33
 70
     1
102
RTVSPost2010Prop34
280
     0
102
RTVSPost2010PropOp34
 70
     1
102
RTVSPost2010Prop35
280
     0
102
RTVSPost2010PropOp35
 70
     1
102
RTVSPost2010Prop36
280
     0
102
RTVSPost2010PropOp36
 70
     1
102
RTVSPost2010Prop37
 90
       50
102
RTVSPost2010PropOp37
 70
     1
102
RTVSPost2010Prop38
140
0.0
102
RTVSPost2010PropOp38
 70
     1
102
RTVSPost2010Prop39
140
1.0
102
RTVSPost2010PropOp39
 70
     1
102
RTVSPost2010Prop40
 90
        0
102
RTVSPost2010PropOp40
 70
     1
102
RTVSPost2010Prop41ColorIndex
 90
       18
102
RTVSPost2010Prop41ColorRGB
 90
        0
102
RTVSPost2010PropOp41
 70
     1
102
RTVSPost2010Prop42
 90
       50
102
RTVSPost2010PropOp42
 70
     1
102
RTVSPost2010Prop43
 90
        3
102
RTVSPost2010PropOp43
 70
     1
102
RTVSPost2010Prop44ColorIndex
 90
        5
102
RTVSPost2010Prop44ColorRGB
 90
      255
102
RTVSPost2010PropOp44
 70
     1
102
RTVSPost2010Prop45
280
     0
102
RTVSPost2010PropOp45
 70
     1
102
RTVSPost2010Prop46
 90
       50
102
RTVSPost2010PropOp46
 70
     1
102
RTVSPost2010Prop47
 90
       50
102
RTVSPost2010PropOp47
 70
     1
102
RTVSPost2010Prop48
 90
       50
102
RTVSPost2010PropOp48
 70
     1
102
RTVSPost2010Prop49
280
     0
102
RTVSPost2010PropOp49
 70
     1
102
RTVSPost2010Prop50
 90
       50
102
RTVSPost2010PropOp50
 70
     1
102
RTVSPost2010Prop51ColorIndex
 90
      256
102
RTVSPost2010Prop51ColorRGB
 90
-16777216
102
RTVSPost2010PropOp51
 70
     0
102
RTVSPost2010Prop52
140
1.0
102
RTVSPost2010PropOp52
 70
     0
102
RTVSPost2010Prop53
 90
        2
102
RTVSPost2010PropOp53
 70
     1
102
RTVSPost2010Prop54
  1
strokes_ogs.tif
102
RTVSPost2010PropOp54
 70
     1
102
RTVSPost2010Prop55
280
     0
102
RTVSPost2010PropOp55
 70
     1
102
RTVSPost2010Prop56
140
1.0
102
RTVSPost2010PropOp56
 70
     1
102
RTVSPost2010Prop57
140
1.0
102
RTVSPost2010PropOp57
 70
     1
102
RTVSPropertyOp0
 70
     1
102
RTVSPropertyOp1
 70
     1
102
RTVSPropertyOp2
 70
     1
102
RTVSPropertyOp3
 70
     1
102
RTVSPropertyOp4
 70
     1
102
RTVSPropertyOp5
 70
     1
102
RTVSPropertyOp6
 70
     1
102
RTVSPropertyOp7
 70
     1
102
RTVSPropertyOp8
 70
     1
102
RTVSPropertyOp9
 70
     1
102
RTVSPropertyOp10
 70
     1
102
RTVSPropertyOp11
 70
     1
102
RTVSPropertyOp12
 70
     1
102
RTVSPropertyOp13
 70
     1
102
RTVSPropertyOp14
 70
     1
102
RTVSPropertyOp15
 70
     1
102
RTVSPropertyOp16
 70
     1
102
RTVSPropertyOp17
 70
     1
102
RTVSPropertyOp18
 70
     1
102
RTVSPropertyOp19
 70
     1
102
RTVSPropertyOp20
 70
     1
102
RTVSPropertyOp21
 70
     1
102
RTVSPropertyOp22
 70
     1
102
RTVSPropertyOp23
 70
     1
102
RTVSPropertyOp24
 70
     1
102
RTVSPropertyOp25
 70
     1
102
RTVSPropertyOp26
 70
     1
102
RTVSPropertyOp27
 70
     1
102
RTVSPropertyOp28
 70
     1
102
RTVSPropertyOp29
 70
     1
102
RTVSPropertyOp30
 70
     1
102
RTVSPropertyOp31
 70
     1
102
RTVSPropertyOp32
 70
     1
102
RTVSPropertyOp33
 70
     1
102
RTVSPropertyOp34
 70
     1
102
RTVSPropertyOp35
 70
     1
102
RTVSPropertyOp36
 70
     1
102
RTVSPropertyOp37
 70
     1
102
RTVSPropertyOp38
 70
     1
102
RTVSPropertyOp39
 70
     1
102
RTVSPropertyOp40
 70
     1
102
RTVSPropertyOp41
 70
     1
102
RTVSPropertyOp42
 70
     1
102
RTVSPropertyOp43
 70
     1
102
RTVSPropertyOp44
 70
     1
102
RTVSPropertyOp45
 70
     1
102
RTVSPropertyOp46
 70
     1
102
RTVSPropertyOp47
 70
     1
102
RTVSPropertyOp48
 70
     1
102
RTVSPropertyOp49
 70
     1
102
RTVSPropertyOp50
 70
     1
102
RTVSPropertyOp51
 70
     0
102
RTVSPropertyOp52
 70
     0
102
RTVSPropertyOp53
 70
     1
102
RTVSPropertyOp54
 70
     1
102
RTVSPropertyOp55
 70
     1
102
RTVSPropertyOp56
 70
     1
102
RTVSPropertyOp57
 70
     1
102
RTVSPropertyOp58
 70
     1
102
RTVSPropertyOp59
 70
     1
102
RTVSPropertyOp60
 70
     1
102
RTVSPropertyOp61
 70
     1
102
RTVSPropertyOp62
 70
     1
  0
XRECORD
  5
32D0
102
{ACAD_REACTORS
330
32CF
102
}
330
32CF
100
AcDbXrecord
280
     1
102
RTVSPost2010Prop28
280
     0
102
RTVSPost2010PropOp28
 70
     1
102
RTVSPost2010Prop29
280
     1
102
RTVSPost2010PropOp29
 70
     1
102
RTVSPost2010Prop30
280
     1
102
RTVSPost2010PropOp30
 70
     1
102
RTVSPost2010Prop31
280
     0
102
RTVSPost2010PropOp31
 70
     1
102
RTVSPost2010Prop32
280
     0
102
RTVSPost2010PropOp32
 70
     1
102
RTVSPost2010Prop33
280
     0
102
RTVSPost2010PropOp33
 70
     1
102
RTVSPost2010Prop34
280
     0
102
RTVSPost2010PropOp34
 70
     1
102
RTVSPost2010Prop35
280
     0
102
RTVSPost2010PropOp35
 70
     1
102
RTVSPost2010Prop36
280
     0
102
RTVSPost2010PropOp36
 70
     1
102
RTVSPost2010Prop37
 90
       50
102
RTVSPost2010PropOp37
 70
     1
102
RTVSPost2010Prop38
140
0.0
102
RTVSPost2010PropOp38
 70
     1
102
RTVSPost2010Prop39
140
1.0
102
RTVSPost2010PropOp39
 70
     1
102
RTVSPost2010Prop40
 90
        0
102
RTVSPost2010PropOp40
 70
     1
102
RTVSPost2010Prop41ColorIndex
 90
       18
102
RTVSPost2010Prop41ColorRGB
 90
        0
102
RTVSPost2010PropOp41
 70
     1
102
RTVSPost2010Prop42
 90
       50
102
RTVSPost2010PropOp42
 70
     1
102
RTVSPost2010Prop43
 90
        3
102
RTVSPost2010PropOp43
 70
     1
102
RTVSPost2010Prop44ColorIndex
 90
        5
102
RTVSPost2010Prop44ColorRGB
 90
      255
102
RTVSPost2010PropOp44
 70
     1
102
RTVSPost2010Prop45
280
     0
102
RTVSPost2010PropOp45
 70
     1
102
RTVSPost2010Prop46
 90
       50
102
RTVSPost2010PropOp46
 70
     1
102
RTVSPost2010Prop47
 90
       50
102
RTVSPost2010PropOp47
 70
     1
102
RTVSPost2010Prop48
 90
       50
102
RTVSPost2010PropOp48
 70
     1
102
RTVSPost2010Prop49
280
     0
102
RTVSPost2010PropOp49
 70
     1
102
RTVSPost2010Prop50
 90
       50
102
RTVSPost2010PropOp50
 70
     1
102
RTVSPost2010Prop51ColorIndex
 90
      256
102
RTVSPost2010Prop51ColorRGB
 90
-16777216
102
RTVSPost2010PropOp51
 70
     0
102
RTVSPost2010Prop52
140
1.0
102
RTVSPost2010PropOp52
 70
     0
102
RTVSPost2010Prop53
 90
        2
102
RTVSPost2010PropOp53
 70
     1
102
RTVSPost2010Prop54
  1
strokes_ogs.tif
102
RTVSPost2010PropOp54
 70
     1
102
RTVSPost2010Prop55
280
     0
102
RTVSPost2010PropOp55
 70
     1
102
RTVSPost2010Prop56
140
1.0
102
RTVSPost2010PropOp56
 70
     1
102
RTVSPost2010Prop57
140
1.0
102
RTVSPost2010PropOp57
 70
     1
102
RTVSPropertyOp0
 70
     1
102
RTVSPropertyOp1
 70
     1
102
RTVSPropertyOp2
 70
     1
102
RTVSPropertyOp3
 70
     1
102
RTVSPropertyOp4
 70
     1
102
RTVSPropertyOp5
 70
     1
102
RTVSPropertyOp6
 70
     1
102
RTVSPropertyOp7
 70
     1
102
RTVSPropertyOp8
 70
     1
102
RTVSPropertyOp9
 70
     1
102
RTVSPropertyOp10
 70
     1
102
RTVSPropertyOp11
 70
     1
102
RTVSPropertyOp12
 70
     1
102
RTVSPropertyOp13
 70
     1
102
RTVSPropertyOp14
 70
     1
102
RTVSPropertyOp15
 70
     1
102
RTVSPropertyOp16
 70
     1
102
RTVSPropertyOp17
 70
     1
102
RTVSPropertyOp18
 70
     1
102
RTVSPropertyOp19
 70
     1
102
RTVSPropertyOp20
 70
     1
102
RTVSPropertyOp21
 70
     1
102
RTVSPropertyOp22
 70
     1
102
RTVSPropertyOp23
 70
     1
102
RTVSPropertyOp24
 70
     1
102
RTVSPropertyOp25
 70
     1
102
RTVSPropertyOp26
 70
     1
102
RTVSPropertyOp27
 70
     1
102
RTVSPropertyOp28
 70
     1
102
RTVSPropertyOp29
 70
     1
102
RTVSPropertyOp30
 70
     1
102
RTVSPropertyOp31
 70
     1
102
RTVSPropertyOp32
 70
     1
102
RTVSPropertyOp33
 70
     1
102
RTVSPropertyOp34
 70
     1
102
RTVSPropertyOp35
 70
     1
102
RTVSPropertyOp36
 70
     1
102
RTVSPropertyOp37
 70
     1
102
RTVSPropertyOp38
 70
     1
102
RTVSPropertyOp39
 70
     1
102
RTVSPropertyOp40
 70
     1
102
RTVSPropertyOp41
 70
     1
102
RTVSPropertyOp42
 70
     1
102
RTVSPropertyOp43
 70
     1
102
RTVSPropertyOp44
 70
     1
102
RTVSPropertyOp45
 70
     1
102
RTVSPropertyOp46
 70
     1
102
RTVSPropertyOp47
 70
     1
102
RTVSPropertyOp48
 70
     1
102
RTVSPropertyOp49
 70
     1
102
RTVSPropertyOp50
 70
     1
102
RTVSPropertyOp51
 70
     0
102
RTVSPropertyOp52
 70
     0
102
RTVSPropertyOp53
 70
     1
102
RTVSPropertyOp54
 70
     1
102
RTVSPropertyOp55
 70
     1
102
RTVSPropertyOp56
 70
     1
102
RTVSPropertyOp57
 70
     1
102
RTVSPropertyOp58
 70
     1
102
RTVSPropertyOp59
 70
     1
102
RTVSPropertyOp60
 70
     1
102
RTVSPropertyOp61
 70
     1
102
RTVSPropertyOp62
 70
     1
  0
XRECORD
  5
32E8
102
{ACAD_REACTORS
330
32E7
102
}
330
32E7
100
AcDbXrecord
280
     1
102
RTVSPost2010Prop28
280
     0
102
RTVSPost2010PropOp28
 70
     1
102
RTVSPost2010Prop29
280
     1
102
RTVSPost2010PropOp29
 70
     1
102
RTVSPost2010Prop30
280
     1
102
RTVSPost2010PropOp30
 70
     1
102
RTVSPost2010Prop31
280
     0
102
RTVSPost2010PropOp31
 70
     1
102
RTVSPost2010Prop32
280
     0
102
RTVSPost2010PropOp32
 70
     1
102
RTVSPost2010Prop33
280
     0
102
RTVSPost2010PropOp33
 70
     1
102
RTVSPost2010Prop34
280
     0
102
RTVSPost2010PropOp34
 70
     1
102
RTVSPost2010Prop35
280
     0
102
RTVSPost2010PropOp35
 70
     1
102
RTVSPost2010Prop36
280
     0
102
RTVSPost2010PropOp36
 70
     1
102
RTVSPost2010Prop37
 90
       50
102
RTVSPost2010PropOp37
 70
     1
102
RTVSPost2010Prop38
140
0.0
102
RTVSPost2010PropOp38
 70
     1
102
RTVSPost2010Prop39
140
1.0
102
RTVSPost2010PropOp39
 70
     1
102
RTVSPost2010Prop40
 90
        0
102
RTVSPost2010PropOp40
 70
     1
102
RTVSPost2010Prop41ColorIndex
 90
       18
102
RTVSPost2010Prop41ColorRGB
 90
        0
102
RTVSPost2010PropOp41
 70
     1
102
RTVSPost2010Prop42
 90
       50
102
RTVSPost2010PropOp42
 70
     1
102
RTVSPost2010Prop43
 90
        3
102
RTVSPost2010PropOp43
 70
     1
102
RTVSPost2010Prop44ColorIndex
 90
        5
102
RTVSPost2010Prop44ColorRGB
 90
      255
102
RTVSPost2010PropOp44
 70
     1
102
RTVSPost2010Prop45
280
     0
102
RTVSPost2010PropOp45
 70
     1
102
RTVSPost2010Prop46
 90
       50
102
RTVSPost2010PropOp46
 70
     1
102
RTVSPost2010Prop47
 90
       50
102
RTVSPost2010PropOp47
 70
     1
102
RTVSPost2010Prop48
 90
       50
102
RTVSPost2010PropOp48
 70
     1
102
RTVSPost2010Prop49
280
     0
102
RTVSPost2010PropOp49
 70
     1
102
RTVSPost2010Prop50
 90
       50
102
RTVSPost2010PropOp50
 70
     1
102
RTVSPost2010Prop51ColorIndex
 90
      256
102
RTVSPost2010Prop51ColorRGB
 90
-16777216
102
RTVSPost2010PropOp51
 70
     0
102
RTVSPost2010Prop52
140
1.0
102
RTVSPost2010PropOp52
 70
     0
102
RTVSPost2010Prop53
 90
        2
102
RTVSPost2010PropOp53
 70
     1
102
RTVSPost2010Prop54
  1
strokes_ogs.tif
102
RTVSPost2010PropOp54
 70
     1
102
RTVSPost2010Prop55
280
     0
102
RTVSPost2010PropOp55
 70
     1
102
RTVSPost2010Prop56
140
1.0
102
RTVSPost2010PropOp56
 70
     1
102
RTVSPost2010Prop57
140
1.0
102
RTVSPost2010PropOp57
 70
     1
102
RTVSPropertyOp0
 70
     1
102
RTVSPropertyOp1
 70
     1
102
RTVSPropertyOp2
 70
     1
102
RTVSPropertyOp3
 70
     1
102
RTVSPropertyOp4
 70
     1
102
RTVSPropertyOp5
 70
     1
102
RTVSPropertyOp6
 70
     1
102
RTVSPropertyOp7
 70
     1
102
RTVSPropertyOp8
 70
     1
102
RTVSPropertyOp9
 70
     1
102
RTVSPropertyOp10
 70
     1
102
RTVSPropertyOp11
 70
     1
102
RTVSPropertyOp12
 70
     1
102
RTVSPropertyOp13
 70
     1
102
RTVSPropertyOp14
 70
     1
102
RTVSPropertyOp15
 70
     1
102
RTVSPropertyOp16
 70
     1
102
RTVSPropertyOp17
 70
     1
102
RTVSPropertyOp18
 70
     1
102
RTVSPropertyOp19
 70
     1
102
RTVSPropertyOp20
 70
     1
102
RTVSPropertyOp21
 70
     1
102
RTVSPropertyOp22
 70
     1
102
RTVSPropertyOp23
 70
     1
102
RTVSPropertyOp24
 70
     1
102
RTVSPropertyOp25
 70
     1
102
RTVSPropertyOp26
 70
     1
102
RTVSPropertyOp27
 70
     1
102
RTVSPropertyOp28
 70
     1
102
RTVSPropertyOp29
 70
     1
102
RTVSPropertyOp30
 70
     1
102
RTVSPropertyOp31
 70
     1
102
RTVSPropertyOp32
 70
     1
102
RTVSPropertyOp33
 70
     1
102
RTVSPropertyOp34
 70
     1
102
RTVSPropertyOp35
 70
     1
102
RTVSPropertyOp36
 70
     1
102
RTVSPropertyOp37
 70
     1
102
RTVSPropertyOp38
 70
     1
102
RTVSPropertyOp39
 70
     1
102
RTVSPropertyOp40
 70
     1
102
RTVSPropertyOp41
 70
     1
102
RTVSPropertyOp42
 70
     1
102
RTVSPropertyOp43
 70
     1
102
RTVSPropertyOp44
 70
     1
102
RTVSPropertyOp45
 70
     1
102
RTVSPropertyOp46
 70
     1
102
RTVSPropertyOp47
 70
     1
102
RTVSPropertyOp48
 70
     1
102
RTVSPropertyOp49
 70
     1
102
RTVSPropertyOp50
 70
     1
102
RTVSPropertyOp51
 70
     0
102
RTVSPropertyOp52
 70
     0
102
RTVSPropertyOp53
 70
     1
102
RTVSPropertyOp54
 70
     1
102
RTVSPropertyOp55
 70
     1
102
RTVSPropertyOp56
 70
     1
102
RTVSPropertyOp57
 70
     1
102
RTVSPropertyOp58
 70
     1
102
RTVSPropertyOp59
 70
     1
102
RTVSPropertyOp60
 70
     1
102
RTVSPropertyOp61
 70
     1
102
RTVSPropertyOp62
 70
     1
  0
ACDBASSOCARRAYACTIONBODY
  5
268D
330
268C
100
AcDbAssocActionBody
 90
        1
100
AcDbAssocParamBasedActionBody
 90
        0
 90
        0
 90
        3
360
2691
360
2692
360
2693
 90
        0
 90
       10
 90
        0
  1
FillAngle
 90
        2
 90
        1
 40
6.283185307179586
330
0
330
0
 90
        0
  1
ItemSpacing
 90
        2
 90
        1
 40
0.1963495408493621
330
0
330
0
 90
        0
  1
Items
 90
        0
 90
        1
 90
       32
330
0
330
0
 90
        0
  1
LevelSpacing
 90
        1
 90
        1
 40
1.3
330
0
330
0
 90
        0
  1
Levels
 90
        0
 90
        1
 90
        1
330
0
330
0
 90
        0
  1
RowElevation
 90
        1
 90
        1
 40
0.0
330
0
330
0
 90
        0
  1
RowSpacing
 90
        1
 90
        1
 40
9.724370333672288
330
0
330
0
 90
        0
  1
Rows
 90
        0
 90
        1
 90
        1
330
0
330
0
 90
        0
  1
Radius
 90
        1
 90
        1
 40
31.56733956448102
330
0
330
0
 90
        0
  1
StartAngle
 90
        2
 90
        1
 40
1.571072950141319
330
0
330
0
100
AcDbAssocArrayActionBody
 90
        1
  1
AcDbAssocArrayPolarParameters
 90
        0
 90
       32
  1
AcDbAssocArrayItem
100
AcDbAssocArrayItem
 90
        0
 90
        0
 90
        0
 90
        0
 90
        8
 11
360.3915675600954
 21
213.7805387564308
 31
0.0
330
26BB
100
AcDbAssocArrayItem
 90
        0
 90
        1
 90
        0
 90
        0
 90
       12
 40
0.9807852804032306
 40
-0.1950903220161283
 40
0.0
 40
354.2332531428782
 40
0.1950903220161281
 40
0.9807852804032306
 40
0.0
 40
213.1722776214904
 40
0.0
 40
0.0
 40
1.0
 40
0.0
 40
0.0
 40
0.0
 40
0.0
 40
1.0
330
269C
100
AcDbAssocArrayItem
 90
        0
 90
        2
 90
        0
 90
        0
 90
       12
 40
0.9238795325112869
 40
-0.3826834323650889
 40
0.0
 40
348.3119348710621
 40
0.3826834323650897
 40
0.9238795325112874
 40
0.0
 40
211.374276510968
 40
0.0
 40
0.0
 40
1.0
 40
0.0
 40
0.0
 40
0.0
 40
0.0
 40
1.0
330
269D
100
AcDbAssocArrayItem
 90
        0
 90
        3
 90
        0
 90
        0
 90
       12
 40
0.8314696123025456
 40
-0.5555702330196006
 40
0.0
 40
342.8551656851193
 40
0.5555702330196022
 40
0.8314696123025466
 40
0.0
 40
208.4556315992104
 40
0.0
 40
0.0
 40
1.0
 40
0.0
 40
0.0
 40
0.0
 40
0.0
 40
1.0
330
269E
100
AcDbAssocArrayItem
 90
        0
 90
        4
 90
        0
 90
        0
 90
       12
 40
0.7071067811865476
 40
-0.7071067811865463
 40
0.0
 40
338.0726461646741
 40
0.7071067811865478
 40
0.7071067811865493
 40
0.0
 40
204.5285047733815
 40
0.0
 40
0.0
 40
1.0
 40
0.0
 40
0.0
 40
0.0
 40
0.0
 40
1.0
330
269F
100
AcDbAssocArrayItem
 90
        0
 90
        5
 90
        0
 90
        0
 90
       12
 40
0.5555702330196026
 40
-0.8314696123025438
 40
0.0
 40
334.1481658528297
 40
0.8314696123025452
 40
0.555570233019605
 40
0.0
 40
199.7438133150398
 40
0.0
 40
0.0
 40
1.0
 40
0.0
 40
0.0
 40
0.0
 40
0.0
 40
1.0
330
26A0
100
AcDbAssocArrayItem
 90
        0
 90
        6
 90
        0
 90
        0
 90
       12
 40
0.3826834323650903
 40
-0.9238795325112853
 40
0.0
 40
331.232540327096
 40
0.9238795325112867
 40
0.3826834323650937
 40
0.0
 40
194.2854302336434
 40
0.0
 40
0.0
 40
1.0
 40
0.0
 40
0.0
 40
0.0
 40
0.0
 40
1.0
330
26A1
100
AcDbAssocArrayItem
 90
        0
 90
        7
 90
        0
 90
        0
 90
       12
 40
0.1950903220161285
 40
-0.9807852804032298
 40
0.0
 40
329.4378154413254
 40
0.9807852804032304
 40
0.1950903220161323
 40
0.0
 40
188.3631181299141
 40
0.0
 40
0.0
 40
0.9999999999999998
 40
0.0
 40
0.0
 40
0.0
 40
0.0
 40
1.0
330
26A2
100
AcDbAssocArrayItem
 90
        0
 90
        8
 90
        0
 90
        0
 90
       12
 40
0.0
 40
-1.0
 40
0.0
 40
328.8329614663849
 40
1.0
 40
0.000000000000004
 40
0.0
 40
182.2044681367271
 40
0.0
 40
0.0
 40
1.0
 40
0.0
 40
0.0
 40
0.0
 40
0.0
 40
1.0
330
26A3
100
AcDbAssocArrayItem
 90
        0
 90
        9
 90
        0
 90
        0
 90
       12
 40
-0.1950903220161285
 40
-0.9807852804032314
 40
0.0
 40
329.4412226013253
 40
0.9807852804032306
 40
-0.1950903220161245
 40
0.0
 40
176.0461537195099
 40
0.0
 40
0.0
 40
1.0
 40
0.0
 40
0.0
 40
0.0
 40
0.0
 40
1.0
330
26A4
100
AcDbAssocArrayItem
 90
        0
 90
       10
 90
        0
 90
        0
 90
       12
 40
-0.3826834323650894
 40
-0.9238795325112892
 40
0.0
 40
331.2392237118477
 40
0.9238795325112871
 40
-0.3826834323650848
 40
0.0
 40
170.1248354476938
 40
0.0
 40
0.0
 40
1.0
 40
0.0
 40
0.0
 40
0.0
 40
0.0
 40
1.0
330
26A5
100
AcDbAssocArrayItem
 90
        0
 90
       11
 90
        0
 90
        0
 90
       12
 40
-0.5555702330196022
 40
-0.8314696123025491
 40
0.0
 40
334.1578686236053
 40
0.8314696123025456
 40
-0.5555702330195971
 40
0.0
 40
164.668066261751
 40
0.0
 40
0.0
 40
1.0
 40
0.0
 40
0.0
 40
0.0
 40
0.0
 40
1.0
330
26A6
100
AcDbAssocArrayItem
 90
        0
 90
       12
 90
        0
 90
        0
 90
       12
 40
-0.7071067811865478
 40
-0.7071067811865524
 40
0.0
 40
338.0849954494342
 40
0.7071067811865476
 40
-0.7071067811865433
 40
0.0
 40
159.8855467413059
 40
0.0
 40
0.0
 40
1.0
 40
0.0
 40
0.0
 40
0.0
 40
0.0
 40
1.0
330
26A7
100
AcDbAssocArrayItem
 90
        0
 90
       13
 90
        0
 90
        0
 90
       12
 40
-0.8314696123025456
 40
-0.5555702330196076
 40
0.0
 40
342.8696869077759
 40
0.5555702330196022
 40
-0.831469612302542
 40
0.0
 40
155.9610664294613
 40
0.0
 40
0.0
 40
1.0
 40
0.0
 40
0.0
 40
0.0
 40
0.0
 40
1.0
330
26A8
100
AcDbAssocArrayItem
 90
        0
 90
       14
 90
        0
 90
        0
 90
       12
 40
-0.9238795325112867
 40
-0.3826834323650962
 40
0.0
 40
348.3280699891722
 40
0.3826834323650903
 40
-0.9238795325112844
 40
0.0
 40
153.0454409037277
 40
0.0
 40
0.0
 40
1.0
 40
0.0
 40
0.0
 40
0.0
 40
0.0
 40
1.0
330
26A9
100
AcDbAssocArrayItem
 90
        0
 90
       15
 90
        0
 90
        0
 90
       12
 40
-0.9807852804032304
 40
-0.1950903220161349
 40
0.0
 40
354.2503820929016
 40
0.1950903220161285
 40
-0.9807852804032293
 40
0.0
 40
151.2507160179571
 40
0.0
 40
0.0
 40
1.0
 40
0.0
 40
0.0
 40
0.0
 40
0.0
 40
1.0
330
26AA
100
AcDbAssocArrayItem
 90
        0
 90
       16
 90
        0
 90
        0
 90
       12
 40
-1.0
 40
-0.0000000000000066
 40
0.0
 40
360.4090320860886
 40
0.0000000000000001
 40
-1.0
 40
0.0
 40
150.6458620430166
 40
0.0
 40
0.0
 40
1.0
 40
0.0
 40
0.0
 40
0.0
 40
0.0
 40
1.0
330
26AB
100
AcDbAssocArrayItem
 90
        0
 90
       17
 90
        0
 90
        0
 90
       12
 40
-0.9807852804032306
 40
0.195090322016122
 40
0.0
 40
366.5673465033058
 40
-0.1950903220161285
 40
-0.980785280403232
 40
0.0
 40
151.254123177957
 40
0.0
 40
0.0
 40
1.0
 40
0.0
 40
0.0
 40
0.0
 40
0.0
 40
1.0
330
26AC
100
AcDbAssocArrayItem
 90
        0
 90
       18
 90
        0
 90
        0
 90
       12
 40
-0.9238795325112867
 40
0.382683432365083
 40
0.0
 40
372.4886647751219
 40
-0.3826834323650902
 40
-0.9238795325112899
 40
0.0
 40
153.0521242884794
 40
0.0
 40
0.0
 40
1.0
 40
0.0
 40
0.0
 40
0.0
 40
0.0
 40
1.0
330
26AD
100
AcDbAssocArrayItem
 90
        0
 90
       19
 90
        0
 90
        0
 90
       12
 40
-0.8314696123025456
 40
0.5555702330195946
 40
0.0
 40
377.9454339610647
 40
-0.5555702330196021
 40
-0.8314696123025509
 40
0.0
 40
155.970769200237
 40
0.0
 40
0.0
 40
1.0
 40
0.0
 40
0.0
 40
0.0
 40
0.0
 40
1.0
330
26AE
100
AcDbAssocArrayItem
 90
        0
 90
       20
 90
        0
 90
        0
 90
       12
 40
-0.7071067811865476
 40
0.7071067811865403
 40
0.0
 40
382.7279534815098
 40
-0.7071067811865478
 40
-0.7071067811865554
 40
0.0
 40
159.8978960260659
 40
0.0
 40
0.0
 40
1.0
 40
0.0
 40
0.0
 40
0.0
 40
0.0
 40
1.0
330
26AF
100
AcDbAssocArrayItem
 90
        0
 90
       21
 90
        0
 90
        0
 90
       12
 40
-0.5555702330196022
 40
0.8314696123025395
 40
0.0
 40
386.6524337933543
 40
-0.8314696123025456
 40
-0.5555702330196112
 40
0.0
 40
164.6825874844076
 40
0.0
 40
0.0
 40
1.0
 40
0.0
 40
0.0
 40
0.0
 40
0.0
 40
1.0
330
26B0
100
AcDbAssocArrayItem
 90
        0
 90
       22
 90
        0
 90
        0
 90
       12
 40
-0.3826834323650896
 40
0.9238795325112828
 40
0.0
 40
389.568059319088
 40
-0.9238795325112871
 40
-0.3826834323650996
 40
0.0
 40
170.140970565804
 40
0.0
 40
0.0
 40
1.0
 40
0.0
 40
0.0
 40
0.0
 40
0.0
 40
1.0
330
26B1
100
AcDbAssocArrayItem
 90
        0
 90
       23
 90
        0
 90
        0
 90
       12
 40
-0.1950903220161278
 40
0.9807852804032286
 40
0.0
 40
391.3627842048585
 40
-0.9807852804032306
 40
-0.1950903220161391
 40
0.0
 40
176.0632826695333
 40
0.0
 40
0.0
 40
1.0
 40
0.0
 40
0.0
 40
0.0
 40
0.0
 40
1.0
330
26B2
100
AcDbAssocArrayItem
 90
        0
 90
       24
 90
        0
 90
        0
 90
       12
 40
0.0000000000000001
 40
1.0
 40
0.0
 40
391.9676381797991
 40
-1.0
 40
-0.0000000000000121
 40
0.0
 40
182.2219326627203
 40
0.0
 40
0.0
 40
1.0
 40
0.0
 40
0.0
 40
0.0
 40
0.0
 40
1.0
330
26B3
100
AcDbAssocArrayItem
 90
        0
 90
       25
 90
        0
 90
        0
 90
       12
 40
0.1950903220161286
 40
0.9807852804032332
 40
0.0
 40
391.3593770448587
 40
-0.9807852804032306
 40
0.1950903220161155
 40
0.0
 40
188.3802470799375
 40
0.0
 40
0.0
 40
0.9999999999999998
 40
0.0
 40
0.0
 40
0.0
 40
0.0
 40
1.0
330
26B4
100
AcDbAssocArrayItem
 90
        0
 90
       26
 90
        0
 90
        0
 90
       12
 40
0.3826834323650904
 40
0.9238795325112924
 40
0.0
 40
389.5613759343363
 40
-0.9238795325112866
 40
0.3826834323650769
 40
0.0
 40
194.3015653517536
 40
0.0
 40
0.0
 40
1.0
 40
0.0
 40
0.0
 40
0.0
 40
0.0
 40
1.0
330
26B5
100
AcDbAssocArrayItem
 90
        0
 90
       27
 90
        0
 90
        0
 90
       12
 40
0.5555702330196023
 40
0.8314696123025544
 40
0.0
 40
386.6427310225787
 40
-0.8314696123025456
 40
0.555570233019589
 40
0.0
 40
199.7583345376964
 40
0.0
 40
0.0
 40
1.0
 40
0.0
 40
0.0
 40
0.0
 40
0.0
 40
1.0
330
26B6
100
AcDbAssocArrayItem
 90
        0
 90
       28
 90
        0
 90
        0
 90
       12
 40
0.7071067811865479
 40
0.7071067811865599
 40
0.0
 40
382.7156041967498
 40
-0.7071067811865475
 40
0.7071067811865355
 40
0.0
 40
204.5408540581415
 40
0.0
 40
0.0
 40
1.0
 40
0.0
 40
0.0
 40
0.0
 40
0.0
 40
1.0
330
26B7
100
AcDbAssocArrayItem
 90
        0
 90
       29
 90
        0
 90
        0
 90
       12
 40
0.8314696123025456
 40
0.5555702330196177
 40
0.0
 40
377.9309127384081
 40
-0.5555702330196021
 40
0.8314696123025353
 40
0.0
 40
208.4653343699861
 40
0.0
 40
0.0
 40
1.0
 40
0.0
 40
0.0
 40
0.0
 40
0.0
 40
1.0
330
26B8
100
AcDbAssocArrayItem
 90
        0
 90
       30
 90
        0
 90
        0
 90
       12
 40
0.9238795325112871
 40
0.3826834323651068
 40
0.0
 40
372.4725296570117
 40
-0.3826834323650894
 40
0.9238795325112802
 40
0.0
 40
211.3809598957197
 40
0.0
 40
0.0
 40
1.0
 40
0.0
 40
0.0
 40
0.0
 40
0.0
 40
1.0
330
26B9
100
AcDbAssocArrayItem
 90
        0
 90
       31
 90
        0
 90
        0
 90
       12
 40
0.9807852804032306
 40
0.1950903220161473
 40
0.0
 40
366.5502175532824
 40
-0.1950903220161285
 40
0.9807852804032268
 40
0.0
 40
213.1756847814903
 40
0.0
 40
0.0
 40
0.9999999999999998
 40
0.0
 40
0.0
 40
0.0
 40
0.0
 40
1.0
330
26BA
 40
1.0
 40
0.0
 40
0.0
 40
-254.3065296302088
 40
0.0
 40
1.0
 40
0.0
 40
-38.00614457623461
 40
0.0
 40
0.0
 40
1.0
 40
0.0
 40
0.0
 40
0.0
 40
0.0
 40
1.0
  0
ACDBASSOCDEPENDENCY
  5
268E
330
268C
100
AcDbAssocDependency
 90
        2
 90
        1
290
     0
290
     1
290
     1
290
     1
 90
        0
330
269A
290
     0
330
0
330
0
360
0
 90
        1
  0
ACDBASSOCDEPENDENCY
  5
268F
330
268C
100
AcDbAssocDependency
 90
        2
 90
        1
290
     1
290
     0
290
     1
290
     1
 90
        0
330
2694
290
     0
330
0
330
0
360
0
 90
        2
  0
ACDBASSOCDEPENDENCY
  5
2690
330
268C
100
AcDbAssocDependency
 90
        2
 90
        0
290
     1
290
     1
290
     1
290
     1
 90
-2147483648
330
25BC
290
     0
330
0
330
0
360
0
 90
        3
  0
ACDBASSOCVERTEXACTIONPARAM
  5
2691
330
268D
100
AcDbAssocActionParam
 90
        0
  1
BaseNormal
100
AcDbAssocSingleDependencyActionParam
 90
        0
330
0
100
AcDbAssocVertexActionParam
 90
        0
 10
0.0
 20
0.0
 30
1.3
  0
ACDBASSOCVERTEXACTIONPARAM
  5
2692
330
268D
100
AcDbAssocActionParam
 90
        0
  1
Origin
100
AcDbAssocSingleDependencyActionParam
 90
        0
330
0
100
AcDbAssocVertexActionParam
 90
        0
 10
360.400299823092
 20
182.2132003997237
 30
0.0
  0
ACDBASSOCVERTEXACTIONPARAM
  5
2693
330
268D
100
AcDbAssocActionParam
 90
        0
  1
basePoint
100
AcDbAssocSingleDependencyActionParam
 90
        0
330
0
100
AcDbAssocVertexActionParam
 90
        0
 10
0.0
 20
0.0
 30
0.0
  0
ENDSEC
  0
EOF
